osu file format v14

[General]
AudioFilename: schnappi.mp3
AudioLeadIn: 0
PreviewTime: 23986
Countdown: 0
SampleSet: Normal
StackLeniency: 0.7
Mode: 1
LetterboxInBreaks: 0
WidescreenStoryboard: 0

[Editor]
DistanceSpacing: 1.4
BeatDivisor: 4
GridSize: 32
TimelineZoom: 1.3

[Metadata]
Title:Schnappi, das kleine Krokodil
TitleUnicode:Schnappi, das kleine Krokodil
Artist:Joy Gruttmann
ArtistUnicode:Joy Gruttmann
Creator:Stefan
Version:Sehr Schwer
Source:
Tags:german children song thenutritiousguy tng
BeatmapID:3736583
BeatmapSetID:406740

[Difficulty]
HPDrainRate:5
CircleSize:5
OverallDifficulty:5
ApproachRate:5
SliderMultiplier:1.4
SliderTickRate:1

[Events]
//Background and Video events
0,0,"xcxcfdfhdf.png",0,25
//Break Periods
//Storyboard Layer 0 (Background)
//Storyboard Layer 1 (Fail)
//Storyboard Layer 2 (Pass)
//Storyboard Layer 3 (Foreground)
//Storyboard Layer 4 (Overlay)
//Storyboard Sound Samples

[TimingPoints]
1948,461.538461538462,4,1,0,60,1,0
24101,-100,4,1,0,60,0,1
30563,-100,4,1,0,60,0,0
53640,-100,4,1,0,60,0,1
60101,-100,4,1,0,60,0,0
83178,-100,4,1,0,60,0,1
89640,-100,4,1,0,60,0,0
112717,-100,4,1,0,60,0,1
119178,-100,4,1,0,60,0,0
120101,-90.9090909090909,4,1,0,60,0,1
126563,-90.9090909090909,4,1,0,60,0,0

[HitObjects]
256,192,9332,5,0,0:0:0:0:
256,192,9563,1,8,0:0:0:0:
256,192,10024,1,0,0:0:0:0:
256,192,10255,1,8,0:0:0:0:
256,192,10486,1,8,0:0:0:0:
256,192,10717,1,0,0:0:0:0:
256,192,10948,1,0,0:0:0:0:
256,192,11178,1,8,0:0:0:0:
256,192,11409,1,0,0:0:0:0:
256,192,11871,1,0,0:0:0:0:
256,192,12332,1,8,0:0:0:0:
256,192,12563,1,0,0:0:0:0:
256,192,12794,1,8,0:0:0:0:
256,192,12909,1,0,0:0:0:0:
256,192,13024,1,8,0:0:0:0:
256,192,13255,1,8,0:0:0:0:
256,192,13717,1,8,0:0:0:0:
256,192,13948,1,0,0:0:0:0:
256,192,14294,1,8,0:0:0:0:
256,192,14409,1,0,0:0:0:0:
256,192,14640,1,8,0:0:0:0:
256,192,14871,1,0,0:0:0:0:
256,192,15332,1,0,0:0:0:0:
256,192,15563,1,8,0:0:0:0:
256,192,15794,1,0,0:0:0:0:
256,192,16024,1,8,0:0:0:0:
256,192,16486,1,0,0:0:0:0:
256,192,16717,1,8,0:0:0:0:
256,192,17409,1,8,0:0:0:0:
256,192,17640,1,0,0:0:0:0:
256,192,17871,1,0,0:0:0:0:
256,192,18101,1,8,0:0:0:0:
256,192,18217,1,8,0:0:0:0:
256,192,18332,1,0,0:0:0:0:
256,192,18563,1,8,0:0:0:0:
256,192,19024,1,0,0:0:0:0:
256,192,19255,1,8,0:0:0:0:
256,192,19717,1,8,0:0:0:0:
256,192,20178,1,8,0:0:0:0:
256,192,20409,1,0,0:0:0:0:
256,192,20871,1,0,0:0:0:0:
256,192,21101,1,8,0:0:0:0:
256,192,21332,1,8,0:0:0:0:
256,192,21678,1,8,0:0:0:0:
256,192,21794,1,0,0:0:0:0:
256,192,22024,1,0,0:0:0:0:
256,192,22255,1,8,0:0:0:0:
256,192,22486,1,8,0:0:0:0:
256,192,22717,1,0,0:0:0:0:
256,192,22948,1,0,0:0:0:0:
256,192,23178,1,8,0:0:0:0:
256,192,24101,1,8,0:0:0:0:
256,192,24332,1,0,0:0:0:0:
256,192,24563,1,8,0:0:0:0:
256,192,24794,1,0,0:0:0:0:
256,192,25024,1,8,0:0:0:0:
256,192,25255,1,8,0:0:0:0:
256,192,25717,1,0,0:0:0:0:
256,192,25948,1,8,0:0:0:0:
256,192,26178,1,0,0:0:0:0:
256,192,26294,1,0,0:0:0:0:
256,192,26409,1,8,0:0:0:0:
256,192,26640,1,0,0:0:0:0:
256,192,26871,1,8,0:0:0:0:
256,192,27101,1,0,0:0:0:0:
256,192,27563,1,0,0:0:0:0:
256,192,27794,1,8,0:0:0:0:
256,192,28024,1,0,0:0:0:0:
256,192,28255,1,8,0:0:0:0:
256,192,28486,1,0,0:0:0:0:
256,192,28717,1,8,0:0:0:0:
256,192,28948,1,8,0:0:0:0:
256,192,29409,1,0,0:0:0:0:
256,192,29640,1,8,0:0:0:0:
256,192,29871,1,0,0:0:0:0:
256,192,29986,1,0,0:0:0:0:
256,192,30101,1,8,0:0:0:0:
256,192,30332,1,0,0:0:0:0:
256,192,30563,1,12,0:0:0:0:
256,192,31486,1,0,0:0:0:0:
256,192,31717,1,8,0:0:0:0:
256,192,31948,1,0,0:0:0:0:
256,192,32178,1,8,0:0:0:0:
256,192,32640,1,8,0:0:0:0:
256,192,32871,1,0,0:0:0:0:
256,192,33101,1,8,0:0:0:0:
256,192,33563,1,8,0:0:0:0:
256,192,34024,1,8,0:0:0:0:
256,192,34255,1,0,0:0:0:0:
256,192,34486,1,8,0:0:0:0:
256,192,34717,1,8,0:0:0:0:
256,192,34948,1,8,0:0:0:0:
256,192,35178,1,0,0:0:0:0:
256,192,35409,1,8,0:0:0:0:
256,192,35640,1,0,0:0:0:0:
256,192,35871,1,8,0:0:0:0:
256,192,36332,1,8,0:0:0:0:
256,192,36563,1,0,0:0:0:0:
256,192,36794,1,8,0:0:0:0:
256,192,37255,1,8,0:0:0:0:
256,192,37486,1,0,0:0:0:0:
256,192,37717,1,0,0:0:0:0:
256,192,37948,1,12,0:0:0:0:
256,192,38871,1,0,0:0:0:0:
256,192,39101,1,8,0:0:0:0:
256,192,39563,1,8,0:0:0:0:
256,192,39794,1,0,0:0:0:0:
256,192,40024,1,0,0:0:0:0:
256,192,40255,1,8,0:0:0:0:
256,192,40486,1,0,0:0:0:0:
256,192,40717,1,8,0:0:0:0:
256,192,41178,1,0,0:0:0:0:
256,192,41640,1,0,0:0:0:0:
256,192,41871,1,8,0:0:0:0:
256,192,42101,1,8,0:0:0:0:
256,192,42332,1,0,0:0:0:0:
256,192,42563,1,8,0:0:0:0:
256,192,42794,1,8,0:0:0:0:
256,192,43255,1,0,0:0:0:0:
256,192,43486,1,8,0:0:0:0:
256,192,43717,1,0,0:0:0:0:
256,192,43832,1,0,0:0:0:0:
256,192,43948,1,8,0:0:0:0:
256,192,44178,1,0,0:0:0:0:
256,192,44409,1,8,0:0:0:0:
256,192,44871,1,0,0:0:0:0:
256,192,45332,1,0,0:0:0:0:
256,192,45563,1,8,0:0:0:0:
256,192,45794,1,0,0:0:0:0:
256,192,46024,1,0,0:0:0:0:
256,192,46255,1,8,0:0:0:0:
256,192,46948,1,0,0:0:0:0:
256,192,47178,1,8,0:0:0:0:
256,192,47409,1,8,0:0:0:0:
256,192,47640,1,0,0:0:0:0:
256,192,47871,1,0,0:0:0:0:
256,192,48101,1,8,0:0:0:0:
256,192,48563,1,0,0:0:0:0:
256,192,48794,1,0,0:0:0:0:
256,192,49255,1,8,0:0:0:0:
256,192,49717,1,8,0:0:0:0:
256,192,49948,1,0,0:0:0:0:
256,192,50178,1,8,0:0:0:0:
256,192,50640,1,8,0:0:0:0:
256,192,50871,1,0,0:0:0:0:
256,192,51101,1,8,0:0:0:0:
256,192,51217,1,0,0:0:0:0:
256,192,51332,1,0,0:0:0:0:
256,192,51563,1,0,0:0:0:0:
256,192,51794,1,8,0:0:0:0:
256,192,52024,1,0,0:0:0:0:
256,192,52255,1,8,0:0:0:0:
256,192,52486,1,0,0:0:0:0:
256,192,52717,1,12,0:0:0:0:
256,192,53640,1,8,0:0:0:0:
256,192,53871,1,0,0:0:0:0:
256,192,54101,1,8,0:0:0:0:
256,192,54217,1,8,0:0:0:0:
256,192,54332,1,8,0:0:0:0:
256,192,54563,1,8,0:0:0:0:
256,192,54794,1,8,0:0:0:0:
256,192,55255,1,0,0:0:0:0:
256,192,55486,1,8,0:0:0:0:
256,192,55717,1,0,0:0:0:0:
256,192,55832,1,0,0:0:0:0:
256,192,55948,1,8,0:0:0:0:
256,192,56178,1,0,0:0:0:0:
256,192,56409,1,8,0:0:0:0:
256,192,56640,1,0,0:0:0:0:
256,192,57101,1,0,0:0:0:0:
256,192,57332,1,8,0:0:0:0:
256,192,57563,1,0,0:0:0:0:
256,192,57794,1,8,0:0:0:0:
256,192,57909,1,8,0:0:0:0:
256,192,58024,1,8,0:0:0:0:
256,192,58255,1,8,0:0:0:0:
256,192,58486,1,8,0:0:0:0:
256,192,58948,1,0,0:0:0:0:
256,192,59178,1,8,0:0:0:0:
256,192,59409,1,0,0:0:0:0:
256,192,59524,1,0,0:0:0:0:
256,192,59640,1,8,0:0:0:0:
256,192,59871,1,0,0:0:0:0:
256,192,60101,1,12,0:0:0:0:
256,192,61024,1,0,0:0:0:0:
256,192,61255,1,8,0:0:0:0:
256,192,61486,1,0,0:0:0:0:
256,192,61717,1,8,0:0:0:0:
256,192,62178,1,8,0:0:0:0:
256,192,62409,1,0,0:0:0:0:
256,192,62640,1,8,0:0:0:0:
256,192,63101,1,8,0:0:0:0:
256,192,63563,1,8,0:0:0:0:
256,192,63794,1,0,0:0:0:0:
256,192,64024,1,8,0:0:0:0:
256,192,64255,1,8,0:0:0:0:
256,192,64486,1,8,0:0:0:0:
256,192,64717,1,0,0:0:0:0:
256,192,64948,1,8,0:0:0:0:
256,192,65178,1,0,0:0:0:0:
256,192,65409,1,8,0:0:0:0:
256,192,65871,1,8,0:0:0:0:
256,192,66101,1,0,0:0:0:0:
256,192,66332,1,8,0:0:0:0:
256,192,66794,1,8,0:0:0:0:
256,192,67024,1,0,0:0:0:0:
256,192,67255,1,0,0:0:0:0:
256,192,67486,1,12,0:0:0:0:
256,192,68409,1,0,0:0:0:0:
256,192,68640,1,8,0:0:0:0:
256,192,69101,1,0,0:0:0:0:
256,192,69332,1,8,0:0:0:0:
256,192,69563,1,8,0:0:0:0:
256,192,69794,1,0,0:0:0:0:
256,192,70024,1,0,0:0:0:0:
256,192,70255,1,8,0:0:0:0:
256,192,70486,1,0,0:0:0:0:
256,192,70948,1,8,0:0:0:0:
256,192,71409,1,0,0:0:0:0:
256,192,71640,1,8,0:0:0:0:
256,192,71871,1,0,0:0:0:0:
256,192,72101,1,8,0:0:0:0:
256,192,72794,1,8,0:0:0:0:
256,192,73024,1,0,0:0:0:0:
256,192,73255,1,8,0:0:0:0:
256,192,73371,1,0,0:0:0:0:
256,192,73486,1,8,0:0:0:0:
256,192,73717,1,0,0:0:0:0:
256,192,73948,1,8,0:0:0:0:
256,192,74178,1,0,0:0:0:0:
256,192,74640,1,0,0:0:0:0:
256,192,75101,1,8,0:0:0:0:
256,192,75332,1,0,0:0:0:0:
256,192,75563,1,0,0:0:0:0:
256,192,75794,1,8,0:0:0:0:
256,192,76255,1,0,0:0:0:0:
256,192,76486,1,0,0:0:0:0:
256,192,76717,1,8,0:0:0:0:
256,192,76948,1,0,0:0:0:0:
256,192,77178,1,8,0:0:0:0:
256,192,77409,1,8,0:0:0:0:
256,192,77640,1,0,0:0:0:0:
256,192,78101,1,0,0:0:0:0:
256,192,78332,1,8,0:0:0:0:
256,192,78794,1,8,0:0:0:0:
256,192,79255,1,0,0:0:0:0:
256,192,79486,1,8,0:0:0:0:
256,192,79948,1,0,0:0:0:0:
256,192,80178,1,8,0:0:0:0:
256,192,80409,1,8,0:0:0:0:
256,192,80755,1,0,0:0:0:0:
256,192,80871,1,8,0:0:0:0:
256,192,81101,1,0,0:0:0:0:
256,192,81332,1,8,0:0:0:0:
256,192,81563,1,8,0:0:0:0:
256,192,81794,1,0,0:0:0:0:
256,192,82024,1,0,0:0:0:0:
256,192,82255,1,8,0:0:0:0:
256,192,83178,1,8,0:0:0:0:
256,192,83409,1,0,0:0:0:0:
256,192,83640,1,8,0:0:0:0:
256,192,83871,1,0,0:0:0:0:
256,192,84101,1,8,0:0:0:0:
256,192,84332,1,8,0:0:0:0:
256,192,84794,1,0,0:0:0:0:
256,192,85024,1,8,0:0:0:0:
256,192,85255,1,0,0:0:0:0:
256,192,85371,1,0,0:0:0:0:
256,192,85486,1,8,0:0:0:0:
256,192,85717,1,0,0:0:0:0:
256,192,85948,1,8,0:0:0:0:
256,192,86178,1,0,0:0:0:0:
256,192,86640,1,0,0:0:0:0:
256,192,86871,1,8,0:0:0:0:
256,192,87101,1,0,0:0:0:0:
256,192,87332,1,8,0:0:0:0:
256,192,87563,1,0,0:0:0:0:
256,192,87794,1,8,0:0:0:0:
256,192,88024,1,8,0:0:0:0:
256,192,88486,1,0,0:0:0:0:
256,192,88717,1,8,0:0:0:0:
256,192,88948,1,0,0:0:0:0:
256,192,89063,1,0,0:0:0:0:
256,192,89178,1,8,0:0:0:0:
256,192,89409,1,0,0:0:0:0:
256,192,89640,1,12,0:0:0:0:
256,192,90563,1,0,0:0:0:0:
256,192,90794,1,8,0:0:0:0:
256,192,91024,1,0,0:0:0:0:
256,192,91255,1,8,0:0:0:0:
256,192,91717,1,8,0:0:0:0:
256,192,91948,1,0,0:0:0:0:
256,192,92178,1,8,0:0:0:0:
256,192,92640,1,8,0:0:0:0:
256,192,93101,1,8,0:0:0:0:
256,192,93332,1,0,0:0:0:0:
256,192,93563,1,8,0:0:0:0:
256,192,93794,1,8,0:0:0:0:
256,192,94024,1,8,0:0:0:0:
256,192,94255,1,0,0:0:0:0:
256,192,94486,1,8,0:0:0:0:
256,192,94717,1,0,0:0:0:0:
256,192,94948,1,8,0:0:0:0:
256,192,95409,1,8,0:0:0:0:
256,192,95640,1,0,0:0:0:0:
256,192,95871,1,8,0:0:0:0:
256,192,96332,1,8,0:0:0:0:
256,192,96563,1,0,0:0:0:0:
256,192,96794,1,0,0:0:0:0:
256,192,97024,1,12,0:0:0:0:
256,192,97948,1,0,0:0:0:0:
256,192,98178,1,0,0:0:0:0:
256,192,98640,1,0,0:0:0:0:
256,192,98871,1,8,0:0:0:0:
256,192,99101,1,8,0:0:0:0:
256,192,99332,1,0,0:0:0:0:
256,192,99563,1,0,0:0:0:0:
256,192,99794,1,8,0:0:0:0:
256,192,100255,1,0,0:0:0:0:
256,192,100717,1,0,0:0:0:0:
256,192,100948,1,0,0:0:0:0:
256,192,101178,1,8,0:0:0:0:
256,192,101294,1,0,0:0:0:0:
256,192,101524,1,0,0:0:0:0:
256,192,101640,1,8,0:0:0:0:
256,192,101871,1,0,0:0:0:0:
256,192,102332,1,8,0:0:0:0:
256,192,102563,1,8,0:0:0:0:
256,192,102794,1,0,0:0:0:0:
256,192,102909,1,0,0:0:0:0:
256,192,103024,1,8,0:0:0:0:
256,192,103255,1,0,0:0:0:0:
256,192,103486,1,8,0:0:0:0:
256,192,103948,1,0,0:0:0:0:
256,192,104409,1,0,0:0:0:0:
256,192,104640,1,8,0:0:0:0:
256,192,104871,1,0,0:0:0:0:
256,192,105101,1,8,0:0:0:0:
256,192,105332,1,8,0:0:0:0:
256,192,105794,1,0,0:0:0:0:
256,192,106024,1,0,0:0:0:0:
256,192,106255,1,8,0:0:0:0:
256,192,106486,1,0,0:0:0:0:
256,192,106717,1,8,0:0:0:0:
256,192,106948,1,0,0:0:0:0:
256,192,107063,1,0,0:0:0:0:
256,192,107178,1,8,0:0:0:0:
256,192,107640,1,0,0:0:0:0:
256,192,108101,1,0,0:0:0:0:
256,192,108332,1,0,0:0:0:0:
256,192,108563,1,8,0:0:0:0:
256,192,108794,1,0,0:0:0:0:
256,192,109024,1,8,0:0:0:0:
256,192,109486,1,0,0:0:0:0:
256,192,109717,1,8,0:0:0:0:
256,192,109948,1,8,0:0:0:0:
256,192,110178,1,0,0:0:0:0:
256,192,110294,1,0,0:0:0:0:
256,192,110409,1,8,0:0:0:0:
256,192,110640,1,0,0:0:0:0:
256,192,110871,1,8,0:0:0:0:
256,192,111101,1,0,0:0:0:0:
256,192,111332,1,8,0:0:0:0:
256,192,111563,1,0,0:0:0:0:
256,192,111794,1,12,0:0:0:0:
256,192,112717,1,8,0:0:0:0:
256,192,112948,1,0,0:0:0:0:
256,192,113178,1,8,0:0:0:0:
256,192,113409,1,0,0:0:0:0:
256,192,113640,1,8,0:0:0:0:
256,192,113871,1,8,0:0:0:0:
256,192,114332,1,0,0:0:0:0:
256,192,114563,1,8,0:0:0:0:
256,192,114794,1,0,0:0:0:0:
256,192,114909,1,0,0:0:0:0:
256,192,115024,1,8,0:0:0:0:
256,192,115255,1,0,0:0:0:0:
256,192,115486,1,8,0:0:0:0:
256,192,115717,1,0,0:0:0:0:
256,192,116178,1,0,0:0:0:0:
256,192,116409,1,8,0:0:0:0:
256,192,116640,1,0,0:0:0:0:
256,192,116871,1,8,0:0:0:0:
256,192,117101,1,0,0:0:0:0:
256,192,117332,1,8,0:0:0:0:
256,192,117563,1,8,0:0:0:0:
256,192,118024,1,0,0:0:0:0:
256,192,118255,1,8,0:0:0:0:
256,192,118486,1,0,0:0:0:0:
256,192,118601,1,0,0:0:0:0:
256,192,118717,1,8,0:0:0:0:
256,192,118948,1,0,0:0:0:0:
256,192,119178,1,12,0:0:0:0:
256,192,120101,1,8,0:0:0:0:
256,192,120332,1,0,0:0:0:0:
256,192,120563,1,8,0:0:0:0:
256,192,120794,1,0,0:0:0:0:
256,192,121024,1,8,0:0:0:0:
256,192,121255,1,0,0:0:0:0:
256,192,121371,1,0,0:0:0:0:
256,192,121486,1,8,0:0:0:0:
256,192,121717,1,0,0:0:0:0:
256,192,121948,1,8,0:0:0:0:
256,192,122063,1,0,0:0:0:0:
256,192,122178,1,8,0:0:0:0:
256,192,122409,1,8,0:0:0:0:
256,192,122524,1,0,0:0:0:0:
256,192,122640,1,8,0:0:0:0:
256,192,122871,1,8,0:0:0:0:
256,192,123101,1,0,0:0:0:0:
256,192,123332,1,8,0:0:0:0:
256,192,123794,1,8,0:0:0:0:
256,192,124024,1,0,0:0:0:0:
256,192,124140,1,0,0:0:0:0:
256,192,124255,1,8,0:0:0:0:
256,192,124486,1,0,0:0:0:0:
256,192,124717,1,8,0:0:0:0:
256,192,124948,1,8,0:0:0:0:
256,192,125063,1,8,0:0:0:0:
256,192,125178,1,0,0:0:0:0:
256,192,125409,1,0,0:0:0:0:
256,192,125640,1,8,0:0:0:0:
256,192,125755,1,0,0:0:0:0:
256,192,125871,1,8,0:0:0:0:
256,192,126101,1,8,0:0:0:0:
256,192,126217,1,0,0:0:0:0:
256,192,126332,1,8,0:0:0:0:
256,192,126563,1,12,0:0:0:0:
