osu file format v14

[General]
AudioFilename: audio.mp3
AudioLeadIn: 0
PreviewTime: 15513
Countdown: 1
SampleSet: None
StackLeniency: 0.7
Mode: 0
LetterboxInBreaks: 0
WidescreenStoryboard: 0

[Editor]
DistanceSpacing: 0.9
BeatDivisor: 3
GridSize: 32
TimelineZoom: 1.6

[Metadata]
Title:Cocoon
TitleUnicode:Cocoon
Artist:Jounalist
ArtistUnicode:Jounalist
Creator:Diamondize
Version:Insane
Source:
Tags:Djent Groove Metal Riverside Technical Melodic Spoken Word
BeatmapID:1468935
BeatmapSetID:694310

[Difficulty]
HPDrainRate:5
CircleSize:5
OverallDifficulty:5
ApproachRate:7
SliderMultiplier:1.4
SliderTickRate:1

[Events]
//Background and Video events
0,0,"Journalist.jpg",0,0
//Break Periods
2,86511,93712
2,95118,99704
//Storyboard Layer 0 (Background)
//Storyboard Layer 1 (Fail)
//Storyboard Layer 2 (Pass)
//Storyboard Layer 3 (Foreground)
//Storyboard Sound Samples

[TimingPoints]
-11,521.739130434783,4,1,0,100,1,0
58402,521.739130434783,6,1,0,100,1,0
61532,521.669130434783,4,1,0,100,1,0

[Colours]
Combo1 : 85,0,0
Combo2 : 176,255,255
Combo3 : 85,170,170
Combo4 : 135,88,167
Combo5 : 44,44,44

[HitObjects]
31,32,2072,5,0,3:0:0:0:
96,96,2332,1,0,3:0:0:0:
32,160,2592,1,0,3:0:0:0:
96,224,2853,1,0,3:0:0:0:
288,128,3374,6,0,P|320:128|352:160,1,70
288,192,3894,2,0,P|288:224|320:224,1,70
308,117,4415,2,0,B|326:163|379:169|378:167,1,70
224,160,4936,2,0,P|192:160|160:128,1,70
320,32,5717,5,0,0:0:0:0:
480,96,5977,1,0,0:0:0:0:
320,160,6238,1,0,0:0:0:0:
32,32,6628,1,0,0:0:0:0:
96,32,7019,1,0,0:0:0:0:
160,32,7540,5,0,0:0:0:0:
160,64,7670,1,0,0:0:0:0:
160,96,7800,1,0,0:0:0:0:
160,128,7930,1,0,0:0:0:0:
160,160,8061,5,0,0:0:0:0:
192,192,8191,1,0,0:0:0:0:
192,224,8321,1,0,0:0:0:0:
192,256,8451,1,0,0:0:0:0:
160,224,8581,5,0,0:0:0:0:
192,256,8712,1,0,0:0:0:0:
192,288,8842,1,0,0:0:0:0:
192,320,8972,1,0,0:0:0:0:
256,320,9102,5,0,0:0:0:0:
256,288,9232,1,0,0:0:0:0:
256,256,9363,1,0,0:0:0:0:
256,224,9493,1,0,0:0:0:0:
256,192,9623,1,0,0:0:0:0:
256,160,9753,1,0,0:0:0:0:
160,160,9883,2,0,L|0:160,1,140
32,352,10664,5,0,0:0:0:0:
160,224,10925,1,0,0:0:0:0:
256,192,11185,1,0,0:0:0:0:
256,32,12748,6,0,B|256:96|224:96|256:128,1,70
256,352,13529,5,0,0:0:0:0:
416,224,14050,5,0,0:0:0:0:
288,224,14310,1,0,0:0:0:0:
224,160,14570,5,0,0:0:0:0:
288,96,14961,1,0,0:0:0:0:
288,288,15221,1,0,0:0:0:0:
256,320,15351,1,0,0:0:0:0:
256,192,15612,12,0,18216,0:0:0:0:
256,32,18771,5,0,0:0:0:0:
256,64,18836,1,0,0:0:0:0:
256,96,18902,1,0,0:0:0:0:
320,32,19293,5,0,0:0:0:0:
320,64,19358,1,0,0:0:0:0:
320,96,19423,1,0,0:0:0:0:
224,224,19815,5,0,0:0:0:0:
160,224,20075,1,0,0:0:0:0:
288,160,20336,2,0,L|192:160,1,70
288,256,20858,1,0,0:0:0:0:
224,192,21119,2,0,L|224:288,1,70
256,32,21641,1,0,0:0:0:0:
256,96,21902,1,0,0:0:0:0:
192,256,22162,5,0,0:0:0:0:
256,256,22423,1,0,0:0:0:0:
128,192,22684,2,0,L|224:192,1,70
192,160,23032,5,0,0:0:0:0:
192,128,23119,1,0,0:0:0:0:
256,64,23467,5,0,0:0:0:0:
288,64,23554,1,0,0:0:0:0:
320,64,23641,1,0,0:0:0:0:
32,32,23989,5,0,0:0:0:0:
32,192,24249,1,0,0:0:0:0:
32,128,24510,2,0,L|128:128,1,70
256,32,25032,5,0,0:0:0:0:
224,128,25293,5,0,0:0:0:0:
224,160,25358,1,0,0:0:0:0:
224,192,25423,1,0,0:0:0:0:
256,288,25554,5,0,0:0:0:0:
256,352,25815,1,0,0:0:0:0:
320,288,26075,2,0,L|416:288,1,70
352,160,26597,1,0,0:0:0:0:
256,128,26858,6,0,L|256:224,1,70
480,32,27641,5,0,0:0:0:0:
288,288,28162,5,0,0:0:0:0:
352,224,28423,1,0,0:0:0:0:
192,160,28684,1,0,0:0:0:0:
192,256,28944,1,0,0:0:0:0:
64,192,29205,1,0,0:0:0:0:
128,288,29456,1,0,0:0:0:0:
256,192,29728,5,0,0:0:0:0:
320,128,29989,1,0,0:0:0:0:
320,224,30250,1,0,0:0:0:0:
256,288,30511,1,0,0:0:0:0:
320,64,30771,1,0,0:0:0:0:
384,64,31032,1,0,0:0:0:0:
320,128,31293,1,0,0:0:0:0:
314,152,31358,1,0,0:0:0:0:
307,181,31423,1,0,0:0:0:0:
288,224,31815,1,0,0:0:0:0:
319,251,31880,1,0,0:0:0:0:
356,273,31945,1,0,0:0:0:0:
128,96,32337,5,0,0:0:0:0:
128,160,32598,1,0,0:0:0:0:
160,224,32858,1,0,0:0:0:0:
224,224,33119,1,0,0:0:0:0:
256,192,33380,1,0,0:0:0:0:
288,160,33641,1,0,0:0:0:0:
288,96,33902,1,0,0:0:0:0:
224,96,34163,1,0,0:0:0:0:
416,192,34424,1,0,0:0:0:0:
96,192,34685,1,0,0:0:0:0:
256,192,34945,1,0,0:0:0:0:
256,224,35206,1,0,0:0:0:0:
160,64,35467,6,0,L|256:192,2,140
288,64,36771,1,0,0:0:0:0:
320,96,36901,1,0,0:0:0:0:
320,128,37032,1,0,0:0:0:0:
160,96,37293,5,0,0:0:0:0:
256,192,37554,5,0,0:0:0:0:
224,224,37684,1,0,0:0:0:0:
256,256,37814,1,0,0:0:0:0:
320,224,38075,1,0,0:0:0:0:
416,192,38336,5,0,0:0:0:0:
128,320,38597,1,0,0:0:0:0:
256,224,38858,1,0,0:0:0:0:
256,192,38989,1,0,0:0:0:0:
256,128,39249,1,0,0:0:0:0:
256,96,39380,1,0,0:0:0:0:
416,64,39641,5,0,0:0:0:0:
416,64,39706,1,0,0:0:0:0:
416,64,39771,1,0,0:0:0:0:
256,224,40162,5,0,0:0:0:0:
256,224,40228,1,0,0:0:0:0:
256,224,40293,1,0,0:0:0:0:
256,64,40684,6,0,L|352:64,2,70
288,128,41467,2,0,L|384:128,3,70
224,192,42510,6,0,L|224:320,2,140
256,32,43815,5,0,0:0:0:0:
256,64,43880,1,0,0:0:0:0:
256,96,43946,1,0,0:0:0:0:
192,192,44337,5,0,0:0:0:0:
192,160,44402,1,0,0:0:0:0:
192,128,44467,1,0,0:0:0:0:
288,32,44858,6,0,B|416:64|480:192|448:128,1,210
320,192,46423,2,0,P|224:256|160:192,2,210
256,192,48510,5,0,0:0:0:0:
224,192,48575,1,0,0:0:0:0:
192,192,48640,1,0,0:0:0:0:
192,32,50075,5,0,0:0:0:0:
128,64,50249,1,0,0:0:0:0:
128,128,50423,1,0,0:0:0:0:
192,160,50597,1,0,0:0:0:0:
256,128,50771,1,0,0:0:0:0:
256,64,50945,1,0,0:0:0:0:
320,32,51119,1,0,0:0:0:0:
384,64,51293,1,0,0:0:0:0:
384,128,51467,1,0,0:0:0:0:
320,160,51641,1,0,0:0:0:0:
256,128,51815,1,0,0:0:0:0:
256,160,51989,1,0,0:0:0:0:
160,256,52162,6,0,P|192:256|288:256,1,105
288,256,52684,1,0,0:0:0:0:
192,64,53075,5,0,0:0:0:0:
224,96,53206,1,0,0:0:0:0:
320,128,53467,2,0,L|320:224,2,70
256,160,54380,5,0,0:0:0:0:
288,128,54510,1,0,0:0:0:0:
192,256,54771,2,0,L|192:192,2,35
96,320,55293,6,0,L|256:320,1,140
288,288,55945,1,0,0:0:0:0:
224,256,56076,1,0,0:0:0:0:
288,224,56206,1,0,0:0:0:0:
224,192,56336,1,0,0:0:0:0:
288,160,56467,1,0,0:0:0:0:
224,128,56597,1,0,0:0:0:0:
288,96,56728,1,0,0:0:0:0:
256,192,56858,6,0,L|480:192,2,210
256,128,58662,1,0,0:0:0:0:
256,64,58923,1,0,0:0:0:0:
320,128,59184,1,0,0:0:0:0:
256,192,59692,1,0,0:0:0:0:
512,0,60996,5,0,0:0:0:0:
256,192,61518,6,0,L|160:128,1,105
160,128,62039,1,0,0:0:0:0:
160,192,62431,1,0,0:0:0:0:
160,224,62561,1,0,0:0:0:0:
256,160,62822,2,0,L|256:256,1,70
320,192,63344,1,0,0:0:0:0:
192,128,63735,1,0,0:0:0:0:
192,192,63866,1,0,0:0:0:0:
256,128,64126,2,0,L|256:224,1,70
256,256,64648,1,0,0:0:0:0:
288,224,65170,5,0,0:0:0:0:
307,207,65300,1,0,0:0:0:0:
325,188,65431,1,0,0:0:0:0:
338,176,65561,1,0,0:0:0:0:
353,163,65692,1,0,0:0:0:0:
364,151,65822,1,0,0:0:0:0:
376,139,65953,1,0,0:0:0:0:
388,129,66083,1,0,0:0:0:0:
32,320,66213,6,0,L|160:320,1,105
192,320,66735,2,0,L|192:224,1,70
256,192,67257,1,0,0:0:0:0:
256,128,67518,1,0,0:0:0:0:
384,192,68039,1,0,0:0:0:0:
384,32,68300,1,0,0:0:0:0:
192,64,68822,1,0,0:0:0:0:
256,128,69344,2,0,L|256:224,1,70
96,192,69866,5,0,0:0:0:0:
128,224,70126,1,0,0:0:0:0:
128,224,70257,1,0,0:0:0:0:
192,256,70387,5,0,0:0:0:0:
192,192,70648,1,0,0:0:0:0:
192,192,70779,1,0,0:0:0:0:
256,96,70909,5,0,0:0:0:0:
256,192,71170,2,0,L|256:288,2,70
320,128,71953,5,0,0:0:0:0:
320,128,72083,1,0,0:0:0:0:
384,160,72213,2,0,P|352:64|256:96,1,210
256,128,73257,1,0,0:0:0:0:
256,160,73387,1,0,0:0:0:0:
64,256,73518,5,0,0:0:0:0:
64,224,73648,1,0,0:0:0:0:
64,192,73779,1,0,0:0:0:0:
64,160,73909,1,0,0:0:0:0:
64,128,74039,1,0,0:0:0:0:
64,96,74170,1,0,0:0:0:0:
64,64,74300,1,0,0:0:0:0:
64,32,74431,1,0,0:0:0:0:
128,32,74561,5,0,0:0:0:0:
192,96,74822,1,0,0:0:0:0:
192,128,74953,1,0,0:0:0:0:
256,96,75083,2,0,P|352:128|352:224,2,210
192,160,77170,1,0,0:0:0:0:
224,192,77431,1,0,0:0:0:0:
224,192,77561,1,0,0:0:0:0:
256,224,77692,1,0,0:0:0:0:
288,256,77953,1,0,0:0:0:0:
352,96,78213,5,0,0:0:0:0:
352,160,78474,1,0,0:0:0:0:
352,192,78605,1,0,0:0:0:0:
256,192,78735,5,0,0:0:0:0:
256,128,78996,1,0,0:0:0:0:
256,96,79126,1,0,0:0:0:0:
152,277,79257,2,0,L|376:277,1,210
256,192,80300,5,0,0:0:0:0:
256,160,80431,1,0,0:0:0:0:
320,192,80572,5,0,0:0:0:0:
256,224,80833,1,0,0:0:0:0:
192,256,81094,1,0,0:0:0:0:
128,288,81355,1,0,0:0:0:0:
128,224,81616,1,0,0:0:0:0:
128,192,81746,1,0,0:0:0:0:
192,192,81877,5,0,0:0:0:0:
192,192,82008,1,0,0:0:0:0:
192,192,82138,1,0,0:0:0:0:
192,192,82269,1,0,0:0:0:0:
192,192,82399,1,0,0:0:0:0:
192,192,82530,1,0,0:0:0:0:
192,192,82660,1,0,0:0:0:0:
192,192,82790,1,0,0:0:0:0:
352,128,82920,5,0,0:0:0:0:
448,128,83181,2,0,L|384:128,1,35
192,64,83442,5,0,0:0:0:0:
224,128,83702,2,0,B|256:160|288:192|256:224|224:256|256:256,3,140
256,320,85528,1,0,0:0:0:0:
416,256,85920,1,0,0:0:0:0:
480,224,86050,1,0,0:0:0:0:
256,192,86311,1,0,0:0:0:0:
256,352,94918,5,0,0:0:0:0:
224,352,100918,5,0,0:0:0:0:
256,352,101048,1,0,0:0:0:0:
256,320,101179,1,0,0:0:0:0:
256,288,101309,2,0,L|256:192,1,70
256,192,101831,1,0,0:0:0:0:
192,64,102222,5,0,0:0:0:0:
192,64,102287,1,0,0:0:0:0:
192,64,102353,1,0,0:0:0:0:
192,64,102418,1,0,0:0:0:0:
288,96,102613,5,0,0:0:0:0:
288,96,102679,1,0,0:0:0:0:
288,96,102744,1,0,0:0:0:0:
288,96,102809,1,0,0:0:0:0:
224,128,103005,5,0,0:0:0:0:
224,128,103070,1,0,0:0:0:0:
224,128,103135,1,0,0:0:0:0:
224,128,103200,1,0,0:0:0:0:
256,160,103266,6,0,B|224:192|256:222|320:256|288:288|224:320|256:384,1,210
384,256,104309,1,0,0:0:0:0:
352,192,104570,1,0,0:0:0:0:
320,128,104831,1,0,0:0:0:0:
224,224,105092,1,0,0:0:0:0:
384,224,105353,1,0,0:0:0:0:
258,352,105613,2,0,L|255:305,1,35
320,224,105874,1,0,0:0:0:0:
224,224,106135,1,0,0:0:0:0:
256,160,106396,1,0,0:0:0:0:
256,288,106657,1,0,0:0:0:0:
160,224,106918,1,0,0:0:0:0:
160,128,107179,1,0,0:0:0:0:
160,64,107440,6,0,B|128:64|32:96|128:192|64:192|0:224|0:192,1,210
256,192,108483,1,0,0:0:0:0:
192,130,108744,2,0,L|237:132,1,35
320,128,109005,1,0,0:0:0:0:
320,224,109266,1,0,0:0:0:0:
192,224,109527,1,0,0:0:0:0:
128,288,109787,1,0,0:0:0:0:
256,352,110048,1,0,0:0:0:0:
256,224,110309,1,0,0:0:0:0:
256,160,110570,1,0,0:0:0:0:
352,224,110831,1,0,0:0:0:0:
160,224,111092,1,0,0:0:0:0:
256,96,111353,1,0,0:0:0:0:
416,160,111613,6,0,B|352:192|480:256|480:320|384:320|416:352,1,210
192,256,112657,1,0,0:0:0:0:
320,128,112918,1,0,0:0:0:0:
160,192,113179,1,0,0:0:0:0:
352,192,113440,1,0,0:0:0:0:
192,128,113700,1,0,0:0:0:0:
320,256,113961,1,0,0:0:0:0:
256,96,114222,1,0,0:0:0:0:
256,288,114483,1,0,0:0:0:0:
320,128,114744,1,0,0:0:0:0:
190,257,115005,2,0,L|224:233,1,35
352,192,115266,1,0,0:0:0:0:
160,192,115527,1,0,0:0:0:0:
256,160,115787,6,0,L|256:384,2,210
128,64,117613,1,0,0:0:0:0:
384,64,117874,1,0,0:0:0:0:
384,192,118135,1,0,0:0:0:0:
256,192,118396,1,0,0:0:0:0:
128,192,118657,1,0,0:0:0:0:
192,160,118918,1,0,0:0:0:0:
320,160,119179,1,0,0:0:0:0:
256,256,119440,1,0,0:0:0:0:
96,192,119700,1,0,0:0:0:0:
384,96,119953,5,0,0:0:0:0:
352,96,120083,1,0,0:0:0:0:
311,88,120213,1,0,0:0:0:0:
272,77,120344,1,0,0:0:0:0:
228,79,120474,1,0,0:0:0:0:
195,90,120605,1,0,0:0:0:0:
167,96,120735,1,0,0:0:0:0:
132,91,120866,1,0,0:0:0:0:
110,111,120996,1,0,0:0:0:0:
100,140,121126,1,0,0:0:0:0:
99,181,121257,1,0,0:0:0:0:
104,216,121387,1,0,0:0:0:0:
127,240,121518,1,0,0:0:0:0:
148,260,121648,1,0,0:0:0:0:
182,267,121779,1,0,0:0:0:0:
226,256,121909,1,0,0:0:0:0:
256,192,122039,5,0,0:0:0:0:
256,192,122170,1,0,0:0:0:0:
256,192,122300,1,0,0:0:0:0:
256,192,122431,1,0,0:0:0:0:
256,192,122561,1,0,0:0:0:0:
256,192,122692,1,0,0:0:0:0:
256,192,122822,1,0,0:0:0:0:
256,192,122953,1,0,0:0:0:0:
288,224,123083,1,0,0:0:0:0:
320,224,123213,1,0,0:0:0:0:
288,224,123344,1,0,0:0:0:0:
320,224,123474,1,0,0:0:0:0:
288,224,123605,1,0,0:0:0:0:
320,224,123735,1,0,0:0:0:0:
288,224,123866,1,0,0:0:0:0:
320,224,123996,1,0,0:0:0:0:
160,160,124126,6,0,L|224:160,3,35
256,96,124648,6,0,L|192:96,3,35
320,192,125170,6,0,L|320:128,3,35
224,192,125692,6,0,L|192:224,3,35
115,299,126213,5,0,0:0:0:0:
152,291,126344,1,0,0:0:0:0:
193,268,126474,1,0,0:0:0:0:
194,233,126605,1,0,0:0:0:0:
178,196,126735,1,0,0:0:0:0:
191,163,126866,1,0,0:0:0:0:
226,143,126996,1,0,0:0:0:0:
268,137,127126,1,0,0:0:0:0:
300,120,127257,1,0,0:0:0:0:
320,93,127387,1,0,0:0:0:0:
332,67,127518,1,0,0:0:0:0:
362,54,127648,1,0,0:0:0:0:
399,51,127779,1,0,0:0:0:0:
432,63,127909,1,0,0:0:0:0:
457,90,128039,1,0,0:0:0:0:
458,123,128170,1,0,0:0:0:0:
96,96,128305,5,0,0:0:0:0:
96,96,128392,1,0,0:0:0:0:
96,96,128479,1,0,0:0:0:0:
96,96,128566,1,0,0:0:0:0:
96,96,128653,1,0,0:0:0:0:
96,96,128740,1,0,0:0:0:0:
64,160,128827,5,0,0:0:0:0:
96,160,128914,1,0,0:0:0:0:
64,160,129001,1,0,0:0:0:0:
96,160,129088,1,0,0:0:0:0:
64,160,129175,1,0,0:0:0:0:
96,160,129262,1,0,0:0:0:0:
128,224,129348,5,0,0:0:0:0:
156,204,129435,1,0,0:0:0:0:
184,191,129522,1,0,0:0:0:0:
218,209,129609,1,0,0:0:0:0:
242,231,129696,1,0,0:0:0:0:
272,210,129783,1,0,0:0:0:0:
301,193,129870,1,0,0:0:0:0:
328,215,129957,1,0,0:0:0:0:
352,239,130044,1,0,0:0:0:0:
384,256,130131,1,0,0:0:0:0:
384,224,130218,1,0,0:0:0:0:
384,192,130305,1,0,0:0:0:0:
351,127,130392,6,0,L|304:128,3,35
307,62,130913,2,0,L|344:62,3,35
256,96,131435,5,0,0:0:0:0:
256,128,131522,1,0,0:0:0:0:
256,160,131609,1,0,0:0:0:0:
240,200,131696,1,0,0:0:0:0:
264,214,131826,1,0,0:0:0:0:
236,238,131957,1,0,0:0:0:0:
269,258,132087,1,0,0:0:0:0:
256,288,132218,1,0,0:0:0:0:
256,320,132348,1,0,0:0:0:0:
160,160,132479,5,0,0:0:0:0:
160,192,132609,1,0,0:0:0:0:
160,224,132739,1,0,0:0:0:0:
160,224,132826,1,0,0:0:0:0:
160,224,132913,1,0,0:0:0:0:
96,256,133000,5,0,0:0:0:0:
96,288,133131,1,0,0:0:0:0:
96,320,133261,1,0,0:0:0:0:
96,320,133348,1,0,0:0:0:0:
96,320,133435,1,0,0:0:0:0:
192,320,133522,5,0,0:0:0:0:
224,320,133652,1,0,0:0:0:0:
256,320,133783,1,0,0:0:0:0:
288,320,133913,1,0,0:0:0:0:
288,256,134044,1,0,0:0:0:0:
256,256,134174,1,0,0:0:0:0:
224,256,134304,1,0,0:0:0:0:
192,256,134435,1,0,0:0:0:0:
256,192,134565,5,0,0:0:0:0:
256,160,134696,1,0,0:0:0:0:
256,128,134826,1,0,0:0:0:0:
256,96,134956,1,0,0:0:0:0:
320,96,135087,1,0,0:0:0:0:
320,128,135217,1,0,0:0:0:0:
320,160,135348,1,0,0:0:0:0:
320,192,135478,1,0,0:0:0:0:
288,256,135609,6,0,L|224:256,3,35
256,192,136130,2,0,L|288:192,7,17.5
256,192,136652,1,0,0:0:0:0:
256,192,136913,12,0,150215,0:0:0:0:
