osu file format v14

[General]
AudioFilename: audio.mp3
AudioLeadIn: 0
PreviewTime: 16527
Countdown: 0
SampleSet: Normal
StackLeniency: 0.7
Mode: 1
LetterboxInBreaks: 0
WidescreenStoryboard: 0

[Editor]
Bookmarks: 38682,57993,91096,110406,143510,154544,165579,176613,204199,226268
DistanceSpacing: 2.4
BeatDivisor: 8
GridSize: 32
TimelineZoom: 2.6

[Metadata]
Title:Setsuna Iro (tamame's EZC remix)
TitleUnicode:セツナイロ (tamame's EZC remix)
Artist:Jouhoushori-bu
ArtistUnicode:情報処理部
Creator:4sbet1
Version:Colorful moment
Source:ゆゆ式
Tags:刹那色 rumi ookubo 大久保瑠美 risa taneda 種田梨沙 minami tsuda 津田美波 opening yuyushiki anime japanese pop jpop j-pop jcore j-core hardcore glitch bootleg
BeatmapID:3689232
BeatmapSetID:1799609

[Difficulty]
HPDrainRate:5
CircleSize:5
OverallDifficulty:7
ApproachRate:5
SliderMultiplier:1.4
SliderTickRate:1

[Events]
//Background and Video events
0,0,"BG.jpg",0,0
//Break Periods
//Storyboard Layer 0 (Background)
//Storyboard Layer 1 (Fail)
//Storyboard Layer 2 (Pass)
//Storyboard Layer 3 (Foreground)
//Storyboard Layer 4 (Overlay)
//Storyboard Sound Samples

[TimingPoints]
62,344.827586206897,4,1,0,70,1,0
62,-125,4,1,0,70,0,0
12453,-125,4,1,0,70,0,0
12540,-124.141659965989,4,1,0,70,0,0
12626,-123.300121642922,4,1,0,70,0,0
12712,-122.46540732229,4,1,0,71,0,0
12798,-121.637446594727,4,1,0,71,0,0
12971,-119.992074783055,4,1,0,71,0,0
13057,-119.184037401257,4,1,0,71,0,0
13143,-118.382480406234,4,1,0,72,0,0
13229,-117.587337924607,4,1,0,72,0,0
13315,-116.798544943911,4,1,0,72,0,0
13488,-115.23076142658,4,1,0,73,0,0
13660,-113.696748707542,4,1,0,73,0,0
13833,-112.178172797026,4,1,0,73,0,0
13919,-111.432212324862,4,1,0,74,0,0
14005,-110.692109265048,4,1,0,74,0,0
14091,-109.957805770767,4,1,0,74,0,0
14177,-109.229244727164,4,1,0,74,0,0
14264,-108.497997439262,4,1,0,74,0,0
14350,-107.780817967471,4,1,0,75,0,0
14436,-107.069213243881,4,1,0,75,0,0
14522,-106.363128976122,4,1,0,75,0,0
14608,-105.662511548073,4,1,0,75,0,0
14695,-104.959255882512,4,1,0,75,0,0
14781,-104.269475977317,4,1,0,76,0,0
14867,-103.585005420129,4,1,0,76,0,0
14953,-102.905793204101,4,1,0,76,0,0
15040,-102.223982123207,4,1,0,76,0,0
15126,-101.555195750338,4,1,0,76,0,0
15212,-100.891517845285,4,1,0,77,0,0
15298,-100.232899853658,4,1,0,77,0,0
15384,-99.5792938093135,4,1,0,77,0,0
15471,-98.923138996805,4,1,0,77,0,0
15557,-98.2794721673013,4,1,0,78,0,0
15643,-97.6406762935805,4,1,0,78,0,0
15729,-97.0067056816764,4,1,0,78,0,0
15815,-96.3775151829519,4,1,0,78,0,0
15902,-95.7458267591394,4,1,0,78,0,0
15988,-95.1261174759738,4,1,0,79,0,0
16074,-94.5110555482199,4,1,0,79,0,0
16160,-93.9005979348488,4,1,0,79,0,0
16246,-93.2947021009552,4,1,0,79,0,0
16591,-90.9090909090909,4,1,0,100,0,0
16613,-90.9090909090909,4,1,0,100,0,1
37971,-90.9090909090909,4,1,0,100,0,1
38057,-92.001809260642,4,1,0,100,0,1
38143,-93.1063167977226,4,1,0,100,0,1
38229,-94.2227082793783,4,1,0,100,0,1
38315,-95.3510784373327,4,1,0,100,0,1
38402,-96.5048543076842,4,1,0,100,0,1
38488,-97.6576078337807,4,1,0,100,0,1
38574,-98.822624935298,4,1,0,100,0,1
38660,-100,4,1,0,100,0,1
38682,-100,4,1,0,100,0,0
38725,-100,4,1,0,80,0,0
55212,-100,4,1,0,80,0,0
55298,-99.703352235734,4,1,0,80,0,0
55384,-99.4075844704285,4,1,0,80,0,0
55471,-99.1092702858543,4,1,0,80,0,0
55557,-98.815264851371,4,1,0,80,0,0
55729,-98.2298678768042,4,1,0,80,0,0
55815,-97.9384711699062,4,1,0,80,0,0
55902,-97.6445656764659,4,1,0,80,0,0
55988,-97.3549052554595,4,1,0,80,0,0
56074,-97.0661041056159,4,1,0,80,0,0
56246,-96.4910694309441,4,1,0,80,0,0
56419,-95.9161278528718,4,1,0,80,0,0
56591,-95.3479058161076,4,1,0,80,0,0
56677,-95.0650583852298,4,1,0,80,0,0
56764,-94.7797757729948,4,1,0,80,0,0
56850,-94.4986136871879,4,1,0,80,0,0
56936,-94.2182856624225,4,1,0,80,0,0
57022,-93.9387892244752,4,1,0,80,0,0
57108,-93.6601219064623,4,1,0,80,0,0
57195,-93.3790553958687,4,1,0,80,0,0
57281,-93.1020485157441,4,1,0,80,0,0
57367,-92.8258633703363,4,1,0,80,0,0
57453,-92.5504975219876,4,1,0,80,0,0
57540,-92.272760905136,4,1,0,80,0,0
57626,-91.9990358228844,4,1,0,80,0,0
57798,-91.4540192476136,4,1,0,80,0,0
57971,-90.9090909090909,4,1,0,100,0,0
57993,344.827586206897,4,1,0,100,1,1
57993,-90.9090909090909,4,1,0,100,0,1
88315,-90.9090909090909,4,1,0,100,0,1
88402,-91.1840387662164,4,1,0,100,0,1
88488,-91.4565613518971,4,1,0,100,0,1
88574,-91.7298162191041,4,1,0,100,0,1
88660,-92.0038048437507,4,1,0,100,0,1
88746,-92.2785287017517,4,1,0,100,0,1
88833,-92.557196637673,4,1,0,100,0,1
88919,-92.8334039822561,4,1,0,100,0,1
89005,-93.1103510048951,4,1,0,100,0,1
89091,-93.3880391812966,4,1,0,100,0,1
89177,-93.6664699870609,4,1,0,100,0,1
89264,-93.9488954998647,4,1,0,100,0,1
89350,-94.2288246688336,4,1,0,100,0,1
89436,-94.5095009102604,4,1,0,100,0,1
89522,-94.7909256990972,4,1,0,100,0,1
89608,-95.0731005100789,4,1,0,100,0,1
89695,-95.3593210842718,4,1,0,100,0,1
89781,-95.64300912691,4,1,0,100,0,1
89867,-95.9274516315037,4,1,0,100,0,1
89953,-96.2126500716872,4,1,0,100,0,1
90039,-96.4986059207627,4,1,0,100,0,1
90126,-96.7886590131128,4,1,0,100,0,1
90212,-97.0761429484257,4,1,0,100,0,1
90298,-97.3643887274292,4,1,0,100,0,1
90384,-97.6533978218595,4,1,0,100,0,1
90471,-97.9465456706753,4,1,0,100,0,1
90557,-98.2370947279645,4,1,0,100,0,1
90643,-98.5284115301886,4,1,0,100,0,1
90729,-98.8204975471348,4,1,0,100,0,1
90880,-100,4,1,0,80,0,1
91096,-100,4,1,0,80,0,0
107626,-100,4,1,0,80,0,0
107712,-99.7032448364702,4,1,0,80,0,0
107798,-99.4073703092113,4,1,0,80,0,0
107884,-99.1123738048895,4,1,0,80,0,0
107971,-98.8148378438521,4,1,0,80,0,0
108143,-98.2292317758847,4,1,0,80,0,0
108229,-97.9377314584941,4,1,0,80,0,0
108315,-97.6470961833471,4,1,0,80,0,0
108402,-97.3539589948199,4,1,0,80,0,0
108488,-97.0650560946021,4,1,0,80,0,0
108660,-96.4898197528048,4,1,0,80,0,0
108833,-95.9146777829252,4,1,0,80,0,0
109005,-95.3462589245592,4,1,0,80,0,0
109091,-95.0633139779682,4,1,0,80,0,0
109177,-94.781208685116,4,1,0,80,0,0
109264,-94.4966749086379,4,1,0,80,0,0
109350,-94.2162511464826,4,1,0,80,0,0
109436,-93.9366595563212,4,1,0,80,0,0
109522,-93.6578976686404,4,1,0,80,0,0
109608,-93.3799630212553,4,1,0,80,0,0
109695,-93.0996357929532,4,1,0,80,0,0
109781,-92.8233578165102,4,1,0,80,0,0
109867,-92.547899709228,4,1,0,80,0,0
109953,-92.2732590381025,4,1,0,80,0,0
110039,-91.9994333773498,4,1,0,80,0,0
110212,-91.4510570255646,4,1,0,80,0,0
110384,-90.9090909090909,4,1,0,100,0,0
110406,344.827586206897,4,1,0,100,1,1
110406,-90.9090909090909,4,1,0,100,0,1
142108,-90.9090909090909,4,1,0,100,0,1
142366,-94.418803703909,4,1,0,100,0,1
142452,-95.6154216759511,4,1,0,100,0,1
142625,-98.0637124734984,4,1,0,100,0,1
142711,-99.3014588668627,4,1,0,100,0,1
142797,-100.553086216389,4,1,0,100,0,1
142970,-103.113393775613,4,1,0,100,0,1
143142,-105.715930181878,4,1,0,100,0,1
143293,-90.9090909090909,4,1,0,80,0,1
143487,-111.111111111111,4,1,0,100,0,1
143509,-111.111111111111,4,1,0,80,0,0
154500,-90.9090909090909,4,1,0,100,0,0
154543,-90.9090909090909,4,1,0,100,0,1
164866,-90.9090909090909,4,1,0,100,0,1
164952,-92.0002171032404,4,1,0,100,0,1
165039,-93.1159919072186,4,1,0,100,0,1
165125,-94.2308605894492,4,1,0,100,0,1
165211,-95.35767393826,4,1,0,100,0,1
165297,-96.4965262238234,4,1,0,100,0,1
165384,-97.6609669275343,4,1,0,100,0,1
165470,-98.8243223111217,4,1,0,100,0,1
165556,-100,4,1,0,100,0,1
165578,-100,4,1,0,100,0,0
165621,-125,4,1,0,70,0,0
173832,-125,4,1,0,70,0,0
174177,-119.995611634408,4,1,0,71,0,0
174349,-117.590216134512,4,1,0,72,0,0
174694,-112.936083510062,4,1,0,73,0,0
174866,-110.697467707598,4,1,0,74,0,0
175039,-108.498519547424,4,1,0,74,0,0
175211,-106.363128976122,4,1,0,75,0,0
175556,-102.226908893114,4,1,0,76,0,0
175728,-100.235284331628,4,1,0,77,0,0
175901,-98.2776068138366,4,1,0,78,0,0
175987,-97.3210165559111,4,1,0,78,0,0
176073,-96.3752372118052,4,1,0,78,0,0
176246,-94.5048194472661,4,1,0,79,0,0
176418,-92.6867941144188,4,1,0,79,0,0
176590,-90.9090909090909,4,1,0,100,0,0
176612,-90.9090909090909,4,1,0,100,0,1
202797,-90.9090909090909,4,1,0,100,0,1
203056,-94.4300434278168,4,1,0,100,0,1
203142,-95.6259167073999,4,1,0,100,0,1
203315,-98.072652732248,4,1,0,100,0,1
203401,-99.3095975404707,4,1,0,100,0,1
203487,-100.56040392404,4,1,0,100,0,1
203659,-103.104046534376,4,1,0,100,0,1
203832,-105.71975475475,4,1,0,100,0,1
204199,-90.9090909090909,4,1,0,100,0,1
226268,-90.9090909090909,4,1,0,100,0,0
226311,-111.111111111111,4,1,0,80,0,0
237259,-80,4,1,0,40,0,0

[HitObjects]
256,192,62,5,0,0:0:0:0:
256,192,406,1,8,0:0:0:0:
256,192,924,1,0,0:0:0:0:
256,192,1096,1,8,0:0:0:0:
256,192,1441,1,0,0:0:0:0:
256,192,1786,1,8,0:0:0:0:
256,192,1958,1,0,0:0:0:0:
256,192,2303,1,0,0:0:0:0:
256,192,2475,1,8,0:0:0:0:
256,192,2820,1,0,0:0:0:0:
256,192,3165,1,8,0:0:0:0:
256,192,3682,1,0,0:0:0:0:
256,192,3855,1,8,0:0:0:0:
256,192,4199,1,0,0:0:0:0:
256,192,4544,1,8,0:0:0:0:
256,192,4717,1,0,0:0:0:0:
256,192,5062,1,0,0:0:0:0:
256,192,5234,1,8,0:0:0:0:
256,192,5406,1,0,0:0:0:0:
256,192,5579,1,0,0:0:0:0:
256,192,5924,1,8,0:0:0:0:
256,192,6441,1,0,0:0:0:0:
256,192,6613,1,8,0:0:0:0:
256,192,6958,1,0,0:0:0:0:
256,192,7303,1,8,0:0:0:0:
256,192,7475,1,0,0:0:0:0:
256,192,7820,1,0,0:0:0:0:
256,192,7993,1,8,0:0:0:0:
256,192,8337,1,0,0:0:0:0:
256,192,8682,1,8,0:0:0:0:
256,192,8855,1,0,0:0:0:0:
256,192,9199,1,0,0:0:0:0:
256,192,9372,1,8,0:0:0:0:
256,192,9717,1,0,0:0:0:0:
256,192,9889,1,0,0:0:0:0:
256,192,10062,1,8,0:0:0:0:
256,192,10234,1,0,0:0:0:0:
256,192,10579,1,0,0:0:0:0:
256,192,10751,1,8,0:0:0:0:
256,192,10924,1,8,0:0:0:0:
256,192,11096,1,0,0:0:0:0:
256,192,11441,1,8,0:0:0:0:
256,192,11699,1,8,0:0:0:0:
256,192,11786,1,0,0:0:0:0:
256,192,11958,1,0,0:0:0:0:
256,192,12130,1,8,0:0:0:0:
256,192,12303,1,0,0:0:0:0:
256,192,12475,1,8,0:0:0:0:
256,192,12562,1,8,0:0:0:0:
256,192,12648,1,8,0:0:0:0:
256,192,12734,1,8,0:0:0:0:
256,192,12820,1,0,0:0:0:0:
256,192,12993,1,8,0:0:0:0:
256,192,13079,1,8,0:0:0:0:
256,192,13165,1,0,0:0:0:0:
256,192,13251,1,0,0:0:0:0:
256,192,13337,1,0,0:0:0:0:
256,192,13510,1,8,0:0:0:0:
256,192,13682,1,8,0:0:0:0:
256,192,13855,1,0,0:0:0:0:
256,192,13941,1,0,0:0:0:0:
256,192,14027,1,0,0:0:0:0:
256,192,14113,1,0,0:0:0:0:
256,192,14199,1,8,0:0:0:0:
256,192,14286,1,8,0:0:0:0:
256,192,14372,1,0,0:0:0:0:
256,192,14458,1,8,0:0:0:0:
256,192,14544,1,0,0:0:0:0:
256,192,14630,1,8,0:0:0:0:
256,192,14717,1,8,0:0:0:0:
256,192,14803,1,0,0:0:0:0:
256,192,14889,1,8,0:0:0:0:
256,192,14975,1,8,0:0:0:0:
256,192,15062,1,0,0:0:0:0:
256,192,15148,1,0,0:0:0:0:
256,192,15234,1,8,0:0:0:0:
256,192,15320,1,8,0:0:0:0:
256,192,15406,1,8,0:0:0:0:
256,192,15493,1,0,0:0:0:0:
256,192,15579,1,8,0:0:0:0:
256,192,15665,1,8,0:0:0:0:
256,192,15751,1,0,0:0:0:0:
256,192,15837,1,0,0:0:0:0:
256,192,15924,1,8,0:0:0:0:
256,192,16010,1,0,0:0:0:0:
256,192,16096,1,0,0:0:0:0:
256,192,16182,1,0,0:0:0:0:
256,192,16268,1,8,0:0:0:0:
256,192,16613,1,0,0:0:0:0:
256,192,16656,1,0,0:0:0:0:
256,192,16786,1,0,0:0:0:0:
256,192,16829,1,0,0:0:0:0:
256,192,16958,1,8,0:0:0:0:
256,192,17016,1,8,0:0:0:0:
256,192,17073,1,8,0:0:0:0:
256,192,17130,1,0,0:0:0:0:
256,192,17217,1,0,0:0:0:0:
256,192,17303,1,8,0:0:0:0:
256,192,17389,1,0,0:0:0:0:
256,192,17475,1,8,0:0:0:0:
256,192,17562,1,8,0:0:0:0:
256,192,17648,1,0,0:0:0:0:
256,192,17705,1,8,0:0:0:0:
256,192,17763,1,8,0:0:0:0:
256,192,17820,1,0,0:0:0:0:
256,192,17906,1,0,0:0:0:0:
256,192,17993,1,8,0:0:0:0:
256,192,18036,1,8,0:0:0:0:
256,192,18165,1,0,0:0:0:0:
256,192,18208,1,0,0:0:0:0:
256,192,18337,1,8,0:0:0:0:
256,192,18395,1,0,0:0:0:0:
256,192,18452,1,0,0:0:0:0:
256,192,18510,1,8,0:0:0:0:
256,192,18596,1,8,0:0:0:0:
256,192,18682,1,0,0:0:0:0:
256,192,18768,1,8,0:0:0:0:
256,192,18855,1,0,0:0:0:0:
256,192,18941,1,0,0:0:0:0:
256,192,19027,1,8,0:0:0:0:
256,192,19084,1,8,0:0:0:0:
256,192,19142,1,8,0:0:0:0:
256,192,19199,1,0,0:0:0:0:
256,192,19286,1,0,0:0:0:0:
256,192,19372,1,8,0:0:0:0:
256,192,19415,1,8,0:0:0:0:
256,192,19544,1,0,0:0:0:0:
256,192,19587,1,0,0:0:0:0:
256,192,19717,1,8,0:0:0:0:
256,192,19774,1,0,0:0:0:0:
256,192,19832,1,0,0:0:0:0:
256,192,19889,1,8,0:0:0:0:
256,192,19975,1,0,0:0:0:0:
256,192,20062,1,8,0:0:0:0:
256,192,20148,1,8,0:0:0:0:
256,192,20234,1,0,0:0:0:0:
256,192,20320,1,0,0:0:0:0:
256,192,20406,1,8,0:0:0:0:
256,192,20464,1,8,0:0:0:0:
256,192,20521,1,8,0:0:0:0:
256,192,20579,1,0,0:0:0:0:
256,192,20665,1,0,0:0:0:0:
256,192,20751,1,8,0:0:0:0:
256,192,20794,1,8,0:0:0:0:
256,192,20924,1,0,0:0:0:0:
256,192,20981,1,8,0:0:0:0:
256,192,21039,1,8,0:0:0:0:
256,192,21096,1,0,0:0:0:0:
256,192,21182,1,8,0:0:0:0:
256,192,21225,1,8,0:0:0:0:
256,192,21268,1,0,0:0:0:0:
256,192,21355,1,0,0:0:0:0:
256,192,21441,1,8,0:0:0:0:
256,192,21498,1,8,0:0:0:0:
256,192,21556,1,8,0:0:0:0:
256,192,21613,1,0,0:0:0:0:
256,192,21699,1,0,0:0:0:0:
256,192,21786,1,8,0:0:0:0:
256,192,21843,1,0,0:0:0:0:
256,192,21901,1,0,0:0:0:0:
256,192,21958,1,8,0:0:0:0:
256,192,22044,1,8,0:0:0:0:
256,192,22130,1,0,0:0:0:0:
256,192,22174,1,0,0:0:0:0:
256,192,22303,1,0,0:0:0:0:
256,192,22346,1,0,0:0:0:0:
256,192,22475,1,8,0:0:0:0:
256,192,22533,1,8,0:0:0:0:
256,192,22590,1,8,0:0:0:0:
256,192,22648,1,0,0:0:0:0:
256,192,22734,1,0,0:0:0:0:
256,192,22820,1,8,0:0:0:0:
256,192,22906,1,0,0:0:0:0:
256,192,22993,1,8,0:0:0:0:
256,192,23079,1,8,0:0:0:0:
256,192,23165,1,0,0:0:0:0:
256,192,23222,1,8,0:0:0:0:
256,192,23280,1,8,0:0:0:0:
256,192,23337,1,0,0:0:0:0:
256,192,23424,1,0,0:0:0:0:
256,192,23510,1,8,0:0:0:0:
256,192,23553,1,8,0:0:0:0:
256,192,23682,1,0,0:0:0:0:
256,192,23725,1,0,0:0:0:0:
256,192,23855,1,8,0:0:0:0:
256,192,23912,1,0,0:0:0:0:
256,192,23970,1,0,0:0:0:0:
256,192,24027,1,8,0:0:0:0:
256,192,24113,1,8,0:0:0:0:
256,192,24199,1,0,0:0:0:0:
256,192,24286,1,8,0:0:0:0:
256,192,24372,1,0,0:0:0:0:
256,192,24458,1,0,0:0:0:0:
256,192,24544,1,8,0:0:0:0:
256,192,24602,1,8,0:0:0:0:
256,192,24659,1,8,0:0:0:0:
256,192,24717,1,0,0:0:0:0:
256,192,24803,1,0,0:0:0:0:
256,192,24889,1,8,0:0:0:0:
256,192,24932,1,8,0:0:0:0:
256,192,25062,1,0,0:0:0:0:
256,192,25105,1,0,0:0:0:0:
256,192,25234,1,8,0:0:0:0:
256,192,25291,1,0,0:0:0:0:
256,192,25349,1,0,0:0:0:0:
256,192,25406,1,8,0:0:0:0:
256,192,25493,1,0,0:0:0:0:
256,192,25579,1,8,0:0:0:0:
256,192,25665,1,8,0:0:0:0:
256,192,25751,1,0,0:0:0:0:
256,192,25837,1,0,0:0:0:0:
256,192,25924,1,8,0:0:0:0:
256,192,25981,1,8,0:0:0:0:
256,192,26039,1,8,0:0:0:0:
256,192,26096,1,0,0:0:0:0:
256,192,26182,1,0,0:0:0:0:
256,192,26268,1,8,0:0:0:0:
256,192,26312,1,8,0:0:0:0:
256,192,26441,1,0,0:0:0:0:
256,192,26498,1,8,0:0:0:0:
256,192,26556,1,8,0:0:0:0:
256,192,26613,1,0,0:0:0:0:
256,192,26699,1,8,0:0:0:0:
256,192,26743,1,8,0:0:0:0:
256,192,26786,1,0,0:0:0:0:
256,192,26872,1,0,0:0:0:0:
256,192,26958,1,8,0:0:0:0:
256,192,27130,1,0,0:0:0:0:
256,192,27217,1,0,0:0:0:0:
256,192,27303,1,8,0:0:0:0:
256,192,27389,1,8,0:0:0:0:
256,192,27475,1,0,0:0:0:0:
256,192,27648,1,0,0:0:0:0:
256,192,27691,1,0,0:0:0:0:
256,192,27820,1,0,0:0:0:0:
256,192,27863,1,0,0:0:0:0:
256,192,27993,1,8,0:0:0:0:
256,192,28050,1,8,0:0:0:0:
256,192,28107,1,8,0:0:0:0:
256,192,28165,1,0,0:0:0:0:
256,192,28251,1,0,0:0:0:0:
256,192,28337,1,8,0:0:0:0:
256,192,28424,1,0,0:0:0:0:
256,192,28510,1,8,0:0:0:0:
256,192,28596,1,8,0:0:0:0:
256,192,28682,1,0,0:0:0:0:
256,192,28740,1,8,0:0:0:0:
256,192,28797,1,8,0:0:0:0:
256,192,28855,1,0,0:0:0:0:
256,192,28941,1,0,0:0:0:0:
256,192,29027,1,8,0:0:0:0:
256,192,29070,1,8,0:0:0:0:
256,192,29199,1,0,0:0:0:0:
256,192,29243,1,0,0:0:0:0:
256,192,29372,1,8,0:0:0:0:
256,192,29429,1,0,0:0:0:0:
256,192,29487,1,0,0:0:0:0:
256,192,29544,1,8,0:0:0:0:
256,192,29630,1,8,0:0:0:0:
256,192,29717,1,0,0:0:0:0:
256,192,29803,1,8,0:0:0:0:
256,192,29889,1,0,0:0:0:0:
256,192,29975,1,0,0:0:0:0:
256,192,30062,1,8,0:0:0:0:
256,192,30119,1,8,0:0:0:0:
256,192,30176,1,8,0:0:0:0:
256,192,30234,1,0,0:0:0:0:
256,192,30320,1,0,0:0:0:0:
256,192,30406,1,8,0:0:0:0:
256,192,30449,1,8,0:0:0:0:
256,192,30579,1,0,0:0:0:0:
256,192,30622,1,0,0:0:0:0:
256,192,30751,1,8,0:0:0:0:
256,192,30809,1,0,0:0:0:0:
256,192,30866,1,0,0:0:0:0:
256,192,30924,1,8,0:0:0:0:
256,192,31010,1,0,0:0:0:0:
256,192,31096,1,8,0:0:0:0:
256,192,31182,1,8,0:0:0:0:
256,192,31268,1,0,0:0:0:0:
256,192,31355,1,0,0:0:0:0:
256,192,31441,1,8,0:0:0:0:
256,192,31498,1,8,0:0:0:0:
256,192,31556,1,8,0:0:0:0:
256,192,31613,1,0,0:0:0:0:
256,192,31699,1,0,0:0:0:0:
256,192,31786,1,8,0:0:0:0:
256,192,31829,1,8,0:0:0:0:
256,192,31958,1,0,0:0:0:0:
256,192,32016,1,8,0:0:0:0:
256,192,32073,1,8,0:0:0:0:
256,192,32130,1,0,0:0:0:0:
256,192,32217,1,8,0:0:0:0:
256,192,32260,1,8,0:0:0:0:
256,192,32303,1,0,0:0:0:0:
256,192,32389,1,0,0:0:0:0:
256,192,32475,1,8,0:0:0:0:
256,192,32533,1,8,0:0:0:0:
256,192,32590,1,8,0:0:0:0:
256,192,32648,1,0,0:0:0:0:
256,192,32734,1,0,0:0:0:0:
256,192,32820,1,8,0:0:0:0:
256,192,32878,1,0,0:0:0:0:
256,192,32935,1,0,0:0:0:0:
256,192,32993,1,8,0:0:0:0:
256,192,33079,1,8,0:0:0:0:
256,192,33165,1,0,0:0:0:0:
256,192,33208,1,0,0:0:0:0:
256,192,33337,1,0,0:0:0:0:
256,192,33380,1,0,0:0:0:0:
256,192,33510,1,8,0:0:0:0:
256,192,33567,1,8,0:0:0:0:
256,192,33625,1,8,0:0:0:0:
256,192,33682,1,0,0:0:0:0:
256,192,33768,1,0,0:0:0:0:
256,192,33855,1,8,0:0:0:0:
256,192,33941,1,0,0:0:0:0:
256,192,34027,1,8,0:0:0:0:
256,192,34113,1,8,0:0:0:0:
256,192,34199,1,0,0:0:0:0:
256,192,34257,1,8,0:0:0:0:
256,192,34314,1,8,0:0:0:0:
256,192,34372,1,0,0:0:0:0:
256,192,34458,1,0,0:0:0:0:
256,192,34544,1,8,0:0:0:0:
256,192,34587,1,8,0:0:0:0:
256,192,34717,1,0,0:0:0:0:
256,192,34760,1,0,0:0:0:0:
256,192,34889,1,8,0:0:0:0:
256,192,34947,1,0,0:0:0:0:
256,192,35004,1,0,0:0:0:0:
256,192,35062,1,8,0:0:0:0:
256,192,35148,1,8,0:0:0:0:
256,192,35234,1,0,0:0:0:0:
256,192,35320,1,8,0:0:0:0:
256,192,35406,1,0,0:0:0:0:
256,192,35493,1,0,0:0:0:0:
256,192,35579,1,8,0:0:0:0:
256,192,35636,1,8,0:0:0:0:
256,192,35694,1,8,0:0:0:0:
256,192,35751,1,0,0:0:0:0:
256,192,35837,1,0,0:0:0:0:
256,192,35924,1,8,0:0:0:0:
256,192,35967,1,8,0:0:0:0:
256,192,36096,1,0,0:0:0:0:
256,192,36139,1,0,0:0:0:0:
256,192,36268,1,8,0:0:0:0:
256,192,36326,1,0,0:0:0:0:
256,192,36383,1,0,0:0:0:0:
256,192,36441,1,8,0:0:0:0:
256,192,36527,1,0,0:0:0:0:
256,192,36613,1,8,0:0:0:0:
256,192,36699,1,8,0:0:0:0:
256,192,36786,1,0,0:0:0:0:
256,192,36872,1,0,0:0:0:0:
256,192,36958,1,8,0:0:0:0:
256,192,37016,1,8,0:0:0:0:
256,192,37073,1,8,0:0:0:0:
256,192,37130,1,0,0:0:0:0:
256,192,37217,1,0,0:0:0:0:
256,192,37303,1,8,0:0:0:0:
256,192,37346,1,8,0:0:0:0:
256,192,37475,1,0,0:0:0:0:
256,192,37533,1,8,0:0:0:0:
256,192,37590,1,8,0:0:0:0:
256,192,37648,1,0,0:0:0:0:
256,192,37734,1,8,0:0:0:0:
256,192,37777,1,8,0:0:0:0:
256,192,37820,1,0,0:0:0:0:
256,192,37906,1,0,0:0:0:0:
256,192,37993,1,8,0:0:0:0:
256,192,38079,1,8,0:0:0:0:
256,192,38165,1,0,0:0:0:0:
256,192,38251,1,0,0:0:0:0:
256,192,38337,1,8,0:0:0:0:
256,192,38424,1,0,0:0:0:0:
256,192,38510,1,8,0:0:0:0:
256,192,38596,1,8,0:0:0:0:
256,192,38682,1,0,0:0:0:0:
256,192,38941,1,0,0:0:0:0:
256,192,39027,1,8,0:0:0:0:
256,192,39199,1,8,0:0:0:0:
256,192,39286,1,8,0:0:0:0:
256,192,39372,1,0,0:0:0:0:
256,192,39544,1,0,0:0:0:0:
256,192,39717,1,8,0:0:0:0:
256,192,39889,1,0,0:0:0:0:
256,192,39975,1,8,0:0:0:0:
256,192,40062,1,0,0:0:0:0:
256,192,40234,1,0,0:0:0:0:
256,192,40406,1,8,0:0:0:0:
256,192,40579,1,0,0:0:0:0:
256,192,40665,1,0,0:0:0:0:
256,192,40751,1,8,0:0:0:0:
256,192,40837,1,8,0:0:0:0:
256,192,40924,1,0,0:0:0:0:
256,192,41096,1,8,0:0:0:0:
256,192,41268,1,8,0:0:0:0:
256,192,41441,1,0,0:0:0:0:
256,192,41786,1,8,0:0:0:0:
256,192,41958,1,0,0:0:0:0:
256,192,42044,1,0,0:0:0:0:
256,192,42130,1,0,0:0:0:0:
256,192,42303,1,0,0:0:0:0:
256,192,42475,1,8,0:0:0:0:
256,192,42562,1,0,0:0:0:0:
256,192,42648,1,8,0:0:0:0:
256,192,42734,1,8,0:0:0:0:
256,192,42820,1,0,0:0:0:0:
256,192,42993,1,0,0:0:0:0:
256,192,43165,1,8,0:0:0:0:
256,192,43337,1,0,0:0:0:0:
256,192,43424,1,8,0:0:0:0:
256,192,43510,1,0,0:0:0:0:
256,192,43682,1,0,0:0:0:0:
256,192,43855,1,8,0:0:0:0:
256,192,44199,1,0,0:0:0:0:
256,192,44458,1,0,0:0:0:0:
256,192,44544,1,8,0:0:0:0:
256,192,44717,1,0,0:0:0:0:
256,192,44803,1,8,0:0:0:0:
256,192,44889,1,0,0:0:0:0:
256,192,45062,1,0,0:0:0:0:
256,192,45234,1,8,0:0:0:0:
256,192,45406,1,8,0:0:0:0:
256,192,45493,1,8,0:0:0:0:
256,192,45579,1,0,0:0:0:0:
256,192,45751,1,0,0:0:0:0:
256,192,45924,1,8,0:0:0:0:
256,192,46096,1,0,0:0:0:0:
256,192,46182,1,0,0:0:0:0:
256,192,46268,1,8,0:0:0:0:
256,192,46355,1,0,0:0:0:0:
256,192,46441,1,0,0:0:0:0:
256,192,46613,1,8,0:0:0:0:
256,192,46786,1,8,0:0:0:0:
256,192,46958,1,0,0:0:0:0:
256,192,47303,1,8,0:0:0:0:
256,192,47475,1,8,0:0:0:0:
256,192,47562,1,8,0:0:0:0:
256,192,47648,1,0,0:0:0:0:
256,192,47820,1,0,0:0:0:0:
256,192,47993,1,8,0:0:0:0:
256,192,48079,1,0,0:0:0:0:
256,192,48165,1,8,0:0:0:0:
256,192,48251,1,8,0:0:0:0:
256,192,48337,1,0,0:0:0:0:
256,192,48510,1,0,0:0:0:0:
256,192,48596,1,0,0:0:0:0:
256,192,48682,1,8,0:0:0:0:
256,192,48855,1,0,0:0:0:0:
256,192,49027,1,8,0:0:0:0:
256,192,49113,1,8,0:0:0:0:
256,192,49199,1,0,0:0:0:0:
256,192,49286,1,0,0:0:0:0:
256,192,49372,1,8,0:0:0:0:
256,192,49544,1,8,0:0:0:0:
256,192,49717,1,4,0:0:0:0:
256,192,49975,1,0,0:0:0:0:
256,192,50062,1,8,0:0:0:0:
256,192,50234,1,8,0:0:0:0:
256,192,50320,1,8,0:0:0:0:
256,192,50406,1,0,0:0:0:0:
256,192,50579,1,0,0:0:0:0:
256,192,50751,1,8,0:0:0:0:
256,192,50924,1,0,0:0:0:0:
256,192,51010,1,8,0:0:0:0:
256,192,51096,1,0,0:0:0:0:
256,192,51268,1,0,0:0:0:0:
256,192,51441,1,8,0:0:0:0:
256,192,51527,1,0,0:0:0:0:
256,192,51613,1,0,0:0:0:0:
256,192,51699,1,8,0:0:0:0:
256,192,51786,1,0,0:0:0:0:
256,192,51958,1,0,0:0:0:0:
256,192,52130,1,8,0:0:0:0:
256,192,52303,1,8,0:0:0:0:
256,192,52389,1,8,0:0:0:0:
256,192,52475,1,0,0:0:0:0:
256,192,52734,1,0,0:0:0:0:
256,192,52820,1,8,0:0:0:0:
256,192,52993,1,8,0:0:0:0:
256,192,53079,1,8,0:0:0:0:
256,192,53165,1,0,0:0:0:0:
256,192,53337,1,0,0:0:0:0:
256,192,53510,1,8,0:0:0:0:
256,192,53596,1,8,0:0:0:0:
256,192,53682,1,0,0:0:0:0:
256,192,53768,1,0,0:0:0:0:
256,192,53855,1,8,0:0:0:0:
256,192,54113,1,0,0:0:0:0:
256,192,54199,1,8,0:0:0:0:
256,192,54372,1,0,0:0:0:0:
256,192,54544,1,8,0:0:0:0:
256,192,54717,1,8,0:0:0:0:
256,192,54803,1,0,0:0:0:0:
256,192,54889,1,8,0:0:0:0:
256,192,55062,1,8,0:0:0:0:
256,192,55234,1,0,0:0:0:0:
256,192,55320,1,0,0:0:0:0:
256,192,55406,1,0,0:0:0:0:
256,192,55493,1,0,0:0:0:0:
256,192,55579,1,8,0:0:0:0:
256,192,55751,1,0,0:0:0:0:
256,192,55837,1,0,0:0:0:0:
256,192,55924,1,8,0:0:0:0:
256,192,56010,1,8,0:0:0:0:
256,192,56096,1,0,0:0:0:0:
256,192,56268,1,0,0:0:0:0:
256,192,56441,1,8,0:0:0:0:
256,192,56613,1,0,0:0:0:0:
256,192,56699,1,0,0:0:0:0:
256,192,56786,1,0,0:0:0:0:
256,192,56872,1,0,0:0:0:0:
256,192,56958,1,8,0:0:0:0:
256,192,57044,1,0,0:0:0:0:
256,192,57130,1,0,0:0:0:0:
256,192,57217,1,0,0:0:0:0:
256,192,57303,1,8,0:0:0:0:
256,192,57389,1,8,0:0:0:0:
256,192,57475,1,0,0:0:0:0:
256,192,57562,1,0,0:0:0:0:
256,192,57648,1,8,0:0:0:0:
256,192,57820,1,8,0:0:0:0:
256,192,57993,1,4,0:0:0:0:
256,192,58251,1,0,0:0:0:0:
256,192,58337,1,8,0:0:0:0:
256,192,58510,1,8,0:0:0:0:
256,192,58596,1,8,0:0:0:0:
256,192,58682,1,0,0:0:0:0:
256,192,58855,1,0,0:0:0:0:
256,192,59027,1,8,0:0:0:0:
256,192,59113,1,0,0:0:0:0:
256,192,59199,1,8,0:0:0:0:
256,192,59286,1,8,0:0:0:0:
256,192,59372,1,0,0:0:0:0:
256,192,59544,1,0,0:0:0:0:
256,192,59630,1,0,0:0:0:0:
256,192,59717,1,8,0:0:0:0:
256,192,59889,1,0,0:0:0:0:
256,192,59975,1,8,0:0:0:0:
256,192,60061,1,8,0:0:0:0:
256,192,60234,1,0,0:0:0:0:
256,192,60406,1,8,0:0:0:0:
256,192,60493,1,8,0:0:0:0:
256,192,60579,1,0,0:0:0:0:
256,192,60665,1,0,0:0:0:0:
256,192,60751,1,0,0:0:0:0:
256,192,61010,1,0,0:0:0:0:
256,192,61096,1,8,0:0:0:0:
256,192,61268,1,8,0:0:0:0:
256,192,61441,1,0,0:0:0:0:
256,192,61613,1,0,0:0:0:0:
256,192,61699,1,0,0:0:0:0:
256,192,61786,1,8,0:0:0:0:
256,192,61958,1,8,0:0:0:0:
256,192,62130,1,0,0:0:0:0:
256,192,62303,1,8,0:0:0:0:
256,192,62389,1,0,0:0:0:0:
256,192,62475,1,8,0:0:0:0:
256,192,62648,1,0,0:0:0:0:
256,192,62734,1,0,0:0:0:0:
256,192,62820,1,8,0:0:0:0:
256,192,62906,1,8,0:0:0:0:
256,192,62993,1,0,0:0:0:0:
256,192,63165,1,8,0:0:0:0:
256,192,63337,1,8,0:0:0:0:
256,192,63424,1,8,0:0:0:0:
256,192,63510,1,0,0:0:0:0:
256,192,63768,1,0,0:0:0:0:
256,192,63855,1,8,0:0:0:0:
256,192,64027,1,8,0:0:0:0:
256,192,64199,1,0,0:0:0:0:
256,192,64372,1,0,0:0:0:0:
256,192,64458,1,0,0:0:0:0:
256,192,64544,1,8,0:0:0:0:
256,192,64717,1,8,0:0:0:0:
256,192,64889,1,0,0:0:0:0:
256,192,64975,1,8,0:0:0:0:
256,192,65061,1,8,0:0:0:0:
256,192,65148,1,0,0:0:0:0:
256,192,65234,1,8,0:0:0:0:
256,192,65406,1,0,0:0:0:0:
256,192,65493,1,8,0:0:0:0:
256,192,65579,1,8,0:0:0:0:
256,192,65751,1,0,0:0:0:0:
256,192,65924,1,8,0:0:0:0:
256,192,66010,1,8,0:0:0:0:
256,192,66096,1,0,0:0:0:0:
256,192,66182,1,0,0:0:0:0:
256,192,66268,1,0,0:0:0:0:
256,192,66527,1,0,0:0:0:0:
256,192,66613,1,8,0:0:0:0:
256,192,66786,1,8,0:0:0:0:
256,192,66872,1,8,0:0:0:0:
256,192,66958,1,0,0:0:0:0:
256,192,67130,1,0,0:0:0:0:
256,192,67303,1,8,0:0:0:0:
256,192,67475,1,0,0:0:0:0:
256,192,67561,1,8,0:0:0:0:
256,192,67648,1,0,0:0:0:0:
256,192,67906,1,0,0:0:0:0:
256,192,67993,1,8,0:0:0:0:
256,192,68165,1,8,0:0:0:0:
256,192,68251,1,8,0:0:0:0:
256,192,68337,1,0,0:0:0:0:
256,192,68424,1,0,0:0:0:0:
256,192,68510,1,0,0:0:0:0:
256,192,68682,1,8,0:0:0:0:
256,192,68855,1,8,0:0:0:0:
256,192,69027,1,4,0:0:0:0:
256,192,69286,1,0,0:0:0:0:
256,192,69372,1,8,0:0:0:0:
256,192,69544,1,8,0:0:0:0:
256,192,69630,1,8,0:0:0:0:
256,192,69717,1,0,0:0:0:0:
256,192,69889,1,0,0:0:0:0:
256,192,70061,1,8,0:0:0:0:
256,192,70148,1,8,0:0:0:0:
256,192,70234,1,0,0:0:0:0:
256,192,70320,1,8,0:0:0:0:
256,192,70406,1,0,0:0:0:0:
256,192,70579,1,0,0:0:0:0:
256,192,70665,1,0,0:0:0:0:
256,192,70751,1,8,0:0:0:0:
256,192,70924,1,0,0:0:0:0:
256,192,71010,1,8,0:0:0:0:
256,192,71096,1,8,0:0:0:0:
256,192,71182,1,8,0:0:0:0:
256,192,71268,1,0,0:0:0:0:
256,192,71441,1,8,0:0:0:0:
256,192,71613,1,0,0:0:0:0:
256,192,71699,1,0,0:0:0:0:
256,192,71786,1,0,0:0:0:0:
256,192,72044,1,0,0:0:0:0:
256,192,72130,1,8,0:0:0:0:
256,192,72303,1,8,0:0:0:0:
256,192,72475,1,0,0:0:0:0:
256,192,72648,1,0,0:0:0:0:
256,192,72734,1,0,0:0:0:0:
256,192,72820,1,8,0:0:0:0:
256,192,72993,1,8,0:0:0:0:
256,192,73165,1,0,0:0:0:0:
256,192,73251,1,0,0:0:0:0:
256,192,73337,1,8,0:0:0:0:
256,192,73424,1,0,0:0:0:0:
256,192,73510,1,8,0:0:0:0:
256,192,73682,1,0,0:0:0:0:
256,192,73768,1,8,0:0:0:0:
256,192,73855,1,8,0:0:0:0:
256,192,74027,1,0,0:0:0:0:
256,192,74199,1,8,0:0:0:0:
256,192,74372,1,8,0:0:0:0:
256,192,74458,1,8,0:0:0:0:
256,192,74544,1,0,0:0:0:0:
256,192,74803,1,0,0:0:0:0:
256,192,74889,1,8,0:0:0:0:
256,192,75061,1,8,0:0:0:0:
256,192,75234,1,0,0:0:0:0:
256,192,75406,1,0,0:0:0:0:
256,192,75493,1,8,0:0:0:0:
256,192,75579,1,8,0:0:0:0:
256,192,75665,1,0,0:0:0:0:
256,192,75751,1,8,0:0:0:0:
256,192,75924,1,0,0:0:0:0:
256,192,76096,1,0,0:0:0:0:
256,192,76182,1,0,0:0:0:0:
256,192,76268,1,8,0:0:0:0:
256,192,76441,1,0,0:0:0:0:
256,192,76527,1,8,0:0:0:0:
256,192,76613,1,8,0:0:0:0:
256,192,76699,1,8,0:0:0:0:
256,192,76786,1,0,0:0:0:0:
256,192,76958,1,8,0:0:0:0:
256,192,77130,1,0,0:0:0:0:
256,192,77217,1,0,0:0:0:0:
256,192,77303,1,0,0:0:0:0:
256,192,77561,1,0,0:0:0:0:
256,192,77648,1,8,0:0:0:0:
256,192,77820,1,8,0:0:0:0:
256,192,77906,1,8,0:0:0:0:
256,192,77993,1,0,0:0:0:0:
256,192,78165,1,0,0:0:0:0:
256,192,78337,1,8,0:0:0:0:
256,192,78510,1,0,0:0:0:0:
256,192,78596,1,8,0:0:0:0:
256,192,78682,1,0,0:0:0:0:
256,192,78941,1,0,0:0:0:0:
256,192,79027,1,8,0:0:0:0:
256,192,79199,1,8,0:0:0:0:
256,192,79286,1,8,0:0:0:0:
256,192,79372,1,0,0:0:0:0:
256,192,79544,1,0,0:0:0:0:
256,192,79717,1,8,0:0:0:0:
256,192,79889,1,8,0:0:0:0:
256,192,80061,1,4,0:0:0:0:
256,192,80320,1,0,0:0:0:0:
256,192,80406,1,8,0:0:0:0:
256,192,80579,1,0,0:0:0:0:
256,192,80665,1,0,0:0:0:0:
256,192,80751,1,8,0:0:0:0:
256,192,80924,1,0,0:0:0:0:
256,192,81096,1,8,0:0:0:0:
256,192,81182,1,0,0:0:0:0:
256,192,81268,1,0,0:0:0:0:
256,192,81355,1,8,0:0:0:0:
256,192,81441,1,0,0:0:0:0:
256,192,81699,1,0,0:0:0:0:
256,192,81786,1,8,0:0:0:0:
256,192,81958,1,8,0:0:0:0:
256,192,82044,1,0,0:0:0:0:
256,192,82130,1,8,0:0:0:0:
256,192,82303,1,0,0:0:0:0:
256,192,82475,1,8,0:0:0:0:
256,192,82561,1,8,0:0:0:0:
256,192,82648,1,0,0:0:0:0:
256,192,82734,1,8,0:0:0:0:
256,192,82820,1,0,0:0:0:0:
256,192,83079,1,0,0:0:0:0:
256,192,83165,1,8,0:0:0:0:
256,192,83337,1,0,0:0:0:0:
256,192,83424,1,0,0:0:0:0:
256,192,83510,1,8,0:0:0:0:
256,192,83682,1,0,0:0:0:0:
256,192,83855,1,8,0:0:0:0:
256,192,83941,1,0,0:0:0:0:
256,192,84027,1,0,0:0:0:0:
256,192,84113,1,8,0:0:0:0:
256,192,84199,1,0,0:0:0:0:
256,192,84458,1,0,0:0:0:0:
256,192,84544,1,8,0:0:0:0:
256,192,84717,1,8,0:0:0:0:
256,192,84803,1,0,0:0:0:0:
256,192,84889,1,8,0:0:0:0:
256,192,85061,1,0,0:0:0:0:
256,192,85234,1,8,0:0:0:0:
256,192,85320,1,8,0:0:0:0:
256,192,85406,1,0,0:0:0:0:
256,192,85493,1,0,0:0:0:0:
256,192,85579,1,0,0:0:0:0:
256,192,85837,1,0,0:0:0:0:
256,192,85924,1,8,0:0:0:0:
256,192,86096,1,0,0:0:0:0:
256,192,86268,1,8,0:0:0:0:
256,192,86441,1,0,0:0:0:0:
256,192,86527,1,0,0:0:0:0:
256,192,86613,1,8,0:0:0:0:
256,192,86786,1,0,0:0:0:0:
256,192,86958,1,8,0:0:0:0:
256,192,87044,1,8,0:0:0:0:
256,192,87130,1,8,0:0:0:0:
256,192,87217,1,8,0:0:0:0:
256,192,87303,1,0,0:0:0:0:
256,192,87475,1,8,0:0:0:0:
256,192,87561,1,8,0:0:0:0:
256,192,87648,1,0,0:0:0:0:
256,192,87734,1,0,0:0:0:0:
256,192,87820,1,0,0:0:0:0:
256,192,87993,1,8,0:0:0:0:
256,192,88165,1,0,0:0:0:0:
256,192,88337,1,8,0:0:0:0:
256,192,88424,1,8,0:0:0:0:
256,192,88510,1,8,0:0:0:0:
256,192,88596,1,8,0:0:0:0:
256,192,88682,1,0,0:0:0:0:
256,192,88768,1,0,0:0:0:0:
256,192,88855,1,8,0:0:0:0:
256,192,88941,1,0,0:0:0:0:
256,192,89027,1,8,0:0:0:0:
256,192,89113,1,0,0:0:0:0:
256,192,89199,1,0,0:0:0:0:
256,192,89286,1,8,0:0:0:0:
256,192,89372,1,0,0:0:0:0:
256,192,89458,1,0,0:0:0:0:
256,192,89544,1,8,0:0:0:0:
256,192,89630,1,8,0:0:0:0:
256,192,89717,1,0,0:0:0:0:
256,192,89803,1,0,0:0:0:0:
256,192,89889,1,0,0:0:0:0:
256,192,89975,1,0,0:0:0:0:
256,192,90061,1,8,0:0:0:0:
256,192,90148,1,8,0:0:0:0:
256,192,90234,1,0,0:0:0:0:
256,192,90320,1,0,0:0:0:0:
256,192,90406,1,8,0:0:0:0:
256,192,90493,1,0,0:0:0:0:
256,192,90579,1,0,0:0:0:0:
256,192,90665,1,0,0:0:0:0:
256,192,90751,1,8,0:0:0:0:
256,192,91096,1,0,0:0:0:0:
256,192,91355,1,0,0:0:0:0:
256,192,91441,1,8,0:0:0:0:
256,192,91613,1,0,0:0:0:0:
256,192,91699,1,0,0:0:0:0:
256,192,91786,1,0,0:0:0:0:
256,192,91958,1,0,0:0:0:0:
256,192,92130,1,8,0:0:0:0:
256,192,92303,1,8,0:0:0:0:
256,192,92389,1,8,0:0:0:0:
256,192,92475,1,0,0:0:0:0:
256,192,92648,1,0,0:0:0:0:
256,192,92820,1,8,0:0:0:0:
256,192,92993,1,0,0:0:0:0:
256,192,93079,1,0,0:0:0:0:
256,192,93165,1,8,0:0:0:0:
256,192,93251,1,0,0:0:0:0:
256,192,93337,1,0,0:0:0:0:
256,192,93510,1,8,0:0:0:0:
256,192,93682,1,8,0:0:0:0:
256,192,93855,1,0,0:0:0:0:
256,192,94199,1,8,0:0:0:0:
256,192,94372,1,0,0:0:0:0:
256,192,94458,1,8,0:0:0:0:
256,192,94544,1,0,0:0:0:0:
256,192,94717,1,0,0:0:0:0:
256,192,94889,1,8,0:0:0:0:
256,192,94975,1,8,0:0:0:0:
256,192,95061,1,0,0:0:0:0:
256,192,95148,1,8,0:0:0:0:
256,192,95234,1,0,0:0:0:0:
256,192,95406,1,0,0:0:0:0:
256,192,95579,1,8,0:0:0:0:
256,192,95751,1,8,0:0:0:0:
256,192,95837,1,8,0:0:0:0:
256,192,95924,1,0,0:0:0:0:
256,192,96096,1,0,0:0:0:0:
256,192,96268,1,8,0:0:0:0:
256,192,96613,1,0,0:0:0:0:
256,192,96872,1,0,0:0:0:0:
256,192,96958,1,8,0:0:0:0:
256,192,97130,1,0,0:0:0:0:
256,192,97217,1,0,0:0:0:0:
256,192,97303,1,0,0:0:0:0:
256,192,97475,1,0,0:0:0:0:
256,192,97648,1,8,0:0:0:0:
256,192,97820,1,8,0:0:0:0:
256,192,97906,1,8,0:0:0:0:
256,192,97993,1,0,0:0:0:0:
256,192,98165,1,0,0:0:0:0:
256,192,98337,1,8,0:0:0:0:
256,192,98510,1,0,0:0:0:0:
256,192,98596,1,0,0:0:0:0:
256,192,98682,1,8,0:0:0:0:
256,192,98768,1,8,0:0:0:0:
256,192,98855,1,0,0:0:0:0:
256,192,99027,1,8,0:0:0:0:
256,192,99199,1,8,0:0:0:0:
256,192,99372,1,0,0:0:0:0:
256,192,99717,1,8,0:0:0:0:
256,192,99889,1,8,0:0:0:0:
256,192,99975,1,8,0:0:0:0:
256,192,100061,1,0,0:0:0:0:
256,192,100234,1,0,0:0:0:0:
256,192,100406,1,8,0:0:0:0:
256,192,100493,1,8,0:0:0:0:
256,192,100579,1,0,0:0:0:0:
256,192,100665,1,8,0:0:0:0:
256,192,100751,1,0,0:0:0:0:
256,192,100924,1,0,0:0:0:0:
256,192,101010,1,0,0:0:0:0:
256,192,101096,1,8,0:0:0:0:
256,192,101268,1,0,0:0:0:0:
256,192,101441,1,8,0:0:0:0:
256,192,101527,1,8,0:0:0:0:
256,192,101613,1,0,0:0:0:0:
256,192,101699,1,0,0:0:0:0:
256,192,101786,1,8,0:0:0:0:
256,192,101958,1,8,0:0:0:0:
256,192,102130,1,4,0:0:0:0:
256,192,102389,1,0,0:0:0:0:
256,192,102475,1,8,0:0:0:0:
256,192,102648,1,0,0:0:0:0:
256,192,102734,1,8,0:0:0:0:
256,192,102820,1,0,0:0:0:0:
256,192,102993,1,0,0:0:0:0:
256,192,103165,1,8,0:0:0:0:
256,192,103337,1,8,0:0:0:0:
256,192,103424,1,8,0:0:0:0:
256,192,103510,1,0,0:0:0:0:
256,192,103682,1,0,0:0:0:0:
256,192,103855,1,8,0:0:0:0:
256,192,103941,1,0,0:0:0:0:
256,192,104027,1,0,0:0:0:0:
256,192,104113,1,8,0:0:0:0:
256,192,104199,1,0,0:0:0:0:
256,192,104372,1,0,0:0:0:0:
256,192,104544,1,8,0:0:0:0:
256,192,104717,1,8,0:0:0:0:
256,192,104803,1,8,0:0:0:0:
256,192,104889,1,0,0:0:0:0:
256,192,105148,1,0,0:0:0:0:
256,192,105234,1,8,0:0:0:0:
256,192,105406,1,8,0:0:0:0:
256,192,105493,1,8,0:0:0:0:
256,192,105579,1,0,0:0:0:0:
256,192,105751,1,0,0:0:0:0:
256,192,105924,1,8,0:0:0:0:
256,192,106096,1,0,0:0:0:0:
256,192,106182,1,0,0:0:0:0:
256,192,106268,1,8,0:0:0:0:
256,192,106527,1,0,0:0:0:0:
256,192,106613,1,8,0:0:0:0:
256,192,106786,1,0,0:0:0:0:
256,192,106958,1,8,0:0:0:0:
256,192,107130,1,0,0:0:0:0:
256,192,107217,1,0,0:0:0:0:
256,192,107303,1,8,0:0:0:0:
256,192,107475,1,8,0:0:0:0:
256,192,107648,1,0,0:0:0:0:
256,192,107734,1,0,0:0:0:0:
256,192,107820,1,0,0:0:0:0:
256,192,107906,1,0,0:0:0:0:
256,192,107993,1,8,0:0:0:0:
256,192,108165,1,0,0:0:0:0:
256,192,108251,1,0,0:0:0:0:
256,192,108337,1,8,0:0:0:0:
256,192,108424,1,8,0:0:0:0:
256,192,108510,1,0,0:0:0:0:
256,192,108682,1,0,0:0:0:0:
256,192,108855,1,8,0:0:0:0:
256,192,109027,1,0,0:0:0:0:
256,192,109113,1,0,0:0:0:0:
256,192,109199,1,0,0:0:0:0:
256,192,109286,1,0,0:0:0:0:
256,192,109372,1,8,0:0:0:0:
256,192,109458,1,0,0:0:0:0:
256,192,109544,1,0,0:0:0:0:
256,192,109630,1,0,0:0:0:0:
256,192,109717,1,8,0:0:0:0:
256,192,109803,1,8,0:0:0:0:
256,192,109889,1,0,0:0:0:0:
256,192,109975,1,0,0:0:0:0:
256,192,110061,1,8,0:0:0:0:
256,192,110234,1,8,0:0:0:0:
256,192,110406,1,4,0:0:0:0:
256,192,110664,1,0,0:0:0:0:
256,192,110750,1,8,0:0:0:0:
256,192,110923,1,8,0:0:0:0:
256,192,111009,1,8,0:0:0:0:
256,192,111095,1,0,0:0:0:0:
256,192,111268,1,0,0:0:0:0:
256,192,111440,1,8,0:0:0:0:
256,192,111526,1,0,0:0:0:0:
256,192,111612,1,8,0:0:0:0:
256,192,111699,1,8,0:0:0:0:
256,192,111785,1,0,0:0:0:0:
256,192,111957,1,0,0:0:0:0:
256,192,112043,1,0,0:0:0:0:
256,192,112130,1,8,0:0:0:0:
256,192,112302,1,0,0:0:0:0:
256,192,112388,1,8,0:0:0:0:
256,192,112474,1,8,0:0:0:0:
256,192,112647,1,0,0:0:0:0:
256,192,112819,1,8,0:0:0:0:
256,192,112906,1,8,0:0:0:0:
256,192,112992,1,0,0:0:0:0:
256,192,113078,1,0,0:0:0:0:
256,192,113164,1,0,0:0:0:0:
256,192,113423,1,0,0:0:0:0:
256,192,113509,1,8,0:0:0:0:
256,192,113681,1,8,0:0:0:0:
256,192,113854,1,0,0:0:0:0:
256,192,114026,1,0,0:0:0:0:
256,192,114112,1,0,0:0:0:0:
256,192,114199,1,8,0:0:0:0:
256,192,114371,1,8,0:0:0:0:
256,192,114543,1,0,0:0:0:0:
256,192,114716,1,8,0:0:0:0:
256,192,114802,1,0,0:0:0:0:
256,192,114888,1,8,0:0:0:0:
256,192,115061,1,0,0:0:0:0:
256,192,115147,1,0,0:0:0:0:
256,192,115233,1,8,0:0:0:0:
256,192,115319,1,8,0:0:0:0:
256,192,115406,1,0,0:0:0:0:
256,192,115578,1,8,0:0:0:0:
256,192,115750,1,8,0:0:0:0:
256,192,115837,1,8,0:0:0:0:
256,192,115923,1,0,0:0:0:0:
256,192,116181,1,0,0:0:0:0:
256,192,116268,1,8,0:0:0:0:
256,192,116440,1,8,0:0:0:0:
256,192,116612,1,0,0:0:0:0:
256,192,116785,1,0,0:0:0:0:
256,192,116871,1,0,0:0:0:0:
256,192,116957,1,8,0:0:0:0:
256,192,117130,1,8,0:0:0:0:
256,192,117302,1,0,0:0:0:0:
256,192,117474,1,8,0:0:0:0:
256,192,117561,1,0,0:0:0:0:
256,192,117647,1,8,0:0:0:0:
256,192,117819,1,0,0:0:0:0:
256,192,117906,1,8,0:0:0:0:
256,192,117992,1,8,0:0:0:0:
256,192,118078,1,8,0:0:0:0:
256,192,118164,1,0,0:0:0:0:
256,192,118337,1,8,0:0:0:0:
256,192,118509,1,0,0:0:0:0:
256,192,118595,1,0,0:0:0:0:
256,192,118681,1,0,0:0:0:0:
256,192,118940,1,0,0:0:0:0:
256,192,119026,1,8,0:0:0:0:
256,192,119199,1,8,0:0:0:0:
256,192,119285,1,8,0:0:0:0:
256,192,119371,1,0,0:0:0:0:
256,192,119543,1,0,0:0:0:0:
256,192,119716,1,8,0:0:0:0:
256,192,119888,1,0,0:0:0:0:
256,192,119974,1,8,0:0:0:0:
256,192,120061,1,0,0:0:0:0:
256,192,120319,1,0,0:0:0:0:
256,192,120406,1,8,0:0:0:0:
256,192,120578,1,8,0:0:0:0:
256,192,120664,1,8,0:0:0:0:
256,192,120750,1,0,0:0:0:0:
256,192,120837,1,0,0:0:0:0:
256,192,120923,1,0,0:0:0:0:
256,192,121095,1,8,0:0:0:0:
256,192,121268,1,8,0:0:0:0:
256,192,121440,1,4,0:0:0:0:
256,192,121699,1,0,0:0:0:0:
256,192,121785,1,8,0:0:0:0:
256,192,121957,1,8,0:0:0:0:
256,192,122043,1,8,0:0:0:0:
256,192,122130,1,0,0:0:0:0:
256,192,122302,1,0,0:0:0:0:
256,192,122474,1,8,0:0:0:0:
256,192,122561,1,8,0:0:0:0:
256,192,122647,1,0,0:0:0:0:
256,192,122733,1,8,0:0:0:0:
256,192,122819,1,0,0:0:0:0:
256,192,122992,1,0,0:0:0:0:
256,192,123078,1,0,0:0:0:0:
256,192,123164,1,8,0:0:0:0:
256,192,123337,1,0,0:0:0:0:
256,192,123423,1,8,0:0:0:0:
256,192,123509,1,8,0:0:0:0:
256,192,123595,1,8,0:0:0:0:
256,192,123681,1,0,0:0:0:0:
256,192,123854,1,8,0:0:0:0:
256,192,124026,1,0,0:0:0:0:
256,192,124112,1,0,0:0:0:0:
256,192,124199,1,0,0:0:0:0:
256,192,124457,1,0,0:0:0:0:
256,192,124543,1,8,0:0:0:0:
256,192,124716,1,8,0:0:0:0:
256,192,124888,1,0,0:0:0:0:
256,192,125061,1,0,0:0:0:0:
256,192,125147,1,0,0:0:0:0:
256,192,125233,1,8,0:0:0:0:
256,192,125406,1,8,0:0:0:0:
256,192,125578,1,0,0:0:0:0:
256,192,125664,1,0,0:0:0:0:
256,192,125750,1,8,0:0:0:0:
256,192,125837,1,0,0:0:0:0:
256,192,125923,1,8,0:0:0:0:
256,192,126095,1,0,0:0:0:0:
256,192,126181,1,8,0:0:0:0:
256,192,126268,1,8,0:0:0:0:
256,192,126440,1,0,0:0:0:0:
256,192,126612,1,8,0:0:0:0:
256,192,126785,1,8,0:0:0:0:
256,192,126871,1,8,0:0:0:0:
256,192,126957,1,0,0:0:0:0:
256,192,127216,1,0,0:0:0:0:
256,192,127302,1,8,0:0:0:0:
256,192,127474,1,8,0:0:0:0:
256,192,127647,1,0,0:0:0:0:
256,192,127819,1,0,0:0:0:0:
256,192,127906,1,8,0:0:0:0:
256,192,127992,1,8,0:0:0:0:
256,192,128164,1,8,0:0:0:0:
256,192,128337,1,0,0:0:0:0:
256,192,128423,1,0,0:0:0:0:
256,192,128509,1,8,0:0:0:0:
256,192,128595,1,0,0:0:0:0:
256,192,128681,1,8,0:0:0:0:
256,192,128854,1,0,0:0:0:0:
256,192,128940,1,8,0:0:0:0:
256,192,129026,1,8,0:0:0:0:
256,192,129112,1,8,0:0:0:0:
256,192,129199,1,0,0:0:0:0:
256,192,129371,1,8,0:0:0:0:
256,192,129543,1,0,0:0:0:0:
256,192,129630,1,0,0:0:0:0:
256,192,129716,1,0,0:0:0:0:
256,192,129974,1,0,0:0:0:0:
256,192,130061,1,8,0:0:0:0:
256,192,130233,1,8,0:0:0:0:
256,192,130319,1,8,0:0:0:0:
256,192,130406,1,0,0:0:0:0:
256,192,130578,1,0,0:0:0:0:
256,192,130750,1,8,0:0:0:0:
256,192,130923,1,0,0:0:0:0:
256,192,131009,1,8,0:0:0:0:
256,192,131095,1,0,0:0:0:0:
256,192,131354,1,0,0:0:0:0:
256,192,131440,1,8,0:0:0:0:
256,192,131612,1,8,0:0:0:0:
256,192,131699,1,8,0:0:0:0:
256,192,131785,1,0,0:0:0:0:
256,192,131957,1,0,0:0:0:0:
256,192,132130,1,8,0:0:0:0:
256,192,132302,1,8,0:0:0:0:
256,192,132474,1,4,0:0:0:0:
256,192,132733,1,0,0:0:0:0:
256,192,132819,1,8,0:0:0:0:
256,192,132992,1,0,0:0:0:0:
256,192,133078,1,0,0:0:0:0:
256,192,133164,1,8,0:0:0:0:
256,192,133337,1,0,0:0:0:0:
256,192,133509,1,8,0:0:0:0:
256,192,133595,1,0,0:0:0:0:
256,192,133681,1,0,0:0:0:0:
256,192,133768,1,8,0:0:0:0:
256,192,133854,1,0,0:0:0:0:
256,192,134112,1,0,0:0:0:0:
256,192,134199,1,8,0:0:0:0:
256,192,134371,1,8,0:0:0:0:
256,192,134457,1,0,0:0:0:0:
256,192,134543,1,8,0:0:0:0:
256,192,134716,1,0,0:0:0:0:
256,192,134888,1,8,0:0:0:0:
256,192,134974,1,8,0:0:0:0:
256,192,135061,1,0,0:0:0:0:
256,192,135147,1,8,0:0:0:0:
256,192,135233,1,0,0:0:0:0:
256,192,135492,1,0,0:0:0:0:
256,192,135578,1,8,0:0:0:0:
256,192,135750,1,0,0:0:0:0:
256,192,135837,1,0,0:0:0:0:
256,192,135923,1,8,0:0:0:0:
256,192,136095,1,0,0:0:0:0:
256,192,136268,1,8,0:0:0:0:
256,192,136354,1,0,0:0:0:0:
256,192,136440,1,0,0:0:0:0:
256,192,136526,1,8,0:0:0:0:
256,192,136612,1,0,0:0:0:0:
256,192,136871,1,0,0:0:0:0:
256,192,136957,1,8,0:0:0:0:
256,192,137130,1,8,0:0:0:0:
256,192,137216,1,0,0:0:0:0:
256,192,137302,1,8,0:0:0:0:
256,192,137474,1,0,0:0:0:0:
256,192,137647,1,8,0:0:0:0:
256,192,137733,1,8,0:0:0:0:
256,192,137819,1,0,0:0:0:0:
256,192,137906,1,0,0:0:0:0:
256,192,137992,1,0,0:0:0:0:
256,192,138250,1,0,0:0:0:0:
256,192,138337,1,8,0:0:0:0:
256,192,138509,1,0,0:0:0:0:
256,192,138595,1,0,0:0:0:0:
256,192,138681,1,8,0:0:0:0:
256,192,138854,1,0,0:0:0:0:
256,192,139026,1,8,0:0:0:0:
256,192,139112,1,0,0:0:0:0:
256,192,139199,1,0,0:0:0:0:
256,192,139285,1,8,0:0:0:0:
256,192,139371,1,0,0:0:0:0:
256,192,139630,1,0,0:0:0:0:
256,192,139716,1,8,0:0:0:0:
256,192,139888,1,8,0:0:0:0:
256,192,139974,1,0,0:0:0:0:
256,192,140061,1,8,0:0:0:0:
256,192,140233,1,0,0:0:0:0:
256,192,140406,1,8,0:0:0:0:
256,192,140492,1,8,0:0:0:0:
256,192,140578,1,0,0:0:0:0:
256,192,140664,1,8,0:0:0:0:
256,192,140750,1,0,0:0:0:0:
256,192,141009,1,0,0:0:0:0:
256,192,141095,1,8,0:0:0:0:
256,192,141268,1,0,0:0:0:0:
256,192,141354,1,0,0:0:0:0:
256,192,141440,1,8,0:0:0:0:
256,192,141612,1,0,0:0:0:0:
256,192,141785,1,8,0:0:0:0:
256,192,141871,1,0,0:0:0:0:
256,192,141957,1,0,0:0:0:0:
256,192,142043,1,8,0:0:0:0:
256,192,142130,1,0,0:0:0:0:
256,192,142388,1,0,0:0:0:0:
256,192,142474,1,8,0:0:0:0:
256,192,142647,1,8,0:0:0:0:
256,192,142733,1,0,0:0:0:0:
256,192,142819,1,8,0:0:0:0:
256,192,142992,1,0,0:0:0:0:
256,192,143164,1,8,0:0:0:0:
256,192,143509,1,0,0:0:0:0:
256,192,143681,1,0,0:0:0:0:
256,192,143854,1,8,0:0:0:0:
256,192,143940,1,8,0:0:0:0:
256,192,144026,1,0,0:0:0:0:
256,192,144112,1,0,0:0:0:0:
256,192,144199,1,8,0:0:0:0:
256,192,144371,1,8,0:0:0:0:
256,192,144543,1,0,0:0:0:0:
256,192,144630,1,8,0:0:0:0:
256,192,144716,1,0,0:0:0:0:
256,192,144802,1,0,0:0:0:0:
256,192,144888,1,8,0:0:0:0:
256,192,145061,1,0,0:0:0:0:
256,192,145233,1,8,0:0:0:0:
256,192,145319,1,0,0:0:0:0:
256,192,145406,1,8,0:0:0:0:
256,192,145492,1,8,0:0:0:0:
256,192,145578,1,0,0:0:0:0:
256,192,145750,1,0,0:0:0:0:
256,192,145837,1,0,0:0:0:0:
256,192,145923,1,8,0:0:0:0:
256,192,146009,1,8,0:0:0:0:
256,192,146095,1,0,0:0:0:0:
256,192,146181,1,0,0:0:0:0:
256,192,146268,1,8,0:0:0:0:
256,192,146440,1,0,0:0:0:0:
256,192,146612,1,8,0:0:0:0:
256,192,146699,1,8,0:0:0:0:
256,192,146785,1,8,0:0:0:0:
256,192,146871,1,0,0:0:0:0:
256,192,146957,1,8,0:0:0:0:
256,192,147130,1,0,0:0:0:0:
256,192,147302,1,8,0:0:0:0:
256,192,147388,1,8,0:0:0:0:
256,192,147474,1,0,0:0:0:0:
256,192,147561,1,0,0:0:0:0:
256,192,147647,1,8,0:0:0:0:
256,192,147819,1,0,0:0:0:0:
256,192,147906,1,8,0:0:0:0:
256,192,147992,1,0,0:0:0:0:
256,192,148078,1,8,0:0:0:0:
256,192,148164,1,0,0:0:0:0:
256,192,148250,1,0,0:0:0:0:
256,192,148337,1,8,0:0:0:0:
256,192,148509,1,0,0:0:0:0:
256,192,148681,1,8,0:0:0:0:
256,192,148768,1,8,0:0:0:0:
256,192,148854,1,0,0:0:0:0:
256,192,149026,1,8,0:0:0:0:
256,192,149199,1,0,0:0:0:0:
256,192,149371,1,8,0:0:0:0:
256,192,149457,1,8,0:0:0:0:
256,192,149543,1,0,0:0:0:0:
256,192,149630,1,0,0:0:0:0:
256,192,149716,1,8,0:0:0:0:
256,192,149888,1,8,0:0:0:0:
256,192,150061,1,0,0:0:0:0:
256,192,150147,1,8,0:0:0:0:
256,192,150233,1,0,0:0:0:0:
256,192,150319,1,0,0:0:0:0:
256,192,150406,1,8,0:0:0:0:
256,192,150578,1,0,0:0:0:0:
256,192,150750,1,8,0:0:0:0:
256,192,150837,1,0,0:0:0:0:
256,192,150923,1,8,0:0:0:0:
256,192,151009,1,8,0:0:0:0:
256,192,151095,1,0,0:0:0:0:
256,192,151268,1,0,0:0:0:0:
256,192,151354,1,0,0:0:0:0:
256,192,151440,1,8,0:0:0:0:
256,192,151526,1,8,0:0:0:0:
256,192,151612,1,0,0:0:0:0:
256,192,151699,1,0,0:0:0:0:
256,192,151785,1,8,0:0:0:0:
256,192,151957,1,0,0:0:0:0:
256,192,152130,1,8,0:0:0:0:
256,192,152216,1,8,0:0:0:0:
256,192,152302,1,8,0:0:0:0:
256,192,152388,1,0,0:0:0:0:
256,192,152474,1,8,0:0:0:0:
256,192,152647,1,0,0:0:0:0:
256,192,152819,1,8,0:0:0:0:
256,192,152906,1,8,0:0:0:0:
256,192,152992,1,0,0:0:0:0:
256,192,153078,1,0,0:0:0:0:
256,192,153164,1,8,0:0:0:0:
256,192,153337,1,0,0:0:0:0:
256,192,153423,1,8,0:0:0:0:
256,192,153509,1,0,0:0:0:0:
256,192,153595,1,8,0:0:0:0:
256,192,153681,1,0,0:0:0:0:
256,192,153768,1,0,0:0:0:0:
256,192,153854,1,8,0:0:0:0:
256,192,154026,1,0,0:0:0:0:
256,192,154199,1,8,0:0:0:0:
256,192,154285,1,8,0:0:0:0:
256,192,154371,1,0,0:0:0:0:
256,192,154543,1,0,0:0:0:0:
256,192,154630,1,0,0:0:0:0:
256,192,154716,1,0,0:0:0:0:
256,192,154802,1,0,0:0:0:0:
256,192,154888,1,8,0:0:0:0:
256,192,154946,1,8,0:0:0:0:
256,192,155003,1,0,0:0:0:0:
256,192,155061,1,0,0:0:0:0:
256,192,155147,1,8,0:0:0:0:
256,192,155204,1,8,0:0:0:0:
256,192,155262,1,0,0:0:0:0:
256,192,155319,1,0,0:0:0:0:
256,192,155406,1,8,0:0:0:0:
256,192,155492,1,8,0:0:0:0:
256,192,155578,1,0,0:0:0:0:
256,192,155635,1,8,0:0:0:0:
256,192,155693,1,8,0:0:0:0:
256,192,155750,1,0,0:0:0:0:
256,192,155923,1,8,0:0:0:0:
256,192,156009,1,8,0:0:0:0:
256,192,156095,1,8,0:0:0:0:
256,192,156181,1,8,0:0:0:0:
256,192,156268,1,0,0:0:0:0:
256,192,156325,1,0,0:0:0:0:
256,192,156383,1,8,0:0:0:0:
256,192,156440,1,8,0:0:0:0:
256,192,156526,1,0,0:0:0:0:
256,192,156584,1,0,0:0:0:0:
256,192,156641,1,8,0:0:0:0:
256,192,156699,1,8,0:0:0:0:
256,192,156785,1,0,0:0:0:0:
256,192,156871,1,0,0:0:0:0:
256,192,156957,1,8,0:0:0:0:
256,192,157015,1,0,0:0:0:0:
256,192,157072,1,0,0:0:0:0:
256,192,157130,1,8,0:0:0:0:
256,192,157216,1,8,0:0:0:0:
256,192,157302,1,0,0:0:0:0:
256,192,157474,1,0,0:0:0:0:
256,192,157561,1,0,0:0:0:0:
256,192,157647,1,8,0:0:0:0:
256,192,157704,1,0,0:0:0:0:
256,192,157762,1,0,0:0:0:0:
256,192,157819,1,8,0:0:0:0:
256,192,157906,1,8,0:0:0:0:
256,192,157992,1,0,0:0:0:0:
256,192,158078,1,0,0:0:0:0:
256,192,158164,1,8,0:0:0:0:
256,192,158250,1,0,0:0:0:0:
256,192,158337,1,8,0:0:0:0:
256,192,158394,1,8,0:0:0:0:
256,192,158451,1,8,0:0:0:0:
256,192,158509,1,0,0:0:0:0:
256,192,158595,1,0,0:0:0:0:
256,192,158681,1,8,0:0:0:0:
256,192,158739,1,8,0:0:0:0:
256,192,158796,1,0,0:0:0:0:
256,192,158854,1,0,0:0:0:0:
256,192,158940,1,8,0:0:0:0:
256,192,158997,1,8,0:0:0:0:
256,192,159055,1,0,0:0:0:0:
256,192,159112,1,0,0:0:0:0:
256,192,159199,1,8,0:0:0:0:
256,192,159256,1,0,0:0:0:0:
256,192,159314,1,0,0:0:0:0:
256,192,159371,1,8,0:0:0:0:
256,192,159457,1,0,0:0:0:0:
256,192,159543,1,0,0:0:0:0:
256,192,159630,1,8,0:0:0:0:
256,192,159716,1,8,0:0:0:0:
256,192,159888,1,8,0:0:0:0:
256,192,159974,1,8,0:0:0:0:
256,192,160061,1,0,0:0:0:0:
256,192,160147,1,0,0:0:0:0:
256,192,160233,1,0,0:0:0:0:
256,192,160319,1,0,0:0:0:0:
256,192,160406,1,8,0:0:0:0:
256,192,160463,1,8,0:0:0:0:
256,192,160520,1,0,0:0:0:0:
256,192,160578,1,0,0:0:0:0:
256,192,160664,1,8,0:0:0:0:
256,192,160722,1,8,0:0:0:0:
256,192,160779,1,0,0:0:0:0:
256,192,160837,1,0,0:0:0:0:
256,192,160923,1,8,0:0:0:0:
256,192,161009,1,8,0:0:0:0:
256,192,161095,1,0,0:0:0:0:
256,192,161153,1,8,0:0:0:0:
256,192,161210,1,8,0:0:0:0:
256,192,161268,1,0,0:0:0:0:
256,192,161440,1,8,0:0:0:0:
256,192,161526,1,8,0:0:0:0:
256,192,161612,1,8,0:0:0:0:
256,192,161699,1,8,0:0:0:0:
256,192,161785,1,0,0:0:0:0:
256,192,161842,1,0,0:0:0:0:
256,192,161900,1,8,0:0:0:0:
256,192,161957,1,8,0:0:0:0:
256,192,162043,1,0,0:0:0:0:
256,192,162101,1,0,0:0:0:0:
256,192,162158,1,8,0:0:0:0:
256,192,162216,1,8,0:0:0:0:
256,192,162302,1,0,0:0:0:0:
256,192,162388,1,0,0:0:0:0:
256,192,162474,1,8,0:0:0:0:
256,192,162532,1,0,0:0:0:0:
256,192,162589,1,0,0:0:0:0:
256,192,162647,1,8,0:0:0:0:
256,192,162733,1,8,0:0:0:0:
256,192,162819,1,0,0:0:0:0:
256,192,162992,1,0,0:0:0:0:
256,192,163078,1,0,0:0:0:0:
256,192,163164,1,8,0:0:0:0:
256,192,163222,1,0,0:0:0:0:
256,192,163279,1,0,0:0:0:0:
256,192,163337,1,8,0:0:0:0:
256,192,163423,1,0,0:0:0:0:
256,192,163509,1,8,0:0:0:0:
256,192,163595,1,8,0:0:0:0:
256,192,163681,1,0,0:0:0:0:
256,192,163768,1,0,0:0:0:0:
256,192,163854,1,8,0:0:0:0:
256,192,163911,1,8,0:0:0:0:
256,192,163969,1,8,0:0:0:0:
256,192,164026,1,0,0:0:0:0:
256,192,164112,1,0,0:0:0:0:
256,192,164199,1,8,0:0:0:0:
256,192,164242,1,8,0:0:0:0:
256,192,164371,1,0,0:0:0:0:
256,192,164428,1,8,0:0:0:0:
256,192,164486,1,8,0:0:0:0:
256,192,164543,1,0,0:0:0:0:
256,192,164630,1,8,0:0:0:0:
256,192,164673,1,8,0:0:0:0:
256,192,164716,1,0,0:0:0:0:
256,192,164802,1,0,0:0:0:0:
256,192,164888,1,8,0:0:0:0:
256,192,164974,1,8,0:0:0:0:
256,192,165061,1,0,0:0:0:0:
256,192,165147,1,0,0:0:0:0:
256,192,165233,1,8,0:0:0:0:
256,192,165319,1,0,0:0:0:0:
256,192,165406,1,8,0:0:0:0:
256,192,165492,1,8,0:0:0:0:
256,192,165578,1,0,0:0:0:0:
256,192,166440,1,0,0:0:0:0:
256,192,166612,1,0,0:0:0:0:
256,192,166785,1,8,0:0:0:0:
256,192,166957,1,0,0:0:0:0:
256,192,167302,1,0,0:0:0:0:
256,192,167474,1,8,0:0:0:0:
256,192,167819,1,8,0:0:0:0:
256,192,168164,1,8,0:0:0:0:
256,192,168337,1,0,0:0:0:0:
256,192,168681,1,0,0:0:0:0:
256,192,168854,1,8,0:0:0:0:
256,192,169199,1,0,0:0:0:0:
256,192,169371,1,8,0:0:0:0:
256,192,169543,1,8,0:0:0:0:
256,192,169716,1,0,0:0:0:0:
256,192,169888,1,0,0:0:0:0:
256,192,170233,1,0,0:0:0:0:
256,192,170578,1,8,0:0:0:0:
256,192,170923,1,8,0:0:0:0:
256,192,171095,1,0,0:0:0:0:
256,192,171440,1,0,0:0:0:0:
256,192,171612,1,8,0:0:0:0:
256,192,171957,1,0,0:0:0:0:
256,192,172130,1,0,0:0:0:0:
256,192,172302,1,8,0:0:0:0:
256,192,172474,1,0,0:0:0:0:
256,192,172819,1,0,0:0:0:0:
256,192,172992,1,8,0:0:0:0:
256,192,173337,1,8,0:0:0:0:
256,192,173854,1,0,0:0:0:0:
256,192,174199,1,8,0:0:0:0:
256,192,174371,1,0,0:0:0:0:
256,192,174716,1,0,0:0:0:0:
256,192,174888,1,8,0:0:0:0:
256,192,175061,1,8,0:0:0:0:
256,192,175233,1,0,0:0:0:0:
256,192,175578,1,8,0:0:0:0:
256,192,175750,1,0,0:0:0:0:
256,192,175923,1,0,0:0:0:0:
256,192,176009,1,8,0:0:0:0:
256,192,176095,1,0,0:0:0:0:
256,192,176268,1,8,0:0:0:0:
256,192,176440,1,8,0:0:0:0:
256,192,176612,1,4,0:0:0:0:
256,192,176871,1,0,0:0:0:0:
256,192,176957,1,8,0:0:0:0:
256,192,177130,1,8,0:0:0:0:
256,192,177216,1,8,0:0:0:0:
256,192,177302,1,0,0:0:0:0:
256,192,177474,1,0,0:0:0:0:
256,192,177647,1,8,0:0:0:0:
256,192,177733,1,8,0:0:0:0:
256,192,177819,1,0,0:0:0:0:
256,192,177906,1,8,0:0:0:0:
256,192,177992,1,0,0:0:0:0:
256,192,178164,1,0,0:0:0:0:
256,192,178250,1,0,0:0:0:0:
256,192,178337,1,8,0:0:0:0:
256,192,178509,1,0,0:0:0:0:
256,192,178595,1,8,0:0:0:0:
256,192,178681,1,8,0:0:0:0:
256,192,178768,1,8,0:0:0:0:
256,192,178854,1,0,0:0:0:0:
256,192,179026,1,8,0:0:0:0:
256,192,179199,1,0,0:0:0:0:
256,192,179285,1,0,0:0:0:0:
256,192,179371,1,0,0:0:0:0:
256,192,179630,1,0,0:0:0:0:
256,192,179716,1,8,0:0:0:0:
256,192,179888,1,8,0:0:0:0:
256,192,180061,1,0,0:0:0:0:
256,192,180233,1,0,0:0:0:0:
256,192,180319,1,0,0:0:0:0:
256,192,180406,1,8,0:0:0:0:
256,192,180578,1,8,0:0:0:0:
256,192,180750,1,0,0:0:0:0:
256,192,180837,1,0,0:0:0:0:
256,192,180923,1,8,0:0:0:0:
256,192,181009,1,0,0:0:0:0:
256,192,181095,1,8,0:0:0:0:
256,192,181268,1,0,0:0:0:0:
256,192,181354,1,8,0:0:0:0:
256,192,181440,1,8,0:0:0:0:
256,192,181612,1,0,0:0:0:0:
256,192,181785,1,8,0:0:0:0:
256,192,181957,1,8,0:0:0:0:
256,192,182043,1,8,0:0:0:0:
256,192,182130,1,0,0:0:0:0:
256,192,182388,1,0,0:0:0:0:
256,192,182474,1,8,0:0:0:0:
256,192,182647,1,8,0:0:0:0:
256,192,182819,1,0,0:0:0:0:
256,192,182992,1,0,0:0:0:0:
256,192,183078,1,8,0:0:0:0:
256,192,183164,1,8,0:0:0:0:
256,192,183250,1,0,0:0:0:0:
256,192,183337,1,8,0:0:0:0:
256,192,183509,1,0,0:0:0:0:
256,192,183681,1,0,0:0:0:0:
256,192,183768,1,0,0:0:0:0:
256,192,183854,1,8,0:0:0:0:
256,192,184026,1,0,0:0:0:0:
256,192,184112,1,8,0:0:0:0:
256,192,184199,1,8,0:0:0:0:
256,192,184285,1,8,0:0:0:0:
256,192,184371,1,0,0:0:0:0:
256,192,184543,1,8,0:0:0:0:
256,192,184716,1,0,0:0:0:0:
256,192,184802,1,0,0:0:0:0:
256,192,184888,1,0,0:0:0:0:
256,192,185147,1,0,0:0:0:0:
256,192,185233,1,8,0:0:0:0:
256,192,185406,1,8,0:0:0:0:
256,192,185492,1,8,0:0:0:0:
256,192,185578,1,0,0:0:0:0:
256,192,185750,1,0,0:0:0:0:
256,192,185923,1,8,0:0:0:0:
256,192,186095,1,0,0:0:0:0:
256,192,186181,1,8,0:0:0:0:
256,192,186268,1,0,0:0:0:0:
256,192,186526,1,0,0:0:0:0:
256,192,186612,1,8,0:0:0:0:
256,192,186785,1,8,0:0:0:0:
256,192,186871,1,8,0:0:0:0:
256,192,186957,1,0,0:0:0:0:
256,192,187130,1,0,0:0:0:0:
256,192,187302,1,8,0:0:0:0:
256,192,187474,1,8,0:0:0:0:
256,192,187647,1,4,0:0:0:0:
256,192,187906,1,0,0:0:0:0:
256,192,187992,1,8,0:0:0:0:
256,192,188164,1,0,0:0:0:0:
256,192,188250,1,0,0:0:0:0:
256,192,188337,1,8,0:0:0:0:
256,192,188509,1,0,0:0:0:0:
256,192,188681,1,8,0:0:0:0:
256,192,188768,1,0,0:0:0:0:
256,192,188854,1,0,0:0:0:0:
256,192,188940,1,8,0:0:0:0:
256,192,189026,1,0,0:0:0:0:
256,192,189285,1,0,0:0:0:0:
256,192,189371,1,8,0:0:0:0:
256,192,189543,1,8,0:0:0:0:
256,192,189630,1,0,0:0:0:0:
256,192,189716,1,8,0:0:0:0:
256,192,189888,1,0,0:0:0:0:
256,192,190061,1,8,0:0:0:0:
256,192,190147,1,8,0:0:0:0:
256,192,190233,1,0,0:0:0:0:
256,192,190319,1,8,0:0:0:0:
256,192,190406,1,0,0:0:0:0:
256,192,190664,1,0,0:0:0:0:
256,192,190750,1,8,0:0:0:0:
256,192,190923,1,0,0:0:0:0:
256,192,191009,1,0,0:0:0:0:
256,192,191095,1,8,0:0:0:0:
256,192,191268,1,0,0:0:0:0:
256,192,191440,1,8,0:0:0:0:
256,192,191526,1,0,0:0:0:0:
256,192,191612,1,0,0:0:0:0:
256,192,191699,1,8,0:0:0:0:
256,192,191785,1,0,0:0:0:0:
256,192,192043,1,0,0:0:0:0:
256,192,192130,1,8,0:0:0:0:
256,192,192302,1,8,0:0:0:0:
256,192,192388,1,0,0:0:0:0:
256,192,192474,1,8,0:0:0:0:
256,192,192647,1,0,0:0:0:0:
256,192,192819,1,8,0:0:0:0:
256,192,192906,1,8,0:0:0:0:
256,192,192992,1,0,0:0:0:0:
256,192,193078,1,0,0:0:0:0:
256,192,193164,1,0,0:0:0:0:
256,192,193423,1,0,0:0:0:0:
256,192,193509,1,8,0:0:0:0:
256,192,193681,1,0,0:0:0:0:
256,192,193768,1,0,0:0:0:0:
256,192,193854,1,8,0:0:0:0:
256,192,194026,1,0,0:0:0:0:
256,192,194199,1,8,0:0:0:0:
256,192,194285,1,0,0:0:0:0:
256,192,194371,1,0,0:0:0:0:
256,192,194457,1,8,0:0:0:0:
256,192,194543,1,0,0:0:0:0:
256,192,194802,1,0,0:0:0:0:
256,192,194888,1,8,0:0:0:0:
256,192,195061,1,8,0:0:0:0:
256,192,195147,1,0,0:0:0:0:
256,192,195233,1,8,0:0:0:0:
256,192,195406,1,0,0:0:0:0:
256,192,195578,1,8,0:0:0:0:
256,192,195664,1,8,0:0:0:0:
256,192,195750,1,0,0:0:0:0:
256,192,195837,1,8,0:0:0:0:
256,192,195923,1,0,0:0:0:0:
256,192,196181,1,0,0:0:0:0:
256,192,196268,1,8,0:0:0:0:
256,192,196440,1,0,0:0:0:0:
256,192,196526,1,0,0:0:0:0:
256,192,196612,1,8,0:0:0:0:
256,192,196785,1,0,0:0:0:0:
256,192,196957,1,8,0:0:0:0:
256,192,197043,1,0,0:0:0:0:
256,192,197130,1,0,0:0:0:0:
256,192,197216,1,8,0:0:0:0:
256,192,197302,1,0,0:0:0:0:
256,192,197561,1,0,0:0:0:0:
256,192,197647,1,8,0:0:0:0:
256,192,197819,1,8,0:0:0:0:
256,192,197906,1,0,0:0:0:0:
256,192,197992,1,8,0:0:0:0:
256,192,198164,1,0,0:0:0:0:
256,192,198337,1,8,0:0:0:0:
256,192,198509,1,8,0:0:0:0:
256,192,198681,1,0,0:0:0:0:
256,192,198940,1,0,0:0:0:0:
256,192,199026,1,8,0:0:0:0:
256,192,199199,1,0,0:0:0:0:
256,192,199285,1,0,0:0:0:0:
256,192,199371,1,8,0:0:0:0:
256,192,199543,1,0,0:0:0:0:
256,192,199716,1,8,0:0:0:0:
256,192,199802,1,0,0:0:0:0:
256,192,199888,1,0,0:0:0:0:
256,192,199974,1,8,0:0:0:0:
256,192,200061,1,0,0:0:0:0:
256,192,200319,1,0,0:0:0:0:
256,192,200406,1,8,0:0:0:0:
256,192,200578,1,8,0:0:0:0:
256,192,200664,1,0,0:0:0:0:
256,192,200750,1,8,0:0:0:0:
256,192,200923,1,0,0:0:0:0:
256,192,201095,1,8,0:0:0:0:
256,192,201181,1,8,0:0:0:0:
256,192,201268,1,0,0:0:0:0:
256,192,201354,1,8,0:0:0:0:
256,192,201440,1,0,0:0:0:0:
256,192,201699,1,0,0:0:0:0:
256,192,201785,1,8,0:0:0:0:
256,192,201957,1,0,0:0:0:0:
256,192,202043,1,0,0:0:0:0:
256,192,202130,1,8,0:0:0:0:
256,192,202302,1,0,0:0:0:0:
256,192,202474,1,8,0:0:0:0:
256,192,202561,1,0,0:0:0:0:
256,192,202647,1,0,0:0:0:0:
256,192,202733,1,8,0:0:0:0:
256,192,202819,1,0,0:0:0:0:
256,192,203078,1,0,0:0:0:0:
256,192,203164,1,8,0:0:0:0:
256,192,203337,1,8,0:0:0:0:
256,192,203423,1,0,0:0:0:0:
256,192,203509,1,8,0:0:0:0:
256,192,203681,1,0,0:0:0:0:
256,192,203854,1,8,0:0:0:0:
256,192,204199,1,0,0:0:0:0:
256,192,204242,1,0,0:0:0:0:
256,192,204371,1,0,0:0:0:0:
256,192,204414,1,0,0:0:0:0:
256,192,204543,1,8,0:0:0:0:
256,192,204601,1,8,0:0:0:0:
256,192,204658,1,8,0:0:0:0:
256,192,204716,1,0,0:0:0:0:
256,192,204802,1,0,0:0:0:0:
256,192,204888,1,8,0:0:0:0:
256,192,204974,1,0,0:0:0:0:
256,192,205061,1,8,0:0:0:0:
256,192,205147,1,8,0:0:0:0:
256,192,205233,1,0,0:0:0:0:
256,192,205291,1,8,0:0:0:0:
256,192,205348,1,8,0:0:0:0:
256,192,205406,1,0,0:0:0:0:
256,192,205492,1,0,0:0:0:0:
256,192,205578,1,8,0:0:0:0:
256,192,205621,1,8,0:0:0:0:
256,192,205750,1,0,0:0:0:0:
256,192,205793,1,0,0:0:0:0:
256,192,205923,1,8,0:0:0:0:
256,192,205980,1,0,0:0:0:0:
256,192,206038,1,0,0:0:0:0:
256,192,206095,1,8,0:0:0:0:
256,192,206181,1,8,0:0:0:0:
256,192,206268,1,0,0:0:0:0:
256,192,206354,1,8,0:0:0:0:
256,192,206440,1,0,0:0:0:0:
256,192,206526,1,0,0:0:0:0:
256,192,206612,1,8,0:0:0:0:
256,192,206670,1,8,0:0:0:0:
256,192,206727,1,8,0:0:0:0:
256,192,206785,1,0,0:0:0:0:
256,192,206871,1,0,0:0:0:0:
256,192,206957,1,8,0:0:0:0:
256,192,207000,1,8,0:0:0:0:
256,192,207130,1,0,0:0:0:0:
256,192,207173,1,0,0:0:0:0:
256,192,207302,1,8,0:0:0:0:
256,192,207360,1,0,0:0:0:0:
256,192,207417,1,0,0:0:0:0:
256,192,207474,1,8,0:0:0:0:
256,192,207561,1,0,0:0:0:0:
256,192,207647,1,8,0:0:0:0:
256,192,207733,1,8,0:0:0:0:
256,192,207819,1,0,0:0:0:0:
256,192,207906,1,0,0:0:0:0:
256,192,207992,1,8,0:0:0:0:
256,192,208049,1,8,0:0:0:0:
256,192,208107,1,8,0:0:0:0:
256,192,208164,1,0,0:0:0:0:
256,192,208250,1,0,0:0:0:0:
256,192,208337,1,8,0:0:0:0:
256,192,208380,1,8,0:0:0:0:
256,192,208509,1,0,0:0:0:0:
256,192,208566,1,8,0:0:0:0:
256,192,208624,1,8,0:0:0:0:
256,192,208681,1,0,0:0:0:0:
256,192,208768,1,8,0:0:0:0:
256,192,208811,1,8,0:0:0:0:
256,192,208854,1,0,0:0:0:0:
256,192,208940,1,0,0:0:0:0:
256,192,209026,1,8,0:0:0:0:
256,192,209084,1,8,0:0:0:0:
256,192,209141,1,8,0:0:0:0:
256,192,209199,1,0,0:0:0:0:
256,192,209285,1,0,0:0:0:0:
256,192,209371,1,8,0:0:0:0:
256,192,209428,1,0,0:0:0:0:
256,192,209486,1,0,0:0:0:0:
256,192,209543,1,8,0:0:0:0:
256,192,209630,1,8,0:0:0:0:
256,192,209716,1,0,0:0:0:0:
256,192,209759,1,0,0:0:0:0:
256,192,209888,1,0,0:0:0:0:
256,192,209931,1,0,0:0:0:0:
256,192,210061,1,8,0:0:0:0:
256,192,210118,1,8,0:0:0:0:
256,192,210176,1,8,0:0:0:0:
256,192,210233,1,0,0:0:0:0:
256,192,210319,1,0,0:0:0:0:
256,192,210406,1,8,0:0:0:0:
256,192,210492,1,0,0:0:0:0:
256,192,210578,1,8,0:0:0:0:
256,192,210664,1,8,0:0:0:0:
256,192,210750,1,0,0:0:0:0:
256,192,210808,1,8,0:0:0:0:
256,192,210865,1,8,0:0:0:0:
256,192,210923,1,0,0:0:0:0:
256,192,211009,1,0,0:0:0:0:
256,192,211095,1,8,0:0:0:0:
256,192,211138,1,8,0:0:0:0:
256,192,211268,1,0,0:0:0:0:
256,192,211311,1,0,0:0:0:0:
256,192,211440,1,8,0:0:0:0:
256,192,211497,1,0,0:0:0:0:
256,192,211555,1,0,0:0:0:0:
256,192,211612,1,8,0:0:0:0:
256,192,211699,1,8,0:0:0:0:
256,192,211785,1,0,0:0:0:0:
256,192,211871,1,8,0:0:0:0:
256,192,211957,1,0,0:0:0:0:
256,192,212043,1,0,0:0:0:0:
256,192,212130,1,8,0:0:0:0:
256,192,212187,1,8,0:0:0:0:
256,192,212245,1,8,0:0:0:0:
256,192,212302,1,0,0:0:0:0:
256,192,212388,1,0,0:0:0:0:
256,192,212474,1,8,0:0:0:0:
256,192,212518,1,8,0:0:0:0:
256,192,212647,1,0,0:0:0:0:
256,192,212690,1,0,0:0:0:0:
256,192,212819,1,8,0:0:0:0:
256,192,212877,1,0,0:0:0:0:
256,192,212934,1,0,0:0:0:0:
256,192,212992,1,8,0:0:0:0:
256,192,213078,1,0,0:0:0:0:
256,192,213164,1,8,0:0:0:0:
256,192,213250,1,8,0:0:0:0:
256,192,213337,1,0,0:0:0:0:
256,192,213423,1,0,0:0:0:0:
256,192,213509,1,8,0:0:0:0:
256,192,213566,1,8,0:0:0:0:
256,192,213624,1,8,0:0:0:0:
256,192,213681,1,0,0:0:0:0:
256,192,213768,1,0,0:0:0:0:
256,192,213854,1,8,0:0:0:0:
256,192,213897,1,8,0:0:0:0:
256,192,214026,1,0,0:0:0:0:
256,192,214084,1,8,0:0:0:0:
256,192,214141,1,8,0:0:0:0:
256,192,214199,1,0,0:0:0:0:
256,192,214285,1,8,0:0:0:0:
256,192,214328,1,8,0:0:0:0:
256,192,214371,1,0,0:0:0:0:
256,192,214457,1,0,0:0:0:0:
256,192,214543,1,8,0:0:0:0:
256,192,214716,1,0,0:0:0:0:
256,192,214802,1,0,0:0:0:0:
256,192,214888,1,8,0:0:0:0:
256,192,214974,1,0,0:0:0:0:
256,192,215061,1,8,0:0:0:0:
256,192,215233,1,0,0:0:0:0:
256,192,215319,1,0,0:0:0:0:
256,192,215406,1,0,0:0:0:0:
256,192,215492,1,0,0:0:0:0:
256,192,215578,1,8,0:0:0:0:
256,192,215635,1,8,0:0:0:0:
256,192,215693,1,0,0:0:0:0:
256,192,215750,1,0,0:0:0:0:
256,192,215837,1,8,0:0:0:0:
256,192,215894,1,8,0:0:0:0:
256,192,215951,1,0,0:0:0:0:
256,192,216009,1,0,0:0:0:0:
256,192,216095,1,8,0:0:0:0:
256,192,216181,1,8,0:0:0:0:
256,192,216268,1,0,0:0:0:0:
256,192,216325,1,8,0:0:0:0:
256,192,216383,1,8,0:0:0:0:
256,192,216440,1,0,0:0:0:0:
256,192,216612,1,8,0:0:0:0:
256,192,216699,1,8,0:0:0:0:
256,192,216785,1,8,0:0:0:0:
256,192,216871,1,8,0:0:0:0:
256,192,216957,1,0,0:0:0:0:
256,192,217015,1,0,0:0:0:0:
256,192,217072,1,8,0:0:0:0:
256,192,217130,1,8,0:0:0:0:
256,192,217216,1,0,0:0:0:0:
256,192,217273,1,0,0:0:0:0:
256,192,217331,1,8,0:0:0:0:
256,192,217388,1,8,0:0:0:0:
256,192,217474,1,0,0:0:0:0:
256,192,217561,1,0,0:0:0:0:
256,192,217647,1,8,0:0:0:0:
256,192,217704,1,0,0:0:0:0:
256,192,217762,1,0,0:0:0:0:
256,192,217819,1,8,0:0:0:0:
256,192,217906,1,8,0:0:0:0:
256,192,217992,1,0,0:0:0:0:
256,192,218164,1,0,0:0:0:0:
256,192,218250,1,0,0:0:0:0:
256,192,218337,1,8,0:0:0:0:
256,192,218394,1,0,0:0:0:0:
256,192,218451,1,0,0:0:0:0:
256,192,218509,1,8,0:0:0:0:
256,192,218595,1,8,0:0:0:0:
256,192,218681,1,0,0:0:0:0:
256,192,218768,1,0,0:0:0:0:
256,192,218854,1,8,0:0:0:0:
256,192,218940,1,0,0:0:0:0:
256,192,219026,1,8,0:0:0:0:
256,192,219084,1,8,0:0:0:0:
256,192,219141,1,8,0:0:0:0:
256,192,219199,1,0,0:0:0:0:
256,192,219285,1,0,0:0:0:0:
256,192,219371,1,8,0:0:0:0:
256,192,219428,1,8,0:0:0:0:
256,192,219486,1,0,0:0:0:0:
256,192,219543,1,0,0:0:0:0:
256,192,219630,1,8,0:0:0:0:
256,192,219687,1,8,0:0:0:0:
256,192,219745,1,0,0:0:0:0:
256,192,219802,1,0,0:0:0:0:
256,192,219888,1,8,0:0:0:0:
256,192,219946,1,0,0:0:0:0:
256,192,220003,1,0,0:0:0:0:
256,192,220061,1,8,0:0:0:0:
256,192,220147,1,0,0:0:0:0:
256,192,220233,1,0,0:0:0:0:
256,192,220319,1,8,0:0:0:0:
256,192,220406,1,8,0:0:0:0:
256,192,220578,1,8,0:0:0:0:
256,192,220664,1,8,0:0:0:0:
256,192,220750,1,0,0:0:0:0:
256,192,220837,1,0,0:0:0:0:
256,192,220923,1,0,0:0:0:0:
256,192,221009,1,0,0:0:0:0:
256,192,221095,1,8,0:0:0:0:
256,192,221153,1,8,0:0:0:0:
256,192,221210,1,0,0:0:0:0:
256,192,221268,1,0,0:0:0:0:
256,192,221354,1,8,0:0:0:0:
256,192,221411,1,8,0:0:0:0:
256,192,221469,1,0,0:0:0:0:
256,192,221526,1,0,0:0:0:0:
256,192,221612,1,8,0:0:0:0:
256,192,221699,1,8,0:0:0:0:
256,192,221785,1,0,0:0:0:0:
256,192,221842,1,8,0:0:0:0:
256,192,221900,1,8,0:0:0:0:
256,192,221957,1,0,0:0:0:0:
256,192,222130,1,8,0:0:0:0:
256,192,222216,1,8,0:0:0:0:
256,192,222302,1,8,0:0:0:0:
256,192,222388,1,8,0:0:0:0:
256,192,222474,1,0,0:0:0:0:
256,192,222532,1,0,0:0:0:0:
256,192,222589,1,8,0:0:0:0:
256,192,222647,1,8,0:0:0:0:
256,192,222733,1,0,0:0:0:0:
256,192,222791,1,0,0:0:0:0:
256,192,222848,1,8,0:0:0:0:
256,192,222906,1,8,0:0:0:0:
256,192,222992,1,0,0:0:0:0:
256,192,223078,1,0,0:0:0:0:
256,192,223164,1,8,0:0:0:0:
256,192,223222,1,0,0:0:0:0:
256,192,223279,1,0,0:0:0:0:
256,192,223337,1,8,0:0:0:0:
256,192,223423,1,8,0:0:0:0:
256,192,223509,1,0,0:0:0:0:
256,192,223681,1,0,0:0:0:0:
256,192,223768,1,0,0:0:0:0:
256,192,223854,1,8,0:0:0:0:
256,192,223911,1,0,0:0:0:0:
256,192,223969,1,0,0:0:0:0:
256,192,224026,1,8,0:0:0:0:
256,192,224112,1,8,0:0:0:0:
256,192,224199,1,0,0:0:0:0:
256,192,224285,1,0,0:0:0:0:
256,192,224371,1,8,0:0:0:0:
256,192,224457,1,0,0:0:0:0:
256,192,224543,1,8,0:0:0:0:
256,192,224601,1,8,0:0:0:0:
256,192,224658,1,8,0:0:0:0:
256,192,224716,1,0,0:0:0:0:
256,192,224802,1,0,0:0:0:0:
256,192,224888,1,8,0:0:0:0:
256,192,224946,1,8,0:0:0:0:
256,192,225003,1,0,0:0:0:0:
256,192,225061,1,0,0:0:0:0:
256,192,225147,1,8,0:0:0:0:
256,192,225204,1,8,0:0:0:0:
256,192,225262,1,0,0:0:0:0:
256,192,225319,1,0,0:0:0:0:
256,192,225406,1,8,0:0:0:0:
256,192,225463,1,0,0:0:0:0:
256,192,225520,1,0,0:0:0:0:
256,192,225578,1,8,0:0:0:0:
256,192,225664,1,0,0:0:0:0:
256,192,225750,1,0,0:0:0:0:
256,192,225837,1,8,0:0:0:0:
256,192,225923,1,8,0:0:0:0:
256,192,226009,1,0,0:0:0:0:
256,192,226095,1,8,0:0:0:0:
256,192,226181,1,8,0:0:0:0:
256,192,226268,1,0,0:0:0:0:
256,192,226612,1,8,0:0:0:0:
256,192,226785,1,0,0:0:0:0:
256,192,226871,1,8,0:0:0:0:
256,192,226957,1,0,0:0:0:0:
256,192,227043,1,0,0:0:0:0:
256,192,227130,1,8,0:0:0:0:
256,192,227302,1,0,0:0:0:0:
256,192,227388,1,8,0:0:0:0:
256,192,227474,1,0,0:0:0:0:
256,192,227647,1,8,0:0:0:0:
256,192,227819,1,8,0:0:0:0:
256,192,227906,1,8,0:0:0:0:
256,192,227992,1,0,0:0:0:0:
256,192,228164,1,8,0:0:0:0:
256,192,228250,1,0,0:0:0:0:
256,192,228337,1,0,0:0:0:0:
256,192,228423,1,8,0:0:0:0:
256,192,228509,1,0,0:0:0:0:
256,192,228681,1,8,0:0:0:0:
256,192,228854,1,8,0:0:0:0:
256,192,228940,1,8,0:0:0:0:
256,192,229026,1,0,0:0:0:0:
256,192,229199,1,0,0:0:0:0:
256,192,229285,1,0,0:0:0:0:
256,192,229371,1,8,0:0:0:0:
256,192,229457,1,8,0:0:0:0:
256,192,229630,1,8,0:0:0:0:
256,192,229716,1,0,0:0:0:0:
256,192,229888,1,8,0:0:0:0:
256,192,229974,1,0,0:0:0:0:
256,192,230061,1,8,0:0:0:0:
256,192,230233,1,0,0:0:0:0:
256,192,230319,1,0,0:0:0:0:
256,192,230406,1,8,0:0:0:0:
256,192,230578,1,0,0:0:0:0:
256,192,230664,1,8,0:0:0:0:
256,192,230750,1,0,0:0:0:0:
256,192,230837,1,0,0:0:0:0:
256,192,230923,1,8,0:0:0:0:
256,192,231009,1,0,0:0:0:0:
256,192,231095,1,8,0:0:0:0:
256,192,231268,1,0,0:0:0:0:
256,192,231354,1,8,0:0:0:0:
256,192,231440,1,8,0:0:0:0:
256,192,231612,1,8,0:0:0:0:
256,192,231785,1,0,0:0:0:0:
256,192,231957,1,0,0:0:0:0:
256,192,232043,1,0,0:0:0:0:
256,192,232130,1,8,0:0:0:0:
256,192,232302,1,0,0:0:0:0:
256,192,232388,1,8,0:0:0:0:
256,192,232474,1,0,0:0:0:0:
256,192,232561,1,0,0:0:0:0:
256,192,232647,1,8,0:0:0:0:
256,192,232819,1,0,0:0:0:0:
256,192,232906,1,8,0:0:0:0:
256,192,232992,1,0,0:0:0:0:
256,192,233164,1,8,0:0:0:0:
256,192,233337,1,8,0:0:0:0:
256,192,233423,1,8,0:0:0:0:
256,192,233509,1,0,0:0:0:0:
256,192,233681,1,8,0:0:0:0:
256,192,233768,1,0,0:0:0:0:
256,192,233854,1,0,0:0:0:0:
256,192,233940,1,8,0:0:0:0:
256,192,234026,1,0,0:0:0:0:
256,192,234199,1,8,0:0:0:0:
256,192,234371,1,8,0:0:0:0:
256,192,234457,1,8,0:0:0:0:
256,192,234543,1,0,0:0:0:0:
256,192,234716,1,0,0:0:0:0:
256,192,234888,1,8,0:0:0:0:
256,192,234974,1,8,0:0:0:0:
256,192,235061,1,8,0:0:0:0:
256,192,235147,1,0,0:0:0:0:
256,192,235233,1,8,0:0:0:0:
256,192,235406,1,0,0:0:0:0:
256,192,235578,1,8,0:0:0:0:
256,192,235664,1,8,0:0:0:0:
256,192,235750,1,0,0:0:0:0:
256,192,235837,1,0,0:0:0:0:
256,192,235923,1,8,0:0:0:0:
256,192,236095,1,0,0:0:0:0:
256,192,236181,1,8,0:0:0:0:
256,192,236268,1,0,0:0:0:0:
256,192,236354,1,8,0:0:0:0:
256,192,236440,1,0,0:0:0:0:
256,192,236526,1,0,0:0:0:0:
256,192,236612,1,8,0:0:0:0:
256,192,236785,1,0,0:0:0:0:
256,192,236957,1,8,0:0:0:0:
256,192,237043,1,8,0:0:0:0:
256,192,237130,1,0,0:0:0:0:
256,192,237302,8,0,240061,0:0:0:0:
