osu file format v14

[General]
AudioFilename: audio.mp3
AudioLeadIn: 0
PreviewTime: 147639
Countdown: 0
SampleSet: Soft
StackLeniency: 0.7
Mode: 3
LetterboxInBreaks: 0
EpilepsyWarning: 1
SpecialStyle: 0
WidescreenStoryboard: 1

[Editor]
Bookmarks: 973,6306,11639,16973,22306,27639,30306,40973,51639,56973,62306,68973,74306,79639,84973,90306,95639,100973,106306,108973,114306,119639,130306,135639,140973,144973,147639,151639,155639,158306,163639,168973,172806,178306,183639,188973,191639,195639,196973,202306,204973,207639,211639,216306,218306,222139
DistanceSpacing: 1.3
BeatDivisor: 4
GridSize: 32
TimelineZoom: 2.799999

[Metadata]
Title:DOKIDOKI Rhythm
TitleUnicode:DOKIDOKIリズム
Artist:Jougasaki Rika (CV: Yamamoto Nozomi)
ArtistUnicode:城ヶ崎莉嘉 (CV: 山本希望)
Creator:chocomilku-
Version:Hard~
Source:アイドルマスター シンデレラガールズ
Tags:ML-ysg THE iDOLM@STER Cinderella Girls Starlight Stage スターライトステージ im@s imas Heartbeat 佐藤貴文 Takafumi Sato NBGI COCC-16579 COCX-39035 Bandai Namco Studios Entertainment バンダイナムコエンタータインメント Cygames A-1 Pictures Columbia ANIMATION PROJECT 005 ST@RTER BEST starter MASTER female vocal japanese video game jpop j-pop pop anime anisong デレマス deremasu デレステ deresute 346PRO 346 Production 346プロ Mishiro Pro Jōgasaki Jogasaki 城ヶ崎美嘉 Mika
BeatmapID:3315180
BeatmapSetID:1619724

[Difficulty]
HPDrainRate:7.5
CircleSize:4
OverallDifficulty:7
ApproachRate:5
SliderMultiplier:1.4
SliderTickRate:1

[Events]
//Background and Video events
0,0,"BG-Hard.jpg",0,0
//Break Periods
//Storyboard Layer 0 (Background)
Sprite,Background,Centre,"BG-Hard.jpg",0,0 S,29,473,639,0.4335938,0.5835938 R,29,473,639,0,0.4363323 F,0,473,973,1 S,13,639,861,0.5835938,0.9335938 R,13,639,861,0.4363323,1.134464 S,4,861,973,0.9335938,0.5335938 R,4,861,973,1.134464,0 M,17,973,2306,320,240,324.5249,246.3465 R,17,973,2306,0,0.009355756 S,4,973,3639,0.5335938,0.4335938 F,0,973,30306,1 M,17,2306,3639,324.5249,246.3465,321.1632,234.1207 R,17,2306,3639,0.009355756,0.002055467 M,17,3639,4972,321.1632,234.1207,328.1205,238.8436 R,17,3639,4972,0.002055467,0.01666963 M,17,4972,6305,328.1205,238.8436,315.4741,235.8381 R,17,4972,6305,0.01666963,-0.001140932 M,17,6305,7638,315.4741,235.8381,322.6532,239.3902 R,17,6305,7638,-0.001140932,0.01683025 M,17,7638,8971,322.6532,239.3902,310.6073,247.2474 R,17,7638,8971,0.01683025,0.01729088 M,17,8971,10304,310.6073,247.2474,323.5436,236.2918 R,17,8971,10304,0.01729088,0.01106217 M,17,10304,11637,323.5436,236.2918,326.961,249.838 R,17,10304,11637,0.01106217,-0.01631446 M,17,11637,12970,326.961,249.838,323.9988,240.5257 R,17,11637,12970,-0.01631446,0.01515011 M,17,12970,14303,323.9988,240.5257,323.7524,240.9363 R,17,12970,14303,0.01515011,-0.01462202 M,17,14303,15636,323.7524,240.9363,313.7425,239.0665 R,17,14303,15636,-0.01462202,-0.007080038 M,17,15636,16969,313.7425,239.0665,329.7709,242.8539 R,17,15636,16969,-0.007080038,0.009179161 M,17,16969,18302,329.7709,242.8539,310.6079,237.6201 R,17,16969,18302,0.009179161,-0.005475382 M,17,18302,19635,310.6079,237.6201,329.1491,240.1026 R,17,18302,19635,-0.005475382,0.007538863 M,17,19635,20968,329.1491,240.1026,312.3792,235.469 R,17,19635,20968,0.007538863,0.0142104 M,17,20968,22301,312.3792,235.469,325.8953,236.7432 R,17,20968,22301,0.0142104,-0.001493695 S,3,22139,22306,0.4335938,0.6335937 M,17,22301,23634,325.8953,236.7432,312.9365,234.4263 R,17,22301,23634,-0.001493695,-0.003139035 S,4,22306,22806,0.6335937,0.4335938 M,17,23634,24967,312.9365,234.4263,324.3745,242.3966 R,17,23634,24967,-0.003139035,-0.0004199942 M,17,24967,26300,324.3745,242.3966,313.8983,247.5638 R,17,24967,26300,-0.0004199942,0.01135941 S,3,26139,26306,0.4335938,0.6335937 M,17,26300,27633,313.8983,247.5638,324.7079,247.1644 R,17,26300,27633,0.01135941,0.006274424 S,4,26306,26806,0.6335937,0.4335938 M,17,27633,28966,324.7079,247.1644,322.4973,234.3681 R,17,27633,28966,0.006274424,0.01380075 M,17,28966,30299,322.4973,234.3681,327.9288,231.7316 R,17,28966,30299,0.01380075,0.01181864
Sprite,Background,Centre,"SB\sprites\extra\xt-rika (7).jpg",0,0 S,0,30306,,0.7671875 M,17,30306,31639,320,240,313.4029,242.8823 R,17,30306,31639,0,0.01140798 F,0,30306,40973,1 M,17,31639,32972,313.4029,242.8823,314.3838,249.9995 R,17,31639,32972,0.01140798,-0.0006504616 M,17,32972,34305,314.3838,249.9995,323.0441,244.3945 R,17,32972,34305,-0.0006504616,0.01080228 M,17,34305,35638,323.0441,244.3945,312.0187,244.5819 R,17,34305,35638,0.01080228,0.007625367 M,17,35638,36971,312.0187,244.5819,312.5106,248.1035 R,17,35638,36971,0.007625367,-0.01085163 M,17,36971,38304,312.5106,248.1035,319.5362,240.8159 R,17,36971,38304,-0.01085163,-0.006091175 M,17,38304,39637,319.5362,240.8159,323.4207,239.368 R,17,38304,39637,-0.006091175,0.01164124 M,17,39637,40970,323.4207,239.368,326.1841,245.8726 R,17,39637,40970,0.01164124,0.009233001
Sprite,Background,Centre,"SB\sprites\extra\xt-rika (1).jpg",0,0 S,0,40973,,0.4335938 M,17,40973,42306,320,240,328.7508,235.8999 R,17,40973,42306,0,0.000795357 F,0,40973,51639,1 M,17,42306,43639,328.7508,235.8999,323.2679,236.6518 R,17,42306,43639,0.000795357,-0.007444791 M,17,43639,44972,323.2679,236.6518,326.4122,234.4504 R,17,43639,44972,-0.007444791,-0.01093024 M,17,44972,46305,326.4122,234.4504,311.3704,242.4925 R,17,44972,46305,-0.01093024,0.006738544 M,17,46305,47638,311.3704,242.4925,322.6079,248.5527 R,17,46305,47638,0.006738544,-0.009726997 M,17,47638,48971,322.6079,248.5527,328.5742,231.3304 R,17,47638,48971,-0.009726997,0.01396627 M,17,48971,50304,328.5742,231.3304,323.5701,231.8796 R,17,48971,50304,0.01396627,-0.01224881 M,17,50304,51637,323.5701,231.8796,312.1394,242.1974 R,17,50304,51637,-0.01224881,0.01581418
Sprite,Background,Centre,"SB\sprites\extra\xt-rika (8).jpg",0,0 F,0,51472,51639,0,1 S,0,51639,,0.6503906 M,17,51639,56306,550,300,500,300 F,0,51639,56973,1 M,17,56306,56806,500,300,320,240 S,4,56306,56806,0.6503906,0.4335938
Sprite,Background,Centre,"SB\vig.png",320,240 F,0,51472,51639,0,0.7 S,0,51639,,0.4447917 F,4,56306,56806,0.7,0
Sprite,Background,Centre,"SB\sprites\extra\xt-rika (8).jpg",0,0 S,0,56973,,0.4335938 M,17,56973,58306,320,240,319.625,225.9223 R,17,56973,58306,0,0.01239963 F,0,56973,62306,1 M,17,58306,59639,319.625,225.9223,322.7945,229.0161 R,17,58306,59639,0.01239963,0.00825067 M,17,59639,60972,322.7945,229.0161,300.2033,234.4376 R,17,59639,60972,0.00825067,0.02446846 M,17,60972,62305,300.2033,234.4376,302.4923,231.2659 R,17,60972,62305,0.02446846,0.01431002
Sprite,Background,Centre,"SB\white.png",320,240 S,0,61973,,0.3335938 F,17,61973,62306,0,1 F,17,62306,62639,1,0
Sprite,Background,Centre,"BG-Suki_desu.jpg",0,0 F,0,62139,62306,0,1 S,0,62306,,0.6503906 M,17,62306,66306,550,390,500,390 F,0,62306,68473,1 M,17,66306,68306,500,390,320,240 S,4,66306,68306,0.6503906,0.4335938 S,29,68473,68639,0.4335938,0.5835938 R,29,68473,68639,0,0.4363323 F,0,68473,68973,1 S,13,68639,68861,0.5835938,0.9335938 R,13,68639,68861,0.4363323,1.134464 S,4,68861,68973,0.9335938,0.5335938 R,4,68861,68973,1.134464,0 M,17,68973,70306,320,240,338.3432,259.5525 R,17,68973,70306,0,-0.003939664 S,4,68973,71639,0.5335938,0.4335938 F,0,68973,108973,1 M,17,70306,71639,338.3432,259.5525,320.9096,231.213 R,17,70306,71639,-0.003939664,0.0002295502 M,17,71639,72972,320.9096,231.213,321.2632,222.2803 R,17,71639,72972,0.0002295502,-0.007660124 M,17,72972,74305,321.2632,222.2803,319.8431,253.8566 R,17,72972,74305,-0.007660124,0.003949955 S,3,74139,74306,0.4335938,0.6335937 M,17,74305,75638,319.8431,253.8566,304.1664,249.6932 R,17,74305,75638,0.003949955,-0.003425169 S,4,74306,74806,0.6335937,0.4335938 M,17,75638,76971,304.1664,249.6932,337.3357,225.2279 R,17,75638,76971,-0.003425169,0.00696918 M,17,76971,78304,337.3357,225.2279,324.6163,253.2227 R,17,76971,78304,0.00696918,0.006462136 M,17,78304,79637,324.6163,253.2227,322.7897,226.9107 R,17,78304,79637,0.006462136,-0.01101188 M,17,79637,80970,322.7897,226.9107,324.3644,230.0299 R,17,79637,80970,-0.01101188,0.01735258 M,17,80970,82303,324.3644,230.0299,322.7476,222.5375 R,17,80970,82303,0.01735258,-0.008248994 M,17,82303,83636,322.7476,222.5375,333.7024,242.7234 R,17,82303,83636,-0.008248994,0.005096016 M,17,83636,84969,333.7024,242.7234,320.6546,258.8051 R,17,83636,84969,0.005096016,-0.01474073 S,3,84806,84973,0.4335938,0.6335937 M,17,84969,86302,320.6546,258.8051,320.5187,226.2306 R,17,84969,86302,-0.01474073,0.01094855 S,4,84973,85473,0.6335937,0.4335938 M,17,86302,87635,320.5187,226.2306,325.7009,243.0157 R,17,86302,87635,0.01094855,0.001845227 M,17,87635,88968,325.7009,243.0157,326.8996,259.7819 R,17,87635,88968,0.001845227,-0.006924043 M,17,88968,90301,326.8996,259.7819,302.5782,238.6281 R,17,88968,90301,-0.006924043,-0.0005908255 M,17,90301,91634,302.5782,238.6281,308.6523,222.8676 R,17,90301,91634,-0.0005908255,-0.009416376 M,17,91634,92967,308.6523,222.8676,306.0333,237.876 R,17,91634,92967,-0.009416376,-0.001707653 M,17,92967,94300,306.0333,237.876,300.794,235.5535 R,17,92967,94300,-0.001707653,0.01103204 M,17,94300,95633,300.794,235.5535,308.1042,256.5452 R,17,94300,95633,0.01103204,-0.01642086 M,17,95633,96966,308.1042,256.5452,320.3784,258.5156 R,17,95633,96966,-0.01642086,0.0172289 M,17,96966,98299,320.3784,258.5156,300.6748,246.1407 R,17,96966,98299,0.0172289,-0.007737759 M,17,98299,99632,300.6748,246.1407,338.6867,243.5117 R,17,98299,99632,-0.007737759,0.009501633 M,17,99632,100965,338.6867,243.5117,312.9667,236.817 R,17,99632,100965,0.009501633,0.01657829 S,3,100806,100973,0.4335938,0.6335937 M,17,100965,102298,312.9667,236.817,335.44,258.9155 R,17,100965,102298,0.01657829,-0.008546022 S,4,100973,101473,0.6335937,0.4335938 M,17,102298,103631,335.44,258.9155,305.2906,255.8901 R,17,102298,103631,-0.008546022,-0.0112322 M,17,103631,104964,305.2906,255.8901,335.3157,241.7863 R,17,103631,104964,-0.0112322,0.009949956 S,3,104806,104973,0.4335938,0.6335937 M,17,104964,106297,335.3157,241.7863,320.5616,234.0953 R,17,104964,106297,0.009949956,0.01716521 S,4,104973,105473,0.6335937,0.4335938 M,17,106297,107630,320.5616,234.0953,301.3377,247.6691 R,17,106297,107630,0.01716521,-0.0132231 M,17,107630,108963,301.3377,247.6691,307.7964,239.8607 R,17,107630,108963,-0.0132231,0.002837536
Sprite,Background,Centre,"SB\vig.png",320,240 F,0,62139,62306,0,0.7 S,0,62306,,0.4447917 F,4,66306,68306,0.7,0
Sprite,Background,Centre,"SB\sprites\extra\xt-rika (3).jpg",0,0 S,0,108973,,0.7671875 M,17,108973,110306,320,240,315.2333,236.2073 R,17,108973,110306,0,-0.00900115 F,0,108973,119639,1 M,17,110306,111639,315.2333,236.2073,325.6815,232.6612 R,17,110306,111639,-0.00900115,0.003927122 M,17,111639,112972,325.6815,232.6612,321.1858,243.1124 R,17,111639,112972,0.003927122,-0.005549177 M,17,112972,114305,321.1858,243.1124,310.4662,231.9457 R,17,112972,114305,-0.005549177,0.01319157 M,17,114305,115638,310.4662,231.9457,324.2174,247.8428 R,17,114305,115638,0.01319157,0.005280122 M,17,115638,116971,324.2174,247.8428,315.1061,235.2967 R,17,115638,116971,0.005280122,-0.0009071308 M,17,116971,118304,315.1061,235.2967,313.9181,247.7517 R,17,116971,118304,-0.0009071308,-0.0002937539 M,17,118304,119637,313.9181,247.7517,322.7565,236.3942 R,17,118304,119637,-0.0002937539,-0.004573738
Sprite,Background,Centre,"SB\sprites\extra\xt-rika (4).jpg",0,0 S,0,119639,,0.7671875 M,17,119639,120972,320,240,314.8906,249.9084 R,17,119639,120972,0,0.003857393 F,0,119639,130306,1 M,17,120972,122305,314.8906,249.9084,310.0365,249.6685 R,17,120972,122305,0.003857393,0.01611955 M,17,122305,123638,310.0365,249.6685,313.1429,245.4451 R,17,122305,123638,0.01611955,-0.01426717 M,17,123638,124971,313.1429,245.4451,313.8182,231.25 R,17,123638,124971,-0.01426717,-0.0136114 M,17,124971,126304,313.8182,231.25,324.6559,232.0385 R,17,124971,126304,-0.0136114,0.01186221 M,17,126304,127637,324.6559,232.0385,322.8534,241.4595 R,17,126304,127637,0.01186221,-0.009018674 M,17,127637,128970,322.8534,241.4595,326.7439,247.1916 R,17,127637,128970,-0.009018674,-0.001837088 M,17,128970,130303,326.7439,247.1916,328.1427,246.0634 R,17,128970,130303,-0.001837088,-0.001387732
Sprite,Background,Centre,"SB\sprites\extra\xt-rika (6).jpg",0,0 F,0,130139,130306,0,1 S,0,130306,,1.150781 M,17,130306,134972,150,100,200,100 F,0,130306,135639,1 M,17,134972,135472,200,100,320,240 S,4,134972,135472,1.150781,0.7671875
Sprite,Background,Centre,"SB\vig.png",320,240 F,0,130139,130306,0,0.7 S,0,130306,,0.4447917 F,4,134972,135472,0.7,0
Sprite,Background,Centre,"SB\sprites\extra\xt-rika (6).jpg",0,0 S,0,135639,,0.7671875 M,17,135639,136972,320,240,313.6193,251.1254 R,17,135639,136972,0,-0.005103735 F,0,135639,140973,1 M,17,136972,138305,313.6193,251.1254,325.8869,259.9602 R,17,136972,138305,-0.005103735,0.007604901 M,17,138305,139638,325.8869,259.9602,303.5882,244.9536 R,17,138305,139638,0.007604901,0.0342539 M,17,139638,140971,303.5882,244.9536,334.9266,241.5818 R,17,139638,140971,0.0342539,-0.02529755
Sprite,Background,Centre,"SB\white.png",320,240 S,0,140639,,0.3335938 F,17,140639,140972,0,1 F,17,140973,141306,1,0
Sprite,Background,Centre,"BG-Normal.jpg",0,0 F,0,140806,140973,0,1 S,0,140973,,0.6503906 M,17,140973,144973,150,190,200,190 F,0,140973,147139,1 M,17,144973,146972,200,190,320,240 S,4,144973,146972,0.6503906,0.4335938 S,29,147139,147305,0.4335938,0.5835938 R,29,147139,147305,0,0.4363323 F,0,147139,147639,1 S,13,147305,147527,0.5835938,0.9335938 R,13,147305,147527,0.4363323,1.134464 S,4,147527,147639,0.9335938,0.5335938 R,4,147527,147639,1.134464,0 M,17,147639,148972,320,240,300.0799,242.2986 R,17,147639,148972,0,0.006010651 S,4,147639,150305,0.5335938,0.4335938 F,0,147639,172973,1 M,17,148972,150305,300.0799,242.2986,315.1695,254.6467 R,17,148972,150305,0.006010651,-0.006107642 M,17,150305,151638,315.1695,254.6467,331.4654,240.7984 R,17,150305,151638,-0.006107642,0.01150648 M,17,151638,152971,331.4654,240.7984,321.6481,240.9004 R,17,151638,152971,0.01150648,-0.01176669 M,17,152971,154304,321.6481,240.9004,325.3674,242.1294 R,17,152971,154304,-0.01176669,-0.006471332 M,17,154304,155637,325.3674,242.1294,309.998,252.0252 R,17,154304,155637,-0.006471332,-0.001391675 M,17,155637,156970,309.998,252.0252,336.864,233.4959 R,17,155637,156970,-0.001391675,-0.01074242 M,17,156970,158303,336.864,233.4959,306.0105,246.4537 R,17,156970,158303,-0.01074242,-0.01028727 M,17,158303,159636,306.0105,246.4537,321.3959,240.3988 R,17,158303,159636,-0.01028727,0.009538261 M,17,159636,160969,321.3959,240.3988,319.2937,224.0483 R,17,159636,160969,0.009538261,-0.00214111 M,17,160969,162302,319.2937,224.0483,304.7765,254.3853 R,17,160969,162302,-0.00214111,0.002177469 M,17,162302,163635,304.7765,254.3853,328.0875,245.6269 R,17,162302,163635,0.002177469,-0.01691192 S,3,163472,163639,0.4335938,0.6335937 M,17,163635,164968,328.0875,245.6269,322.7776,238.3183 R,17,163635,164968,-0.01691192,0.01722336 S,4,163639,164139,0.6335937,0.4335938 M,17,164968,166301,322.7776,238.3183,304.8937,224.82 R,17,164968,166301,0.01722336,-0.007567456 M,17,166301,167634,304.8937,224.82,325.2243,251.9712 R,17,166301,167634,-0.007567456,-0.008530308 M,17,167634,168967,325.2243,251.9712,310.5594,220.5195 R,17,167634,168967,-0.008530308,-0.00189292 M,17,168967,170300,310.5594,220.5195,311.7729,253.5902 R,17,168967,170300,-0.00189292,0.01128218 M,17,170300,171633,311.7729,253.5902,321.2208,258.0625 R,17,170300,171633,0.01128218,-0.01039704 M,17,171633,172966,321.2208,258.0625,337.8155,254.0694 R,17,171633,172966,-0.01039704,0.01382732
Sprite,Background,Centre,"SB\vig.png",320,240 F,0,140806,140973,0,0.7 S,0,140973,,0.4447917 F,4,144973,146972,0.7,0
Sprite,Background,Centre,"SB\white.png",320,240 S,0,0,,0.3335938 F,17,151472,151639,0,1 F,17,152305,152639,1,0
Sprite,Background,Centre,"SB\white.png",320,240 S,0,172639,,0.3335938 F,17,172639,172972,0,1 F,17,172973,173306,1,0
Sprite,Background,Centre,"SB\sprites\extra\xt-rika (5).jpg",0,0 F,0,172806,172973,0,1 S,0,172973,,1.150781 M,17,172973,177639,400,150,400,200 F,0,172973,178306,1 M,17,177639,178139,400,200,320,240 S,4,177639,178139,1.150781,0.7671875
Sprite,Background,Centre,"SB\vig.png",320,240 F,0,172806,172973,0,0.7 S,0,172973,,0.4447917 F,4,177639,178139,0.7,0
Sprite,Background,Centre,"SB\sprites\extra\xt-rika (5).jpg",0,0 S,0,178306,,0.7671875 M,17,178306,179639,320,240,318.6761,253.7736 R,17,178306,179639,0,-0.01003928 F,0,178306,183639,1 M,17,179639,180972,318.6761,253.7736,322.0711,232.1717 R,17,179639,180972,-0.01003928,-0.005672144 M,17,180972,182305,322.0711,232.1717,315.639,236.8716 R,17,180972,182305,-0.005672144,0.01137101 M,17,182305,183638,315.639,236.8716,324.0212,257.2799 R,17,182305,183638,0.01137101,0.02880219
Sprite,Background,Centre,"SB\white.png",320,240 S,0,183306,,0.3335938 F,17,183306,183639,0,1 F,17,183640,183973,1,0
Sprite,Background,Centre,"SB\sprites\extra\xt-rika (2).jpg",0,0 F,0,183472,183639,0,1 S,0,183639,,0.6503906 M,17,183639,190972,200,200,200,150 F,0,183639,191639,1 M,17,190972,191472,200,150,320,240 S,4,190972,191472,0.6503906,0.4335938
Sprite,Background,Centre,"SB\vig.png",320,240 F,0,183472,183639,0,0.7 S,0,183639,,0.4447917 F,4,190972,191472,0.7,0
Sprite,Background,Centre,"SB\sprites\extra\xt-rika (2).jpg",0,0 S,0,191639,,0.4335938 M,17,191639,192972,320,240,309.955,249.0255 R,17,191639,192972,0,-0.01098347 F,0,191639,196973,1 M,17,192972,194305,309.955,249.0255,318.3359,254.9629 R,17,192972,194305,-0.01098347,-0.01976429 M,17,194305,195638,318.3359,254.9629,340.4522,240.9827 R,17,194305,195638,-0.01976429,0.02527666 M,17,195638,196971,340.4522,240.9827,342.4833,228.5456 R,17,195638,196971,0.02527666,-0.0002107092
Sprite,Background,Centre,"BG-Hard.jpg",0,0 F,0,196973,,1 M,17,196973,198356,320,240,309.6487,221.2813 R,17,196973,198356,0,-0.01665371 S,4,196973,199639,0.5335938,0.4335938 M,17,198356,199739,309.6487,221.2813,326.9271,245.3335 R,17,198356,199739,-0.01665371,0.02848864 M,17,199739,201122,326.9271,245.3335,311.614,255.4081 R,17,199739,201122,0.02848864,0.02017163 S,3,200806,200973,0.4335938,0.6335937 S,4,200973,201473,0.6335937,0.4335938 M,17,201122,202505,311.614,255.4081,297.1631,216.1524 R,17,201122,202505,0.02017163,0.007931969 M,17,202505,203888,297.1631,216.1524,328.2329,244.2339 R,17,202505,203888,0.007931969,0.02207551 M,17,203888,205271,328.2329,244.2339,341.8673,224.378 R,17,203888,205271,0.02207551,-0.008552856 M,17,205271,206654,341.8673,224.378,325.5648,249.8074 R,17,205271,206654,-0.008552856,-0.02925237 M,17,206654,208037,325.5648,249.8074,321.9926,269.7133 R,17,206654,208037,-0.02925237,-0.02378917 M,17,208037,209420,321.9926,269.7133,318.8322,213.8281 R,17,208037,209420,-0.02378917,-0.0242737 M,17,209420,210803,318.8322,213.8281,349.115,212.1806 R,17,209420,210803,-0.0242737,-0.01172289 M,17,210803,212186,349.115,212.1806,292.0437,241.0341 R,17,210803,212186,-0.01172289,0.005126246 M,17,212186,213569,292.0437,241.0341,341.5529,223.4579 R,17,212186,213569,0.005126246,-0.0267894 M,17,213569,214952,341.5529,223.4579,299.438,256.5314 R,17,213569,214952,-0.0267894,0.02324077 M,17,214952,216335,299.438,256.5314,335.2885,224.4178 R,17,214952,216335,0.02324077,-0.02267556 M,17,216335,217718,335.2885,224.4178,297.4174,220.7829 R,17,216335,217718,-0.02267556,0.005443229 M,17,217718,219101,297.4174,220.7829,333.7434,259.7702 R,17,217718,219101,0.005443229,-0.01894074 M,17,219101,220484,333.7434,259.7702,314.0414,212.6753 R,17,219101,220484,-0.01894074,-0.01535745 M,17,220484,221867,314.0414,212.6753,319.0743,231.4152 R,17,220484,221867,-0.01535745,0.00750183 M,17,221867,223250,319.0743,231.4152,314.9595,257.6561 R,17,221867,223250,0.00750183,-0.02144661 M,17,223250,224633,314.9595,257.6561,296.1325,218.0948 R,17,223250,224633,-0.02144661,0.001751659 F,17,224305,224639,1,0
Sprite,Background,Centre,"SB\white.png",320,240 S,0,0,,0.3335938 F,17,211472,211639,0,1 F,17,212305,212639,1,0
//Storyboard Layer 1 (Fail)
//Storyboard Layer 2 (Pass)
//Storyboard Layer 3 (Foreground)
Sprite,Foreground,Centre,"SB\sprites\rika\rika-hard.png",0,0 S,0,22306,,0.8 P,0,22306,,H F,17,22306,22472,0,1 M,19,22306,22639,-50,250,30,250 M,1,22639,26306,30,250,50,250 F,17,26139,26306,1,0
Sprite,Foreground,Centre,"SB\sprites\mini rika\miniRika-hard.png",0,0 F,17,22139,22306,0,1 M,30,22139,22639,525,340,525,240 S,0,22306,,0.5 F,17,26139,26306,1,0
Sprite,Foreground,Centre,"SB\font\credits\creditsBig\0044.png",0,0 F,0,16806,16973,0,1 M,30,16806,17306,23.75,238.5,23.75,192.5 S,0,16973,,0.5 M,1,17306,22306,23.75,192.5,17.08333,192.5 F,0,22139,22306,1,0
Sprite,Foreground,Centre,"SB\font\credits\creditsBig\004f.png",0,0 F,0,16806,16973,0,1 M,30,16806,17306,73.75,228.5,73.75,192.5 S,0,16973,,0.5 M,1,17306,22306,73.75,192.5,67.08334,192.5 F,0,22139,22306,1,0
Sprite,Foreground,Centre,"SB\font\credits\creditsBig\004b.png",0,0 F,0,16806,16973,0,1 M,30,16806,17306,123.75,228.5,123.75,192.5 S,0,16973,,0.5 M,1,17306,22306,123.75,192.5,117.0833,192.5 F,0,22139,22306,1,0
Sprite,Foreground,Centre,"SB\font\credits\creditsBig\0049.png",0,0 F,0,16806,16973,0,1 M,30,16806,17306,173.75,229.5,173.75,192.5 S,0,16973,,0.5 M,1,17306,22306,173.75,192.5,167.0833,192.5 F,0,22139,22306,1,0
Sprite,Foreground,Centre,"SB\font\credits\creditsBig\0044.png",0,0 F,0,16806,16973,0,1 M,30,16806,17306,215.75,238.5,215.75,192.5 S,0,16973,,0.5 M,1,17306,22306,215.75,192.5,209.0833,192.5 F,0,22139,22306,1,0
Sprite,Foreground,Centre,"SB\font\credits\creditsBig\004f.png",0,0 F,0,16806,16973,0,1 M,30,16806,17306,265.75,238.5,265.75,192.5 S,0,16973,,0.5 M,1,17306,22306,265.75,192.5,259.0833,192.5 F,0,22139,22306,1,0
Sprite,Foreground,Centre,"SB\font\credits\creditsBig\004b.png",0,0 F,0,16806,16973,0,1 M,30,16806,17306,315.75,239.5,315.75,192.5 S,0,16973,,0.5 M,1,17306,22306,315.75,192.5,309.0833,192.5 F,0,22139,22306,1,0
Sprite,Foreground,Centre,"SB\font\credits\creditsBig\0049.png",0,0 F,0,16806,16973,0,1 M,30,16806,17306,365.75,226.5,365.75,192.5 S,0,16973,,0.5 M,1,17306,22306,365.75,192.5,359.0833,192.5 F,0,22139,22306,1,0
Sprite,Foreground,Centre,"SB\font\credits\creditsBig\30ea.png",0,0 F,0,16806,16973,0,1 M,30,16806,17306,420.25,229.5,420.25,192.5 S,0,16973,,0.5 M,1,17306,22306,420.25,192.5,413.5833,192.5 F,0,22139,22306,1,0
Sprite,Foreground,Centre,"SB\font\credits\creditsBig\30ba.png",0,0 F,0,16806,16973,0,1 M,30,16806,17306,508,223.5,508,192.5 S,0,16973,,0.5 M,1,17306,22306,508,192.5,501.3333,192.5 F,0,22139,22306,1,0
Sprite,Foreground,Centre,"SB\font\credits\creditsBig\30e0.png",0,0 F,0,16806,16973,0,1 M,30,16806,17306,591.5,224.5,591.5,192.5 S,0,16973,,0.5 M,1,17306,22306,591.5,192.5,584.8333,192.5 F,0,22139,22306,1,0
Sprite,Foreground,Centre,"SB\font\credits\creditsBig\57ce.png",0,0 F,0,16806,16973,0,1 M,30,16806,17306,24.19999,228.95,24.19999,269.95 S,0,16973,,0.3 M,1,17306,22306,24.19999,269.95,30.86666,269.95 F,0,22139,22306,1,0
Sprite,Foreground,Centre,"SB\font\credits\creditsBig\30f6.png",0,0 F,0,16806,16973,0,1 M,30,16806,17306,74.14999,240.45,74.14999,277.45 S,0,16973,,0.3 M,1,17306,22306,74.14999,277.45,80.81666,277.45 F,0,22139,22306,1,0
Sprite,Foreground,Centre,"SB\font\credits\creditsBig\5d0e.png",0,0 F,0,16806,16973,0,1 M,30,16806,17306,124.4,225.95,124.4,269.95 S,0,16973,,0.3 M,1,17306,22306,124.4,269.95,131.0667,269.95 F,0,22139,22306,1,0
Sprite,Foreground,Centre,"SB\font\credits\creditsBig\8389.png",0,0 F,0,16806,16973,0,1 M,30,16806,17306,174.5,225.95,174.5,269.95 S,0,16973,,0.3 M,1,17306,22306,174.5,269.95,181.1667,269.95 F,0,22139,22306,1,0
Sprite,Foreground,Centre,"SB\font\credits\creditsBig\5609.png",0,0 F,0,16806,16973,0,1 M,30,16806,17306,224.6,235.95,224.6,269.95 S,0,16973,,0.3 M,1,17306,22306,224.6,269.95,231.2667,269.95 F,0,22139,22306,1,0
Sprite,Foreground,Centre,"SB\font\credits\creditsBig\0028.png",0,0 F,0,16806,16973,0,1 M,30,16806,17306,289.85,224.5,289.85,272.5 S,0,16973,,0.3 M,1,17306,22306,289.85,272.5,296.5167,272.5 F,0,22139,22306,1,0
Sprite,Foreground,Centre,"SB\font\credits\creditsBig\0043.png",0,0 F,0,16806,16973,0,1 M,30,16806,17306,315.05,241.5,315.05,272.5 S,0,16973,,0.3 M,1,17306,22306,315.05,272.5,321.7167,272.5 F,0,22139,22306,1,0
Sprite,Foreground,Centre,"SB\font\credits\creditsBig\0056.png",0,0 F,0,16806,16973,0,1 M,30,16806,17306,345.05,239.5,345.05,272.5 S,0,16973,,0.3 M,1,17306,22306,345.05,272.5,351.7167,272.5 F,0,22139,22306,1,0
Sprite,Foreground,Centre,"SB\font\credits\creditsBig\003a.png",0,0 F,0,16806,16973,0,1 M,30,16806,17306,374.9,236.5,374.9,272.5 S,0,16973,,0.3 M,1,17306,22306,374.9,272.5,381.5667,272.5 F,0,22139,22306,1,0
Sprite,Foreground,Centre,"SB\font\credits\creditsBig\5c71.png",0,0 F,0,16806,16973,0,1 M,30,16806,17306,435.5,227.95,435.5,269.95 S,0,16973,,0.3 M,1,17306,22306,435.5,269.95,442.1667,269.95 F,0,22139,22306,1,0
Sprite,Foreground,Centre,"SB\font\credits\creditsBig\672c.png",0,0 F,0,16806,16973,0,1 M,30,16806,17306,485.6,221.95,485.6,269.95 S,0,16973,,0.3 M,1,17306,22306,485.6,269.95,492.2667,269.95 F,0,22139,22306,1,0
Sprite,Foreground,Centre,"SB\font\credits\creditsBig\5e0c.png",0,0 F,0,16806,16973,0,1 M,30,16806,17306,535.7001,232.5,535.7001,272.5 S,0,16973,,0.3 M,1,17306,22306,535.7001,272.5,542.3668,272.5 F,0,22139,22306,1,0
Sprite,Foreground,Centre,"SB\font\credits\creditsBig\671b.png",0,0 F,0,16806,16973,0,1 M,30,16806,17306,585.8,230.95,585.8,269.95 S,0,16973,,0.3 M,1,17306,22306,585.8,269.95,592.4667,269.95 F,0,22139,22306,1,0
Sprite,Foreground,Centre,"SB\font\credits\creditsBig\0029.png",0,0 F,0,16806,16973,0,1 M,30,16806,17306,620.9,230.5,620.9,272.5 S,0,16973,,0.3 M,1,17306,22306,620.9,272.5,627.5667,272.5 F,0,22139,22306,1,0
Sprite,Foreground,Centre,"SB\p.png",0,0 F,0,16806,16973,0,1 C,0,16973,,240,233,146 V,17,16973,17473,25,1,750,5 M,19,16973,22306,320,240 R,17,16973,22306,0 V,17,21972,22306,750,5,25,1 F,0,22139,22306,1,0
Sprite,Foreground,Centre,"SB\p.png",0,0 F,0,22139,22306,0,1 C,0,22306,,240,233,146 V,17,22306,22806,25,1,350,5 M,19,22306,26306,525,125 R,17,22306,26306,0 F,0,26139,26306,1,0
Sprite,Foreground,Centre,"SB\p.png",0,0 F,0,22305,22472,0,1 C,0,22472,,240,233,146 V,17,22472,22972,25,1,350,5 M,19,22472,26306,525,355 R,17,22472,26306,0 F,0,26139,26306,1,0
Sprite,Foreground,Centre,"SB\font\credits\creditsNormal\0048.png",0,0 F,0,22139,22306,0,1 M,30,22139,22639,491.1,65,491.1,102 S,0,22306,,0.3 M,1,22639,26306,491.1,102,497.7667,102 F,0,26139,26306,1,0
Sprite,Foreground,Centre,"SB\font\credits\creditsNormal\0061.png",0,0 F,0,22139,22306,0,1 M,30,22139,22639,508.8,64.8,508.8,106.8 S,0,22306,,0.3 M,1,22639,26306,508.8,106.8,515.4667,106.8 F,0,26139,26306,1,0
Sprite,Foreground,Centre,"SB\font\credits\creditsNormal\0072.png",0,0 F,0,22139,22306,0,1 M,30,22139,22639,525,59.8,525,106.8 S,0,22306,,0.3 M,1,22639,26306,525,106.8,531.6667,106.8 F,0,26139,26306,1,0
Sprite,Foreground,Centre,"SB\font\credits\creditsNormal\0064.png",0,0 F,0,22139,22306,0,1 M,30,22139,22639,541.2,61.5,541.2,103.5 S,0,22306,,0.3 M,1,22639,26306,541.2,103.5,547.8667,103.5 F,0,26139,26306,1,0
Sprite,Foreground,Centre,"SB\font\credits\creditsNormal\007e.png",0,0 F,0,22139,22306,0,1 M,30,22139,22639,557.4,58.75,557.4,93.75 S,0,22306,,0.3 M,1,22639,26306,557.4,93.75,564.0667,93.75 F,0,26139,26306,1,0
Sprite,Foreground,Centre,"SB\font\credits\creditsNormal\0063.png",0,0 F,0,22305,22472,0,1 M,30,22305,22805,444.3,288.8,444.3,336.8 S,0,22472,,0.3 M,1,22805,26306,444.3,336.8,450.9667,336.8 F,0,26139,26306,1,0
Sprite,Foreground,Centre,"SB\font\credits\creditsNormal\0068.png",0,0 F,0,22305,22472,0,1 M,30,22305,22805,460.5,285.5,460.5,333.5 S,0,22472,,0.3 M,1,22805,26306,460.5,333.5,467.1667,333.5 F,0,26139,26306,1,0
Sprite,Foreground,Centre,"SB\font\credits\creditsNormal\006f.png",0,0 F,0,22305,22472,0,1 M,30,22305,22805,476.7,294.8,476.7,336.8 S,0,22472,,0.3 M,1,22805,26306,476.7,336.8,483.3667,336.8 F,0,26139,26306,1,0
Sprite,Foreground,Centre,"SB\font\credits\creditsNormal\0063.png",0,0 F,0,22305,22472,0,1 M,30,22305,22805,492.9001,287.8,492.9001,336.8 S,0,22472,,0.3 M,1,22805,26306,492.9001,336.8,499.5667,336.8 F,0,26139,26306,1,0
Sprite,Foreground,Centre,"SB\font\credits\creditsNormal\006f.png",0,0 F,0,22305,22472,0,1 M,30,22305,22805,509.1001,292.8,509.1001,336.8 S,0,22472,,0.3 M,1,22805,26306,509.1001,336.8,515.7667,336.8 F,0,26139,26306,1,0
Sprite,Foreground,Centre,"SB\font\credits\creditsNormal\006d.png",0,0 F,0,22305,22472,0,1 M,30,22305,22805,526.8,295.8,526.8,336.8 S,0,22472,,0.3 M,1,22805,26306,526.8,336.8,533.4667,336.8 F,0,26139,26306,1,0
Sprite,Foreground,Centre,"SB\font\credits\creditsNormal\0069.png",0,0 F,0,22305,22472,0,1 M,30,22305,22805,542.8501,291,542.8501,332 S,0,22472,,0.3 M,1,22805,26306,542.8501,332,549.5168,332 F,0,26139,26306,1,0
Sprite,Foreground,Centre,"SB\font\credits\creditsNormal\006c.png",0,0 F,0,22305,22472,0,1 M,30,22305,22805,555.7501,287.5,555.7501,333.5 S,0,22472,,0.3 M,1,22805,26306,555.7501,333.5,562.4168,333.5 F,0,26139,26306,1,0
Sprite,Foreground,Centre,"SB\font\credits\creditsNormal\006b.png",0,0 F,0,22305,22472,0,1 M,30,22305,22805,570.3001,285.5,570.3001,333.5 S,0,22472,,0.3 M,1,22805,26306,570.3001,333.5,576.9668,333.5 F,0,26139,26306,1,0
Sprite,Foreground,Centre,"SB\font\credits\creditsNormal\0075.png",0,0 F,0,22305,22472,0,1 M,30,22305,22805,586.5001,298.8,586.5001,336.8 S,0,22472,,0.3 M,1,22805,26306,586.5001,336.8,593.1668,336.8 F,0,26139,26306,1,0
Sprite,Foreground,Centre,"SB\font\credits\creditsNormal\002d.png",0,0 F,0,22305,22472,0,1 M,30,22305,22805,602.7001,291.85,602.7001,331.85 S,0,22472,,0.3 M,1,22805,26306,602.7001,331.85,609.3668,331.85 F,0,26139,26306,1,0
Sprite,Foreground,Centre,"SB\font\credits\creditsNormal\0044.png",0,0 F,0,22139,22306,0,1 M,30,22139,22639,476.385,178.8,476.385,141.8 S,0,22306,,0.21 M,1,22639,26306,476.385,141.8,469.7184,141.8 F,0,26139,26306,1,0
Sprite,Foreground,Centre,"SB\font\credits\creditsNormal\0069.png",0,0 F,0,22139,22306,0,1 M,30,22139,22639,487.62,176.8,487.62,141.8 S,0,22306,,0.21 M,1,22639,26306,487.62,141.8,480.9533,141.8 F,0,26139,26306,1,0
Sprite,Foreground,Centre,"SB\font\credits\creditsNormal\0066.png",0,0 F,0,22139,22306,0,1 M,30,22139,22639,497.805,173.85,497.805,142.85 S,0,22306,,0.21 M,1,22639,26306,497.805,142.85,491.1383,142.85 F,0,26139,26306,1,0
Sprite,Foreground,Centre,"SB\font\credits\creditsNormal\0066.png",0,0 F,0,22139,22306,0,1 M,30,22139,22639,509.145,187.85,509.145,142.85 S,0,22306,,0.21 M,1,22639,26306,509.145,142.85,502.4783,142.85 F,0,26139,26306,1,0
Sprite,Foreground,Centre,"SB\font\credits\creditsNormal\0069.png",0,0 F,0,22139,22306,0,1 M,30,22139,22639,519.33,173.8,519.33,141.8 S,0,22306,,0.21 M,1,22639,26306,519.33,141.8,512.6633,141.8 F,0,26139,26306,1,0
Sprite,Foreground,Centre,"SB\font\credits\creditsNormal\0063.png",0,0 F,0,22139,22306,0,1 M,30,22139,22639,529.515,182.16,529.515,145.16 S,0,22306,,0.21 M,1,22639,26306,529.515,145.16,522.8483,145.16 F,0,26139,26306,1,0
Sprite,Foreground,Centre,"SB\font\credits\creditsNormal\0075.png",0,0 F,0,22139,22306,0,1 M,30,22139,22639,540.855,184.16,540.855,145.16 S,0,22306,,0.21 M,1,22639,26306,540.855,145.16,534.1884,145.16 F,0,26139,26306,1,0
Sprite,Foreground,Centre,"SB\font\credits\creditsNormal\006c.png",0,0 F,0,22139,22306,0,1 M,30,22139,22639,551.0401,179.85,551.0401,142.85 S,0,22306,,0.21 M,1,22639,26306,551.0401,142.85,544.3734,142.85 F,0,26139,26306,1,0
Sprite,Foreground,Centre,"SB\font\credits\creditsNormal\0074.png",0,0 F,0,22139,22306,0,1 M,30,22139,22639,561.2251,181.85,561.2251,142.85 S,0,22306,,0.21 M,1,22639,26306,561.2251,142.85,554.5584,142.85 F,0,26139,26306,1,0
Sprite,Foreground,Centre,"SB\font\credits\creditsNormal\0079.png",0,0 F,0,22139,22306,0,1 M,30,22139,22639,572.5651,195.315,572.5651,146.315 S,0,22306,,0.21 M,1,22639,26306,572.5651,146.315,565.8984,146.315 F,0,26139,26306,1,0
Sprite,Foreground,Centre,"SB\font\credits\creditsNormal\004d.png",0,0 F,0,22305,22472,0,1 M,30,22305,22805,390.39,412.8,390.39,371.8 S,0,22472,,0.21 M,1,22805,26306,390.39,371.8,383.7234,371.8 F,0,26139,26306,1,0
Sprite,Foreground,Centre,"SB\font\credits\creditsNormal\0061.png",0,0 F,0,22305,22472,0,1 M,30,22305,22805,402.78,408.16,402.78,375.16 S,0,22472,,0.21 M,1,22805,26306,402.78,375.16,396.1134,375.16 F,0,26139,26306,1,0
Sprite,Foreground,Centre,"SB\font\credits\creditsNormal\0070.png",0,0 F,0,22305,22472,0,1 M,30,22305,22805,414.12,418.21,414.12,376.21 S,0,22472,,0.21 M,1,22805,26306,414.12,376.21,407.4534,376.21 F,0,26139,26306,1,0
Sprite,Foreground,Centre,"SB\font\credits\creditsNormal\0070.png",0,0 F,0,22305,22472,0,1 M,30,22305,22805,425.46,416.21,425.46,376.21 S,0,22472,,0.21 M,1,22805,26306,425.46,376.21,418.7934,376.21 F,0,26139,26306,1,0
Sprite,Foreground,Centre,"SB\font\credits\creditsNormal\0065.png",0,0 F,0,22305,22472,0,1 M,30,22305,22805,436.8,422.16,436.8,375.16 S,0,22472,,0.21 M,1,22805,26306,436.8,375.16,430.1334,375.16 F,0,26139,26306,1,0
Sprite,Foreground,Centre,"SB\font\credits\creditsNormal\0072.png",0,0 F,0,22305,22472,0,1 M,30,22305,22805,448.14,420.16,448.14,375.16 S,0,22472,,0.21 M,1,22805,26306,448.14,375.16,441.4734,375.16 F,0,26139,26306,1,0
Sprite,Foreground,Centre,"SB\font\credits\creditsNormal\002c.png",0,0 F,0,22305,22472,0,1 M,30,22305,22805,459.375,427.775,459.375,381.775 S,0,22472,,0.21 M,1,22805,26306,459.375,381.775,452.7084,381.775 F,0,26139,26306,1,0
Sprite,Foreground,Centre,"SB\font\credits\creditsNormal\0053.png",0,0 F,0,22305,22472,0,1 M,30,22305,22805,483.21,415.8,483.21,371.8 S,0,22472,,0.21 M,1,22805,26306,483.21,371.8,476.5434,371.8 F,0,26139,26306,1,0
Sprite,Foreground,Centre,"SB\font\credits\creditsNormal\0074.png",0,0 F,0,22305,22472,0,1 M,30,22305,22805,495.6,410.85,495.6,372.85 S,0,22472,,0.21 M,1,22805,26306,495.6,372.85,488.9333,372.85 F,0,26139,26306,1,0
Sprite,Foreground,Centre,"SB\font\credits\creditsNormal\006f.png",0,0 F,0,22305,22472,0,1 M,30,22305,22805,506.94,408.16,506.94,375.16 S,0,22472,,0.21 M,1,22805,26306,506.94,375.16,500.2733,375.16 F,0,26139,26306,1,0
Sprite,Foreground,Centre,"SB\font\credits\creditsNormal\0072.png",0,0 F,0,22305,22472,0,1 M,30,22305,22805,518.28,424.16,518.28,375.16 S,0,22472,,0.21 M,1,22805,26306,518.28,375.16,511.6134,375.16 F,0,26139,26306,1,0
Sprite,Foreground,Centre,"SB\font\credits\creditsNormal\0079.png",0,0 F,0,22305,22472,0,1 M,30,22305,22805,529.6201,417.315,529.6201,376.315 S,0,22472,,0.21 M,1,22805,26306,529.6201,376.315,522.9534,376.315 F,0,26139,26306,1,0
Sprite,Foreground,Centre,"SB\font\credits\creditsNormal\0062.png",0,0 F,0,22305,22472,0,1 M,30,22305,22805,540.9601,404.85,540.9601,372.85 S,0,22472,,0.21 M,1,22805,26306,540.9601,372.85,534.2934,372.85 F,0,26139,26306,1,0
Sprite,Foreground,Centre,"SB\font\credits\creditsNormal\006f.png",0,0 F,0,22305,22472,0,1 M,30,22305,22805,552.3001,407.16,552.3001,375.16 S,0,22472,,0.21 M,1,22805,26306,552.3001,375.16,545.6334,375.16 F,0,26139,26306,1,0
Sprite,Foreground,Centre,"SB\font\credits\creditsNormal\0061.png",0,0 F,0,22305,22472,0,1 M,30,22305,22805,563.6401,409.16,563.6401,375.16 S,0,22472,,0.21 M,1,22805,26306,563.6401,375.16,556.9734,375.16 F,0,26139,26306,1,0
Sprite,Foreground,Centre,"SB\font\credits\creditsNormal\0072.png",0,0 F,0,22305,22472,0,1 M,30,22305,22805,574.9802,423.16,574.9802,375.16 S,0,22472,,0.21 M,1,22805,26306,574.9802,375.16,568.3135,375.16 F,0,26139,26306,1,0
Sprite,Foreground,Centre,"SB\font\credits\creditsNormal\0064.png",0,0 F,0,22305,22472,0,1 M,30,22305,22805,586.3202,410.85,586.3202,372.85 S,0,22472,,0.21 M,1,22805,26306,586.3202,372.85,579.6535,372.85 F,0,26139,26306,1,0
Sprite,Foreground,Centre,"SB\font\credits\creditsNormal\0065.png",0,0 F,0,22305,22472,0,1 M,30,22305,22805,597.6602,405.16,597.6602,375.16 S,0,22472,,0.21 M,1,22805,26306,597.6602,375.16,590.9935,375.16 F,0,26139,26306,1,0
Sprite,Foreground,Centre,"SB\font\credits\creditsNormal\0072.png",0,0 F,0,22305,22472,0,1 M,30,22305,22805,609.0002,407.16,609.0002,375.16 S,0,22472,,0.21 M,1,22805,26306,609.0002,375.16,602.3336,375.16 F,0,26139,26306,1,0
Sprite,Foreground,Centre,"SB\font\credits\creditsNormal\002c.png",0,0 F,0,22305,22472,0,1 M,30,22305,22805,620.2353,423.775,620.2353,381.775 S,0,22472,,0.21 M,1,22805,26306,620.2353,381.775,613.5686,381.775 F,0,26139,26306,1,0
Sprite,Foreground,Centre,"SB\font\credits\creditsNormal\0048.png",0,0 F,0,22305,22472,0,1 M,30,22305,22805,644.0703,402.8,644.0703,371.8 S,0,22472,,0.21 M,1,22805,26306,644.0703,371.8,637.4036,371.8 F,0,26139,26306,1,0
Sprite,Foreground,Centre,"SB\font\credits\creditsNormal\0053.png",0,0 F,0,22305,22472,0,1 M,30,22305,22805,657.5103,404.8,657.5103,371.8 S,0,22472,,0.21 M,1,22805,26306,657.5103,371.8,650.8436,371.8 F,0,26139,26306,1,0
Sprite,Foreground,Centre,"SB\sprites\mini rika\miniRika-hard.png",0,0 F,17,34306,34473,0,1 M,30,34306,34806,590,490,590,380 S,0,34473,,0.5 F,17,34639,34789,1,0
Sprite,Foreground,Centre,"SB\sprites\mini rika\miniRika-hard.png",0,0 F,17,34472,34639,0,1 M,30,34472,34972,590,490,590,380 S,0,34639,,0.5 F,17,34806,34956,1,0
Sprite,Foreground,Centre,"SB\sprites\mini rika\miniRika-hard.png",0,0 F,17,34639,34806,0,1 M,30,34639,35139,590,490,590,380 S,0,34806,,0.5 F,17,34973,35123,1,0
Sprite,Foreground,Centre,"SB\sprites\mini rika\miniRika-hard.png",0,0 F,17,34806,34973,0,1 M,30,34806,35306,590,490,590,380 S,0,34973,,0.5 F,17,35139,35289,1,0
Sprite,Foreground,Centre,"SB\sprites\mini rika\miniRika-hard.png",0,0 F,17,34972,35139,0,1 M,30,34972,35472,590,490,590,380 S,0,35139,,0.5 F,17,35306,35456,1,0
Sprite,Foreground,Centre,"SB\sprites\mini rika\miniRika-hard.png",0,0 F,17,35139,35306,0,1 M,30,35139,35639,590,490,590,380 S,0,35306,,0.5 F,17,35473,35623,1,0
Sprite,Foreground,Centre,"SB\sprites\mini rika\miniRika-hard.png",0,0 F,17,35306,35473,0,1 M,30,35306,35806,590,490,590,380 S,0,35473,,0.5 F,17,35639,35789,1,0
Sprite,Foreground,Centre,"SB\sprites\mini rika\miniRika-hard.png",0,0 F,17,53639,53806,0,1 M,30,53639,54139,590,490,590,380 S,0,53806,,0.5 F,17,54139,54289,1,0
Sprite,Foreground,Centre,"SB\sprites\mini rika\miniRika-hard.png",0,0 F,17,112972,113139,0,1 M,30,112972,113472,590,490,590,380 S,0,113139,,0.5 F,17,113306,113456,1,0
Sprite,Foreground,Centre,"SB\sprites\mini rika\miniRika-hard.png",0,0 F,17,113139,113306,0,1 M,30,113139,113639,590,490,590,380 S,0,113306,,0.5 F,17,113473,113623,1,0
Sprite,Foreground,Centre,"SB\sprites\mini rika\miniRika-hard.png",0,0 F,17,113306,113473,0,1 M,30,113306,113806,590,490,590,380 S,0,113473,,0.5 F,17,113639,113789,1,0
Sprite,Foreground,Centre,"SB\sprites\mini rika\miniRika-hard.png",0,0 F,17,113472,113639,0,1 M,30,113472,113972,590,490,590,380 S,0,113639,,0.5 F,17,113806,113956,1,0
Sprite,Foreground,Centre,"SB\sprites\mini rika\miniRika-hard.png",0,0 F,17,113639,113806,0,1 M,30,113639,114139,590,490,590,380 S,0,113806,,0.5 F,17,113973,114123,1,0
Sprite,Foreground,Centre,"SB\sprites\mini rika\miniRika-hard.png",0,0 F,17,113806,113973,0,1 M,30,113806,114306,590,490,590,380 S,0,113973,,0.5 F,17,114139,114289,1,0
Sprite,Foreground,Centre,"SB\sprites\mini rika\miniRika-hard.png",0,0 F,17,113972,114139,0,1 M,30,113972,114472,590,490,590,380 S,0,114139,,0.5 F,17,114306,114456,1,0
Sprite,Foreground,Centre,"SB\sprites\mini rika\miniRika-hard.png",0,0 F,17,132306,132473,0,1 M,30,132306,132806,590,490,590,380 S,0,132473,,0.5 F,17,132806,132956,1,0
Sprite,Foreground,Centre,"SB\sprites\mini rika\miniRika-hard.png",0,0 F,17,5639,5806,0,1 M,30,5639,6139,590,490,590,380 S,0,5806,,0.5 F,17,6306,6456,1,0
Sprite,Foreground,Centre,"SB\sprites\mini rika\miniRika-hard.png",0,0 F,17,10973,11140,0,1 M,30,10973,11473,590,490,590,380 S,0,11140,,0.5 F,17,11640,11790,1,0
Sprite,Foreground,Centre,"SB\sprites\mini rika\miniRika-hard.png",0,0 F,17,73639,73806,0,1 M,30,73639,74139,590,490,590,380 S,0,73806,,0.5 F,17,74306,74456,1,0
Sprite,Foreground,Centre,"SB\sprites\mini rika\miniRika-hard.png",0,0 F,17,78972,79139,0,1 M,30,78972,79472,590,490,590,380 S,0,79139,,0.5 F,17,79639,79789,1,0
Sprite,Foreground,Centre,"SB\sprites\mini rika\miniRika-hard.png",0,0 F,17,84306,84473,0,1 M,30,84306,84806,590,490,590,380 S,0,84473,,0.5 F,17,84973,85123,1,0
Sprite,Foreground,Centre,"SB\sprites\mini rika\miniRika-hard.png",0,0 F,17,89639,89806,0,1 M,30,89639,90139,590,490,590,380 S,0,89806,,0.5 F,17,90306,90456,1,0
Sprite,Foreground,Centre,"SB\sprites\mini rika\miniRika-hard.png",0,0 F,17,152306,152473,0,1 M,30,152306,152806,590,490,590,380 S,0,152473,,0.5 F,17,152973,153123,1,0
Sprite,Foreground,Centre,"SB\sprites\mini rika\miniRika-hard.png",0,0 F,17,157639,157806,0,1 M,30,157639,158139,590,490,590,380 S,0,157806,,0.5 F,17,158306,158456,1,0
Sprite,Foreground,Centre,"SB\sprites\mini rika\miniRika-hard.png",0,0 F,17,162972,163139,0,1 M,30,162972,163472,590,490,590,380 S,0,163139,,0.5 F,17,163639,163789,1,0
Sprite,Foreground,Centre,"SB\sprites\mini rika\miniRika-hard.png",0,0 F,17,168139,168306,0,1 M,30,168139,168639,590,490,590,380 S,0,168306,,0.5 F,17,168973,169123,1,0
Sprite,Foreground,Centre,"SB\sprites\mini rika\miniRika-hard.png",0,0 F,17,201639,201806,0,1 M,30,201639,202139,590,490,590,380 S,0,201806,,0.5 F,17,202306,202456,1,0
Sprite,Foreground,Centre,"SB\sprites\mini rika\miniRika-hard.png",0,0 F,17,206972,207139,0,1 M,30,206972,207472,590,490,590,380 S,0,207139,,0.5 F,17,207639,207789,1,0
Sprite,Foreground,Centre,"SB\sprites\mini rika\miniRika-hard.png",0,0 F,17,212472,212639,0,1 M,30,212472,212972,590,490,590,380 S,0,212639,,0.5 F,17,212973,213123,1,0
Sprite,Foreground,Centre,"SB\sprites\mini rika\miniRika-hard.png",0,0 F,17,217639,217806,0,1 M,30,217639,218139,590,490,590,380 S,0,217806,,0.5 F,17,218306,218456,1,0
//Storyboard Layer 4 (Overlay)
//Storyboard Sound Samples
Sample,10473,0,"tom4.wav",70
Sample,13306,0,"drum-hitwhistle.wav",50
Sample,26306,0,"soft-hitfinish.wav",50
Sample,52139,0,"ride.wav",70
Sample,52473,0,"ride.wav",70
Sample,52639,0,"ride.wav",70
Sample,53473,0,"ride.wav",70
Sample,53806,0,"ride.wav",70
Sample,53973,0,"ride.wav",70
Sample,54806,0,"ride.wav",70
Sample,55139,0,"ride.wav",70
Sample,55306,0,"ride.wav",70
Sample,56139,0,"ride.wav",70
Sample,56473,0,"soft-hitclap.wav",50
Sample,56639,0,"ride.wav",70
Sample,61639,0,"drum-hitwhistle.wav",50
Sample,61973,0,"drum-hitwhistle.wav",50
Sample,89139,0,"tom4.wav",70
Sample,91973,0,"drum-hitwhistle.wav",50
Sample,104973,0,"soft-hitfinish.wav",50
Sample,130806,0,"ride.wav",70
Sample,131139,0,"ride.wav",70
Sample,132139,0,"ride.wav",70
Sample,132473,0,"ride.wav",70
Sample,132639,0,"ride.wav",70
Sample,133473,0,"ride.wav",70
Sample,133806,0,"ride.wav",70
Sample,134806,0,"ride.wav",70
Sample,135139,0,"soft-hitclap.wav",50
Sample,135306,0,"ride.wav",70
Sample,167806,0,"tom4.wav",70
Sample,170639,0,"drum-hitwhistle.wav",50
Sample,188139,0,"tom1.wav",70
Sample,194973,0,"tom1.wav",70
Sample,195139,0,"tom4.wav",70
Sample,195306,0,"tom4.wav",70
Sample,212639,0,"soft-hitfinish.wav",50
Sample,217139,0,"tom4.wav",70
Sample,220139,0,"drum-hitwhistle.wav",50

[TimingPoints]
-360,333.333333333333,4,2,1,50,1,0
68973,-100,4,2,1,50,0,1
90306,-100,4,2,1,50,0,0
147639,-100,4,2,1,50,0,1
168973,-100,4,2,1,50,0,0
202306,-100,4,2,1,50,0,1
222139,-100,4,2,1,50,0,0

[HitObjects]
64,192,473,5,8,0:1:0:0:
448,192,473,1,0,0:0:0:0:
64,192,639,1,8,0:1:0:0:
448,192,639,1,0,0:0:0:0:
64,192,973,128,2,2139:0:2:0:0:
448,192,973,1,4,0:2:0:0:
320,192,1139,128,2,1306:0:3:0:0:
192,192,1306,1,8,0:2:0:0:
448,192,1306,1,0,0:0:0:0:
192,192,1473,128,2,1639:0:3:0:0:
448,192,1639,128,0,1806:0:0:0:0:
320,192,1806,1,2,0:3:0:0:
192,192,1973,1,8,0:2:0:0:
448,192,1973,128,0,2139:0:0:0:0:
320,192,2139,128,2,3639:0:3:0:0:
64,192,2306,1,0,0:0:0:0:
192,192,2473,128,2,2639:0:3:0:0:
64,192,2639,1,8,0:2:0:0:
448,192,2639,1,0,0:0:0:0:
64,192,2806,128,2,2973:0:3:0:0:
448,192,2973,1,0,0:0:0:0:
192,192,3139,1,2,0:3:0:0:
64,192,3306,1,8,0:2:0:0:
448,192,3306,1,0,0:0:0:0:
192,192,3473,1,2,0:3:0:0:
64,192,3639,1,2,0:2:0:0:
192,192,3639,128,4,4806:0:2:0:0:
448,192,3639,1,0,0:0:0:0:
448,192,3806,128,2,3973:0:3:0:0:
64,192,3973,1,8,0:2:0:0:
320,192,3973,1,0,0:0:0:0:
320,192,4139,128,2,4306:0:3:0:0:
64,192,4306,1,0,0:0:0:0:
64,192,4473,128,2,4639:0:3:0:0:
320,192,4639,1,8,0:2:0:0:
448,192,4639,1,0,0:0:0:0:
448,192,4806,128,2,5473:0:3:0:0:
192,192,4973,1,0,0:0:0:0:
64,192,5139,1,8,0:2:0:0:
320,192,5139,1,2,0:3:0:0:
64,192,5306,1,8,0:2:0:0:
192,192,5306,1,0,0:0:0:0:
320,192,5473,1,2,0:3:0:0:
64,192,5639,1,8,0:2:0:0:
448,192,5639,1,0,0:0:0:0:
320,192,5723,1,8,0:2:0:0:
192,192,5806,1,8,0:2:0:0:
64,192,5889,1,8,0:2:0:0:
320,192,5973,1,0,0:0:0:70:tom4.wav
448,192,5973,1,0,0:0:0:0:
64,192,6056,1,0,0:0:0:70:tom4.wav
192,192,6139,1,0,0:0:0:70:tom5.wav
320,192,6223,1,0,0:0:0:70:tom5.wav
64,192,6306,1,2,0:2:0:0:
192,192,6306,1,4,0:2:0:0:
448,192,6306,1,0,0:0:0:0:
320,192,6473,1,0,0:0:0:0:
64,192,6639,1,8,0:2:0:0:
448,192,6639,1,0,0:0:0:0:
192,192,6806,1,2,0:3:0:0:
320,192,6973,128,0,7139:0:0:0:0:
192,192,7139,128,2,7306:0:3:0:0:
64,192,7306,1,8,0:2:0:0:
448,192,7306,1,0,0:0:0:0:
320,192,7473,128,2,7639:0:3:0:0:
192,192,7639,1,0,0:0:0:0:
64,192,7806,128,2,7973:0:3:0:0:
320,192,7973,1,8,0:2:0:0:
448,192,7973,1,0,0:0:0:0:
192,192,8139,128,2,8306:0:3:0:0:
64,192,8306,1,0,0:0:0:0:
320,192,8473,128,2,8639:0:3:0:0:
64,192,8639,1,8,0:2:0:0:
192,192,8639,128,0,8806:0:0:0:0:
448,192,8806,128,2,8973:0:3:0:0:
64,192,8973,128,2,9139:0:2:0:0:
192,192,8973,1,0,0:0:0:0:
64,192,9306,1,8,0:2:0:0:
320,192,9306,128,0,9473:0:0:0:0:
320,192,9639,1,2,0:2:0:0:
448,192,9639,1,0,0:0:0:0:
64,192,9806,1,2,0:2:0:0:
192,192,9806,1,0,0:0:0:0:
320,192,9973,1,2,0:2:0:0:
448,192,9973,1,0,0:0:0:0:
64,192,10139,1,4,0:2:0:0:
192,192,10139,1,2,0:2:0:0:
448,192,10139,1,0,0:0:0:70:tom1.wav
64,192,10473,1,2,0:2:0:0:
320,192,10473,1,0,0:0:0:70:LR_Drum EDge.wav
192,192,10806,1,2,0:2:0:0:
448,192,10806,1,0,0:0:0:70:tom5.wav
64,192,11139,1,8,0:2:0:0:
448,192,11139,1,0,0:0:0:0:
64,192,11306,1,8,0:2:0:0:
448,192,11306,1,0,0:0:0:0:
64,192,11639,128,2,11806:0:2:0:0:
320,192,11639,1,0,0:0:0:0:
448,192,11806,128,0,11973:0:0:0:0:
64,192,11973,128,2,12139:0:2:0:0:
192,192,12139,1,8,0:2:0:0:
448,192,12139,128,0,12306:0:0:0:0:
320,192,12306,1,2,0:2:0:0:
64,192,12473,1,8,0:2:0:0:
192,192,12473,128,0,12639:0:0:0:0:
320,192,12639,128,2,12806:0:2:0:0:
64,192,12806,128,8,12973:0:2:0:0:
448,192,12806,1,0,0:0:0:0:
192,192,12973,1,2,0:2:0:0:
320,192,13139,1,8,0:2:0:0:
448,192,13139,128,0,13306:0:0:0:0:
64,192,13306,128,2,13473:0:2:0:0:
192,192,13473,1,8,0:2:0:0:
320,192,13473,128,0,13639:0:0:0:0:
64,192,13639,1,4,0:2:0:0:
448,192,13639,1,8,0:2:0:0:
192,192,13973,1,4,0:2:0:0:
320,192,13973,1,8,0:2:0:0:
64,192,14306,1,4,0:2:0:0:
192,192,14306,1,2,0:2:0:0:
448,192,14306,1,0,0:0:0:0:
64,192,14639,1,8,0:2:0:0:
320,192,14639,1,4,0:2:0:0:
448,192,14639,1,0,0:0:0:0:
64,192,14973,1,2,0:2:0:0:
192,192,14973,1,0,0:0:0:0:
320,192,15139,1,2,0:2:0:0:
448,192,15139,1,0,0:0:0:0:
64,192,15473,1,8,0:2:0:0:
192,192,15473,1,4,0:2:0:0:
448,192,15473,128,0,16639:0:0:0:0:
64,192,15973,1,2,0:2:0:0:
64,192,16306,1,2,0:2:0:0:
320,192,16639,128,2,16973:0:2:0:0:
64,192,16973,1,2,0:2:0:0:
192,192,16973,1,4,0:2:0:0:
448,192,16973,1,0,0:0:0:0:
320,192,17139,1,0,0:0:0:0:
192,192,17223,1,0,0:0:0:0:
64,192,17306,1,8,0:2:0:0:
448,192,17306,1,0,0:0:0:0:
320,192,17473,1,0,0:0:0:0:
320,192,17639,1,2,0:2:0:0:
64,192,17806,1,8,0:1:0:0:
448,192,17806,1,0,0:0:0:0:
64,192,17973,128,8,18139:0:1:0:0:
448,192,17973,128,8,18139:0:2:0:0:
192,192,18306,1,2,0:2:0:0:
320,192,18306,1,0,0:0:0:0:
64,192,18473,1,0,0:0:0:0:
192,192,18556,1,0,0:0:0:0:
320,192,18639,1,8,0:2:0:0:
448,192,18639,1,0,0:0:0:0:
192,192,18806,1,0,0:0:0:0:
192,192,18973,1,2,0:2:0:0:
64,192,19139,1,8,0:1:0:0:
448,192,19139,1,0,0:0:0:0:
64,192,19306,128,8,19473:0:1:0:0:
448,192,19306,128,8,19473:0:2:0:0:
64,192,19639,1,2,0:2:0:0:
192,192,19639,1,0,0:0:0:0:
448,192,19806,1,0,0:0:0:0:
320,192,19889,1,0,0:0:0:0:
64,192,19973,1,8,0:2:0:0:
192,192,19973,1,0,0:0:0:0:
320,192,20139,1,0,0:0:0:0:
320,192,20306,1,2,0:2:0:0:
192,192,20473,128,0,20639:0:0:0:0:
64,192,20639,1,8,0:2:0:0:
448,192,20639,128,0,20806:0:0:0:0:
320,192,20806,128,0,20973:0:0:0:0:
64,192,20973,1,2,0:2:0:0:
192,192,20973,1,0,0:0:0:0:
64,192,21139,1,8,0:2:0:0:
320,192,21139,1,0,0:0:0:0:
320,192,21306,1,2,0:2:0:0:
448,192,21306,1,0,0:0:0:0:
192,192,21473,1,8,0:2:0:0:
448,192,21473,1,0,0:0:0:0:
64,192,21639,1,2,0:2:0:0:
192,192,21639,1,0,0:0:0:0:
64,192,21806,1,8,0:2:0:0:
320,192,21806,1,0,0:0:0:0:
320,192,21973,1,2,0:2:0:0:
448,192,21973,1,0,0:0:0:0:
192,192,22139,1,8,0:2:0:0:
448,192,22139,1,0,0:0:0:0:
64,192,22306,1,2,0:2:0:0:
320,192,22306,1,4,0:2:0:0:
448,192,22306,1,0,0:0:0:0:
192,192,22473,1,0,0:0:0:0:
320,192,22556,1,0,0:0:0:0:
64,192,22639,1,8,0:2:0:0:
448,192,22639,1,0,0:0:0:0:
192,192,22806,1,0,0:0:0:0:
192,192,22973,1,2,0:2:0:0:
64,192,23139,1,8,0:1:0:0:
448,192,23139,1,0,0:0:0:0:
64,192,23306,128,8,23473:0:2:0:0:
448,192,23306,128,8,23473:0:1:0:0:
192,192,23639,1,2,0:2:0:0:
320,192,23639,1,0,0:0:0:0:
448,192,23806,1,0,0:0:0:0:
320,192,23889,1,0,0:0:0:0:
64,192,23973,1,8,0:2:0:0:
192,192,23973,1,0,0:0:0:0:
320,192,24139,1,0,0:0:0:0:
320,192,24306,1,2,0:2:0:0:
64,192,24473,1,8,0:1:0:0:
448,192,24473,1,0,0:0:0:0:
64,192,24639,128,8,24806:0:1:0:0:
448,192,24639,128,8,24806:0:2:0:0:
320,192,24973,1,2,0:2:0:0:
448,192,24973,1,0,0:0:0:0:
192,192,25139,1,8,0:2:0:0:
448,192,25139,1,0,0:0:0:0:
64,192,25306,1,2,0:2:0:0:
192,192,25306,1,0,0:0:0:0:
64,192,25473,1,8,0:2:0:0:
320,192,25473,1,0,0:0:0:0:
320,192,25639,1,2,0:2:0:0:
448,192,25639,1,0,0:0:0:0:
64,192,25806,1,8,0:2:0:0:
448,192,25806,1,0,0:0:0:0:
192,192,25973,1,2,0:2:0:0:
320,192,25973,1,0,0:0:0:70:tom5.wav
64,192,26139,128,8,27639:0:2:0:0:
448,192,26139,1,0,0:0:0:0:
192,192,26306,1,0,0:0:0:70:tom5.wav
320,192,26306,1,2,0:2:0:0:
192,192,26639,1,8,0:2:0:0:
448,192,26639,1,0,0:0:0:0:
320,192,26806,1,0,0:0:0:0:
320,192,26973,1,2,0:2:0:0:
192,192,27306,1,8,0:2:0:0:
448,192,27306,1,0,0:0:0:0:
320,192,27639,128,2,28306:0:2:0:0:
192,192,27973,1,8,0:2:0:0:
448,192,27973,1,0,0:0:0:70:LR_Drum EDge.wav
64,192,28306,1,2,0:2:0:0:
448,192,28306,1,0,0:0:0:0:
192,192,28473,1,2,0:2:0:0:
320,192,28473,1,0,0:0:0:0:
64,192,28639,1,8,0:2:0:0:
192,192,28639,1,0,0:0:0:0:
64,192,28806,1,2,0:2:0:0:
448,192,28806,1,0,0:0:0:0:
64,192,29139,1,2,0:2:0:0:
448,192,29139,1,0,0:0:0:0:
192,192,29306,1,2,0:2:0:0:
320,192,29306,1,0,0:0:0:0:
320,192,29473,1,2,0:2:0:0:
448,192,29473,1,0,0:0:0:0:
64,192,29639,1,2,0:2:0:0:
448,192,29639,1,0,0:0:0:0:
192,192,29973,1,8,0:1:0:0:
320,192,29973,1,0,0:0:0:0:
64,192,30306,1,4,0:2:0:0:
320,192,30306,1,2,0:2:0:0:
448,192,30306,128,0,30473:0:0:0:0:
64,192,30639,128,8,30806:0:2:0:0:
448,192,30639,1,0,0:0:0:0:
320,192,30973,128,2,31139:0:2:0:0:
448,192,30973,1,0,0:0:0:0:
192,192,31139,128,2,31306:0:3:0:0:
64,192,31306,128,8,31473:0:2:0:0:
448,192,31306,1,0,0:0:0:0:
320,192,31473,128,2,31806:0:3:0:0:
64,192,31639,1,2,0:2:0:0:
448,192,31639,1,0,0:0:0:0:
192,192,31806,1,2,0:3:0:0:
320,192,31973,1,8,0:2:0:0:
448,192,31973,1,0,0:0:0:0:
64,192,32139,128,2,32473:0:3:0:0:
320,192,32306,1,2,0:2:0:0:
448,192,32306,1,0,0:0:0:0:
192,192,32473,1,2,0:3:0:0:
64,192,32639,1,8,0:2:0:0:
448,192,32639,1,0,0:0:0:0:
320,192,32806,1,2,0:3:0:0:
64,192,32973,1,2,0:2:0:0:
448,192,32973,128,0,33139:0:0:0:0:
64,192,33306,128,8,33473:0:2:0:0:
448,192,33306,1,0,0:0:0:0:
64,192,33639,1,2,0:2:0:0:
192,192,33639,128,0,33806:0:0:0:0:
320,192,33806,128,2,33973:0:3:0:0:
64,192,33973,1,8,0:2:0:0:
448,192,33973,128,0,34139:0:0:0:0:
64,192,34139,1,4,0:2:0:0:
192,192,34139,1,0,0:0:0:0:
64,192,34473,1,8,0:2:0:0:
192,192,34473,1,0,0:0:0:0:
320,192,34639,1,8,0:2:0:0:
448,192,34639,1,0,0:0:0:0:
64,192,34806,1,8,0:2:0:0:
192,192,34806,1,0,0:0:0:0:
320,192,34973,1,8,0:2:0:0:
448,192,34973,1,0,0:0:0:0:
64,192,35139,1,8,0:2:0:0:
192,192,35139,1,0,0:0:0:0:
320,192,35306,1,8,0:2:0:0:
448,192,35306,1,0,0:0:0:0:
64,192,35473,1,8,0:2:0:0:
192,192,35473,1,0,0:0:0:0:
64,192,35639,128,2,35806:0:2:0:0:
320,192,35639,1,4,0:2:0:0:
448,192,35639,1,0,0:0:0:0:
64,192,35973,1,8,0:2:0:0:
448,192,35973,128,0,36139:0:0:0:0:
64,192,36306,1,2,0:2:0:0:
320,192,36306,128,0,36473:0:0:0:0:
192,192,36473,128,2,36639:0:3:0:0:
64,192,36639,1,8,0:2:0:0:
448,192,36639,1,0,0:0:0:0:
320,192,36806,128,2,37139:0:3:0:0:
64,192,36973,1,2,0:2:0:0:
448,192,36973,1,0,0:0:0:0:
192,192,37139,1,2,0:3:0:0:
320,192,37306,1,8,0:2:0:0:
448,192,37306,1,0,0:0:0:0:
64,192,37473,128,2,37806:0:3:0:0:
320,192,37639,1,2,0:2:0:0:
448,192,37639,1,0,0:0:0:0:
192,192,37806,1,2,0:3:0:0:
64,192,37973,1,8,0:2:0:0:
448,192,37973,1,0,0:0:0:0:
320,192,38139,1,2,0:3:0:0:
64,192,38306,1,2,0:2:0:0:
448,192,38306,128,0,38473:0:0:0:0:
64,192,38639,128,8,38806:0:2:0:0:
448,192,38639,1,0,0:0:0:0:
64,192,38973,1,2,0:2:0:0:
192,192,38973,128,0,39139:0:0:0:0:
320,192,39139,128,2,39306:0:3:0:0:
64,192,39306,1,8,0:2:0:0:
448,192,39306,1,0,0:0:0:0:
320,192,39473,1,4,0:2:0:0:
448,192,39473,1,0,0:0:0:0:
320,192,39806,1,2,0:3:0:0:
192,192,39973,1,8,0:2:0:0:
448,192,39973,1,0,0:0:0:0:
192,192,40139,1,2,0:3:0:0:
64,192,40306,1,2,0:2:0:0:
320,192,40306,1,0,0:0:0:0:
64,192,40473,1,8,0:2:0:0:
192,192,40556,1,8,0:2:0:0:
320,192,40639,1,8,0:2:0:0:
448,192,40639,1,0,0:0:0:0:
320,192,40806,1,8,0:2:0:0:
192,192,40889,1,8,0:2:0:0:
64,192,40973,1,2,0:2:0:0:
320,192,40973,1,4,0:2:0:0:
448,192,40973,1,0,0:0:0:0:
448,192,41139,1,2,0:3:0:0:
64,192,41306,1,8,0:2:0:0:
320,192,41306,1,0,0:0:0:0:
448,192,41473,1,2,0:3:0:0:
64,192,41639,1,2,0:2:0:0:
192,192,41639,1,0,0:0:0:0:
448,192,41806,1,2,0:3:0:0:
64,192,41973,1,8,0:2:0:0:
320,192,41973,1,0,0:0:0:0:
448,192,42139,1,2,0:3:0:0:
64,192,42306,1,2,0:2:0:0:
192,192,42306,1,0,0:0:0:0:
448,192,42473,1,2,0:3:0:0:
64,192,42639,1,4,0:2:0:0:
320,192,42639,1,8,0:2:0:0:
192,192,42973,1,4,0:2:0:0:
448,192,42973,1,8,0:2:0:0:
64,192,43306,1,4,0:2:0:0:
320,192,43306,1,8,0:2:0:0:
448,192,43306,1,0,0:0:0:0:
64,192,43639,1,2,0:2:0:0:
192,192,43639,1,4,0:2:0:0:
448,192,43639,1,0,0:0:0:0:
320,192,43806,1,2,0:3:0:0:
64,192,43973,1,8,0:2:0:0:
448,192,43973,1,0,0:0:0:0:
320,192,44139,1,2,0:3:0:0:
64,192,44306,1,2,0:2:0:0:
192,192,44306,1,0,0:0:0:0:
320,192,44473,1,2,0:3:0:0:
64,192,44639,1,8,0:2:0:0:
448,192,44639,1,0,0:0:0:0:
320,192,44806,1,2,0:3:0:0:
64,192,44973,1,2,0:2:0:0:
192,192,44973,1,0,0:0:0:0:
320,192,45139,1,2,0:2:0:0:
192,192,45306,1,8,0:2:0:0:
448,192,45306,1,0,0:0:0:0:
192,192,45473,1,2,0:2:0:0:
64,192,45639,1,8,0:2:0:0:
320,192,45639,1,0,0:0:0:0:
320,192,45806,1,2,0:2:0:0:
192,192,45973,1,4,0:2:0:0:
448,192,45973,1,8,0:2:0:0:
192,192,46139,1,8,0:2:0:0:
64,192,46306,1,4,0:2:0:0:
320,192,46306,1,2,0:2:0:0:
448,192,46306,1,0,0:0:0:0:
192,192,46473,1,2,0:3:0:0:
64,192,46639,1,8,0:2:0:0:
448,192,46639,1,0,0:0:0:0:
192,192,46806,1,2,0:3:0:0:
320,192,46973,1,2,0:2:0:0:
448,192,46973,1,0,0:0:0:0:
192,192,47139,1,2,0:3:0:0:
64,192,47306,1,8,0:2:0:0:
448,192,47306,1,0,0:0:0:0:
192,192,47473,1,2,0:3:0:0:
320,192,47639,1,2,0:2:0:0:
448,192,47639,1,0,0:0:0:0:
64,192,47806,1,2,0:3:0:0:
192,192,47973,1,4,0:2:0:0:
448,192,47973,1,8,0:2:0:0:
64,192,48306,1,4,0:2:0:0:
320,192,48306,1,8,0:2:0:0:
64,192,48639,1,4,0:2:0:0:
192,192,48639,1,8,0:2:0:0:
448,192,48639,1,0,0:0:0:0:
320,192,48973,1,2,0:2:0:0:
448,192,48973,1,0,0:0:0:0:
64,192,49139,1,2,0:3:0:0:
192,192,49306,1,8,0:2:0:0:
448,192,49306,1,0,0:0:0:0:
64,192,49473,1,2,0:3:0:0:
320,192,49639,1,2,0:2:0:0:
448,192,49639,1,0,0:0:0:0:
64,192,49806,1,2,0:3:0:0:
192,192,49973,1,8,0:2:0:0:
320,192,49973,1,0,0:0:0:0:
64,192,50139,1,4,0:2:0:0:
448,192,50139,128,0,50306:0:0:0:0:
192,192,50306,1,2,0:2:0:0:
448,192,50473,1,0,0:0:0:0:
64,192,50639,1,8,0:2:0:0:
192,192,50639,1,0,0:0:0:0:
448,192,50723,1,8,0:2:0:0:
320,192,50806,1,8,0:2:0:0:
192,192,50889,1,8,0:2:0:0:
320,192,50973,1,8,0:2:0:0:
448,192,50973,1,2,0:2:0:0:
64,192,51056,1,8,0:2:0:0:
192,192,51139,1,8,0:2:0:0:
320,192,51223,1,8,0:2:0:0:
64,192,51306,1,8,0:2:0:0:
192,192,51306,1,2,0:2:0:0:
448,192,51389,1,8,0:2:0:0:
320,192,51473,1,8,0:2:0:0:
192,192,51556,1,8,0:2:0:0:
64,192,51639,128,4,52973:0:2:0:0:
320,192,51639,1,2,0:2:0:0:
448,192,51639,1,0,0:0:0:0:
192,192,51806,1,0,0:0:0:70:ride.wav
320,192,51973,1,0,0:0:0:70:ride.wav
448,192,52139,1,2,0:2:0:0:
192,192,52306,1,0,0:0:0:70:ride.wav
320,192,52473,1,2,0:2:0:0:
192,192,52639,1,8,0:2:0:0:
448,192,52639,1,0,0:0:0:70:LR_Drum EDge.wav
192,192,52973,1,2,0:2:0:0:
448,192,52973,128,0,54306:0:0:0:70:ride.wav
320,192,53139,1,0,0:0:0:70:ride.wav
64,192,53306,1,0,0:0:0:70:ride.wav
192,192,53473,1,2,0:2:0:0:
320,192,53639,1,0,0:0:0:70:ride.wav
64,192,53806,1,2,0:2:0:0:
192,192,53973,1,8,0:2:0:0:
320,192,53973,1,0,0:0:0:70:LR_Drum EDge.wav
64,192,54306,1,2,0:2:0:0:
320,192,54306,128,0,55639:0:0:0:70:ride.wav
192,192,54473,1,0,0:0:0:70:ride.wav
448,192,54639,1,0,0:0:0:70:ride.wav
192,192,54806,1,2,0:2:0:0:
64,192,54973,1,0,0:0:0:70:ride.wav
448,192,55139,1,2,0:2:0:0:
64,192,55306,1,8,0:2:0:0:
192,192,55306,1,0,0:0:0:70:LR_Drum EDge.wav
192,192,55639,128,2,56473:0:2:0:0:
448,192,55639,1,0,0:0:0:70:ride.wav
64,192,55806,1,0,0:0:0:70:ride.wav
448,192,55973,1,0,0:0:0:70:ride.wav
320,192,56139,1,2,0:2:0:0:
64,192,56306,1,0,0:0:0:70:ride.wav
320,192,56473,1,0,0:0:0:70:LR_Drum EDge.wav
448,192,56473,1,2,0:2:0:0:
64,192,56639,1,8,0:2:0:0:
448,192,56639,1,0,0:0:0:70:LR_Drum EDge.wav
64,192,56973,1,2,0:2:0:0:
192,192,56973,1,4,0:2:0:0:
448,192,56973,1,0,0:0:0:0:
320,192,57139,1,0,0:0:0:0:
64,192,57306,128,8,57473:0:2:0:0:
448,192,57306,1,0,0:0:0:0:
192,192,57473,1,2,0:3:0:0:
64,192,57639,128,2,57806:0:2:0:0:
320,192,57639,1,0,0:0:0:0:
192,192,57806,1,2,0:3:0:0:
64,192,57973,1,8,0:2:0:0:
448,192,57973,1,0,0:0:0:0:
320,192,58139,1,2,0:3:0:0:
64,192,58306,1,2,0:2:0:0:
192,192,58306,1,0,0:0:0:0:
320,192,58473,1,2,0:3:0:0:
192,192,58639,1,8,0:2:0:0:
448,192,58639,128,0,58806:0:0:0:0:
320,192,58806,1,2,0:3:0:0:
64,192,58973,1,2,0:2:0:0:
448,192,58973,128,0,59139:0:0:0:0:
192,192,59139,1,2,0:3:0:0:
64,192,59306,1,8,0:2:0:0:
320,192,59306,1,0,0:0:0:0:
192,192,59473,1,2,0:3:0:0:
320,192,59639,1,2,0:2:0:0:
448,192,59639,1,0,0:0:0:0:
64,192,59806,1,2,0:3:0:0:
192,192,59973,128,8,60139:0:2:0:0:
448,192,59973,1,0,0:0:0:0:
320,192,60139,1,2,0:3:0:0:
64,192,60306,1,2,0:2:0:0:
192,192,60306,128,0,60473:0:0:0:0:
448,192,60473,1,0,0:0:0:0:
64,192,60639,1,8,0:2:0:0:
320,192,60639,1,0,0:0:0:0:
192,192,60806,1,0,0:0:0:0:
320,192,60973,1,8,0:2:0:0:
448,192,60973,1,2,0:3:0:0:
64,192,61139,1,8,0:2:0:0:
192,192,61139,1,0,0:0:0:0:
320,192,61306,1,8,0:2:0:0:
448,192,61306,1,0,0:0:0:0:
192,192,61473,1,0,0:0:0:0:
64,192,61639,1,8,0:2:0:0:
192,192,61723,1,0,0:0:0:0:
320,192,61806,1,0,0:0:0:0:
448,192,61889,1,0,0:0:0:0:
64,192,61973,1,8,0:2:0:0:
192,192,62056,1,8,0:2:0:0:
448,192,62139,1,8,0:2:0:0:
320,192,62223,1,8,0:2:0:0:
64,192,62306,1,0,0:0:0:0:
192,192,62473,1,2,0:3:0:0:
448,192,62639,1,0,0:0:0:0:
320,192,62806,1,2,0:3:0:0:
64,192,62973,1,0,0:0:0:0:
192,192,63139,1,2,0:3:0:0:
320,192,63306,1,0,0:0:0:0:
448,192,63473,1,2,0:3:0:0:
192,192,63639,1,0,0:0:0:0:
64,192,63806,1,2,0:3:0:0:
448,192,63973,1,0,0:0:0:0:
320,192,64139,1,2,0:3:0:0:
64,192,64306,1,0,0:0:0:0:
192,192,64473,128,2,64639:0:3:0:0:
448,192,64639,128,0,64806:0:0:0:0:
320,192,64806,128,2,64973:0:3:0:0:
64,192,64973,128,0,65139:0:0:0:0:
192,192,65139,128,2,65306:0:3:0:0:
448,192,65306,128,0,65473:0:0:0:0:
320,192,65473,128,2,65639:0:3:0:0:
64,192,65639,128,0,65806:0:0:0:0:
320,192,65806,128,2,65973:0:3:0:0:
192,192,65973,128,0,66139:0:0:0:0:
448,192,66139,128,2,66306:0:3:0:0:
192,192,66306,128,0,68473:0:0:0:0:
64,192,68473,1,8,0:1:0:0:
448,192,68473,1,0,0:0:0:0:
64,192,68639,1,8,0:1:0:0:
448,192,68639,1,0,0:0:0:0:
64,192,68973,1,2,0:2:0:0:
320,192,68973,1,4,0:2:0:0:
448,192,68973,128,0,69139:0:0:0:0:
192,192,69139,1,2,0:3:0:0:
64,192,69306,128,8,69473:0:2:0:0:
448,192,69306,1,0,0:0:0:0:
192,192,69473,1,2,0:3:0:0:
320,192,69639,128,2,69806:0:2:0:0:
448,192,69639,1,0,0:0:0:0:
64,192,69806,1,2,0:3:0:0:
192,192,69973,128,8,70306:0:2:0:0:
448,192,69973,1,0,0:0:0:0:
320,192,70139,1,2,0:3:0:0:
64,192,70306,1,2,0:2:0:0:
448,192,70306,1,0,0:0:0:0:
192,192,70473,1,2,0:3:0:0:
64,192,70639,1,8,0:2:0:0:
320,192,70639,1,0,0:0:0:0:
64,192,70806,128,2,71139:0:3:0:0:
320,192,70973,128,2,71139:0:2:0:0:
448,192,70973,1,0,0:0:0:0:
192,192,71139,128,2,71306:0:3:0:0:
64,192,71306,1,8,0:2:0:0:
448,192,71306,1,0,0:0:0:0:
320,192,71473,128,2,71639:0:3:0:0:
64,192,71639,1,2,0:2:0:0:
192,192,71639,1,0,0:0:0:0:
64,192,71806,128,2,71973:0:3:0:0:
320,192,71973,1,8,0:2:0:0:
448,192,71973,1,0,0:0:0:0:
448,192,72139,128,2,72306:0:3:0:0:
64,192,72306,1,2,0:2:0:0:
320,192,72306,1,0,0:0:0:0:
64,192,72473,128,2,72639:0:3:0:0:
192,192,72639,1,8,0:2:0:0:
448,192,72639,1,0,0:0:0:0:
448,192,72806,128,2,72973:0:3:0:0:
64,192,72973,1,2,0:2:0:0:
192,192,72973,1,0,0:0:0:0:
320,192,73139,1,8,0:2:0:0:
448,192,73139,1,0,0:0:0:0:
64,192,73306,1,8,0:2:0:0:
448,192,73306,1,0,0:0:0:0:
192,192,73473,1,2,0:3:0:0:
64,192,73639,1,2,0:2:0:0:
448,192,73639,1,0,0:0:0:0:
320,192,73723,1,8,0:2:0:0:
192,192,73806,1,8,0:2:0:0:
320,192,73889,1,8,0:2:0:0:
64,192,73973,1,0,0:0:0:70:tom4.wav
448,192,73973,1,0,0:0:0:0:
192,192,74139,1,0,0:0:0:70:tom5.wav
320,192,74139,1,0,0:0:0:0:
64,192,74306,1,2,0:2:0:0:
192,192,74306,1,4,0:2:0:0:
448,192,74306,1,0,0:0:0:0:
320,192,74473,1,0,0:0:0:0:
64,192,74639,1,8,0:2:0:0:
448,192,74639,1,0,0:0:0:0:
192,192,74806,1,2,0:3:0:0:
320,192,74973,128,2,75139:0:2:0:0:
448,192,74973,1,0,0:0:0:0:
192,192,75139,128,2,75306:0:3:0:0:
64,192,75306,1,8,0:2:0:0:
448,192,75306,1,0,0:0:0:0:
320,192,75473,128,2,75639:0:3:0:0:
64,192,75639,1,2,0:2:0:0:
192,192,75639,1,0,0:0:0:0:
64,192,75806,128,2,75973:0:3:0:0:
320,192,75973,1,8,0:2:0:0:
448,192,75973,1,0,0:0:0:0:
192,192,76139,128,2,76306:0:3:0:0:
64,192,76306,1,2,0:2:0:0:
320,192,76473,128,2,76639:0:3:0:0:
64,192,76639,1,8,0:2:0:0:
192,192,76639,128,0,76806:0:0:0:0:
448,192,76806,128,2,76973:0:3:0:0:
64,192,76973,128,2,77139:0:2:0:0:
192,192,76973,1,0,0:0:0:0:
64,192,77306,1,8,0:2:0:0:
320,192,77306,128,0,77473:0:0:0:0:
320,192,77639,1,2,0:2:0:0:
448,192,77639,1,0,0:0:0:0:
64,192,77806,1,2,0:2:0:0:
192,192,77806,1,0,0:0:0:0:
320,192,77973,1,2,0:2:0:0:
448,192,77973,1,0,0:0:0:0:
64,192,78139,1,4,0:2:0:0:
192,192,78139,1,2,0:2:0:0:
448,192,78139,1,0,0:0:0:70:tom1.wav
320,192,78473,1,2,0:2:0:0:
448,192,78473,1,0,0:0:0:70:tom4.wav
192,192,78639,1,8,0:2:0:0:
448,192,78639,1,0,0:0:0:0:
64,192,78806,1,2,0:2:0:0:
192,192,78806,1,0,0:0:0:70:tom5.wav
64,192,78973,1,8,0:2:0:0:
320,192,78973,1,0,0:0:0:0:
192,192,79139,1,2,0:2:0:0:
320,192,79139,1,0,0:0:0:0:
192,192,79306,128,2,79473:0:2:0:0:
320,192,79306,128,0,79473:0:0:0:0:
64,192,79639,128,2,79806:0:2:0:0:
192,192,79639,1,4,0:2:0:0:
448,192,79639,1,0,0:0:0:0:
320,192,79806,1,2,0:3:0:0:
64,192,79973,1,8,0:2:0:0:
448,192,79973,128,0,80139:0:0:0:0:
320,192,80139,1,2,0:3:0:0:
64,192,80306,1,2,0:2:0:0:
192,192,80306,128,0,80473:0:0:0:0:
448,192,80473,1,2,0:3:0:0:
64,192,80639,1,8,0:2:0:0:
320,192,80639,128,0,80973:0:0:0:0:
192,192,80806,1,2,0:3:0:0:
64,192,80973,1,2,0:2:0:0:
448,192,80973,1,0,0:0:0:0:
320,192,81139,1,2,0:3:0:0:
192,192,81306,1,8,0:2:0:0:
448,192,81306,1,0,0:0:0:0:
448,192,81473,128,2,81806:0:3:0:0:
64,192,81639,1,2,0:2:0:0:
192,192,81639,128,0,81806:0:0:0:0:
320,192,81806,128,2,81973:0:3:0:0:
64,192,81973,1,8,0:2:0:0:
448,192,81973,1,0,0:0:0:0:
192,192,82139,128,2,82306:0:3:0:0:
320,192,82306,1,2,0:2:0:0:
448,192,82306,1,0,0:0:0:0:
448,192,82473,128,2,82639:0:3:0:0:
64,192,82639,1,8,0:2:0:0:
192,192,82639,1,0,0:0:0:0:
64,192,82806,128,2,82973:0:3:0:0:
192,192,82973,1,2,0:2:0:0:
448,192,82973,1,0,0:0:0:0:
448,192,83139,128,2,83306:0:3:0:0:
64,192,83306,1,8,0:2:0:0:
320,192,83306,1,0,0:0:0:0:
64,192,83473,128,2,83639:0:3:0:0:
320,192,83639,1,2,0:2:0:0:
448,192,83639,1,0,0:0:0:0:
64,192,83806,1,8,0:2:0:0:
192,192,83806,1,0,0:0:0:0:
64,192,83973,1,8,0:2:0:0:
448,192,83973,1,0,0:0:0:0:
320,192,84139,1,2,0:3:0:0:
64,192,84306,1,8,0:2:0:0:
448,192,84306,1,0,0:0:0:0:
192,192,84389,1,8,0:2:0:0:
320,192,84473,1,8,0:2:0:0:
192,192,84556,1,8,0:2:0:0:
64,192,84639,1,0,0:0:0:70:tom4.wav
448,192,84639,1,0,0:0:0:0:
192,192,84806,1,0,0:0:0:70:tom5.wav
320,192,84806,1,0,0:0:0:0:
64,192,84973,1,2,0:2:0:0:
320,192,84973,1,4,0:2:0:0:
448,192,84973,1,0,0:0:0:0:
192,192,85139,1,0,0:0:0:0:
64,192,85306,1,8,0:2:0:0:
448,192,85306,1,0,0:0:0:0:
320,192,85473,1,2,0:3:0:0:
64,192,85639,1,2,0:2:0:0:
192,192,85639,128,0,85806:0:0:0:0:
320,192,85806,128,2,85973:0:3:0:0:
64,192,85973,1,8,0:2:0:0:
448,192,85973,1,0,0:0:0:0:
192,192,86139,128,2,86306:0:3:0:0:
320,192,86306,1,2,0:2:0:0:
448,192,86306,1,0,0:0:0:0:
448,192,86473,128,2,86639:0:3:0:0:
64,192,86639,1,8,0:2:0:0:
192,192,86639,1,0,0:0:0:0:
320,192,86806,128,2,86973:0:3:0:0:
448,192,86973,1,2,0:2:0:0:
192,192,87139,128,2,87306:0:3:0:0:
320,192,87306,128,8,87473:0:2:0:0:
448,192,87306,1,0,0:0:0:0:
64,192,87473,128,2,87639:0:3:0:0:
320,192,87639,1,2,0:2:0:0:
448,192,87639,128,0,87806:0:0:0:0:
192,192,87973,128,8,88139:0:2:0:0:
448,192,87973,1,0,0:0:0:0:
64,192,88306,1,2,0:2:0:0:
192,192,88306,1,0,0:0:0:0:
320,192,88473,1,2,0:2:0:0:
448,192,88473,1,0,0:0:0:0:
64,192,88639,1,2,0:2:0:0:
192,192,88639,1,0,0:0:0:0:
64,192,88806,1,4,0:2:0:0:
320,192,88806,128,2,88973:0:2:0:0:
448,192,88806,1,0,0:0:0:70:tom1.wav
192,192,89139,128,2,89306:0:2:0:0:
448,192,89139,1,0,0:0:0:70:LR_Drum EDge.wav
64,192,89473,128,2,89639:0:2:0:0:
320,192,89473,1,0,0:0:0:70:tom5.wav
192,192,89806,1,8,0:2:0:0:
320,192,89806,1,0,0:0:0:0:
192,192,89973,128,8,90306:0:2:0:0:
320,192,89973,128,0,90306:0:0:0:0:
64,192,90306,1,8,0:2:0:0:
448,192,90306,128,0,90473:0:0:0:0:
64,192,90473,128,0,90639:0:0:0:0:
448,192,90639,128,2,90806:0:2:0:0:
64,192,90806,128,8,90973:0:2:0:0:
320,192,90806,1,0,0:0:0:0:
192,192,90973,1,2,0:2:0:0:
320,192,91139,128,8,91306:0:2:0:0:
448,192,91139,1,0,0:0:0:0:
192,192,91306,128,2,91473:0:2:0:0:
64,192,91473,1,8,0:2:0:0:
448,192,91473,128,0,91639:0:0:0:0:
320,192,91639,1,2,0:2:0:0:
64,192,91806,128,8,91973:0:2:0:0:
192,192,91806,1,0,0:0:0:0:
448,192,91973,128,2,92139:0:2:0:0:
192,192,92139,128,8,92306:0:2:0:0:
320,192,92139,1,0,0:0:0:0:
64,192,92306,1,4,0:2:0:0:
448,192,92306,1,8,0:2:0:0:
192,192,92639,1,4,0:2:0:0:
320,192,92639,1,8,0:2:0:0:
64,192,92973,1,4,0:2:0:0:
320,192,92973,1,2,0:2:0:0:
448,192,92973,1,0,0:0:0:0:
64,192,93306,1,8,0:2:0:0:
192,192,93306,1,4,0:2:0:0:
448,192,93306,1,0,0:0:0:0:
320,192,93639,1,2,0:2:0:0:
448,192,93639,1,0,0:0:0:0:
64,192,93806,1,2,0:2:0:0:
192,192,93806,1,0,0:0:0:0:
64,192,94139,128,8,95306:0:2:0:0:
320,192,94139,1,4,0:2:0:0:
448,192,94139,1,0,0:0:0:0:
448,192,94639,1,2,0:2:0:0:
448,192,94973,1,2,0:2:0:0:
192,192,95306,128,2,95639:0:2:0:0:
64,192,95639,1,2,0:2:0:0:
320,192,95639,1,4,0:2:0:0:
448,192,95639,1,0,0:0:0:0:
192,192,95806,1,0,0:0:0:0:
320,192,95889,1,0,0:0:0:0:
64,192,95973,1,8,0:2:0:0:
448,192,95973,1,0,0:0:0:0:
192,192,96139,1,0,0:0:0:0:
192,192,96306,1,2,0:2:0:0:
64,192,96473,1,8,0:1:0:0:
448,192,96473,1,0,0:0:0:0:
64,192,96639,128,8,96806:0:1:0:0:
448,192,96639,128,8,96806:0:2:0:0:
192,192,96973,1,2,0:2:0:0:
320,192,96973,1,0,0:0:0:0:
448,192,97139,1,0,0:0:0:0:
320,192,97223,1,0,0:0:0:0:
64,192,97306,1,8,0:2:0:0:
192,192,97306,1,0,0:0:0:0:
320,192,97473,1,0,0:0:0:0:
320,192,97639,1,2,0:2:0:0:
64,192,97806,1,8,0:1:0:0:
448,192,97806,1,0,0:0:0:0:
64,192,97973,128,8,98139:0:1:0:0:
448,192,97973,128,8,98139:0:2:0:0:
320,192,98306,1,2,0:2:0:0:
448,192,98306,1,0,0:0:0:0:
64,192,98473,1,0,0:0:0:0:
192,192,98556,1,0,0:0:0:0:
320,192,98639,1,8,0:2:0:0:
448,192,98639,1,0,0:0:0:0:
192,192,98806,1,0,0:0:0:0:
192,192,98973,1,2,0:2:0:0:
320,192,99139,128,0,99306:0:0:0:0:
64,192,99306,128,8,99473:0:2:0:0:
448,192,99306,1,0,0:0:0:0:
192,192,99473,128,0,99639:0:0:0:0:
320,192,99639,1,2,0:2:0:0:
448,192,99639,1,0,0:0:0:0:
192,192,99806,1,8,0:2:0:0:
448,192,99806,1,0,0:0:0:0:
64,192,99973,1,2,0:2:0:0:
192,192,99973,1,0,0:0:0:0:
64,192,100139,1,8,0:2:0:0:
320,192,100139,1,0,0:0:0:0:
320,192,100306,1,2,0:2:0:0:
448,192,100306,1,0,0:0:0:0:
192,192,100473,1,8,0:2:0:0:
448,192,100473,1,0,0:0:0:0:
64,192,100639,1,2,0:2:0:0:
192,192,100639,1,0,0:0:0:0:
64,192,100806,1,8,0:2:0:0:
320,192,100806,1,0,0:0:0:0:
64,192,100973,1,2,0:2:0:0:
192,192,100973,1,4,0:2:0:0:
448,192,100973,1,0,0:0:0:0:
320,192,101139,1,0,0:0:0:0:
192,192,101223,1,0,0:0:0:0:
64,192,101306,1,8,0:2:0:0:
448,192,101306,1,0,0:0:0:0:
320,192,101473,1,0,0:0:0:0:
320,192,101639,1,2,0:2:0:0:
64,192,101806,1,8,0:1:0:0:
448,192,101806,1,0,0:0:0:0:
64,192,101973,128,8,102139:0:2:0:0:
448,192,101973,128,8,102139:0:1:0:0:
192,192,102306,1,2,0:2:0:0:
320,192,102306,1,0,0:0:0:0:
64,192,102473,1,0,0:0:0:0:
192,192,102556,1,0,0:0:0:0:
320,192,102639,1,8,0:2:0:0:
448,192,102639,1,0,0:0:0:0:
192,192,102806,1,0,0:0:0:0:
192,192,102973,1,2,0:2:0:0:
64,192,103139,1,8,0:1:0:0:
448,192,103139,1,0,0:0:0:0:
64,192,103306,128,8,103473:0:1:0:0:
448,192,103306,128,8,103473:0:2:0:0:
64,192,103639,1,2,0:2:0:0:
192,192,103639,1,0,0:0:0:0:
64,192,103806,1,8,0:2:0:0:
320,192,103806,1,0,0:0:0:0:
320,192,103973,1,2,0:2:0:0:
448,192,103973,1,0,0:0:0:0:
192,192,104139,1,8,0:2:0:0:
448,192,104139,1,0,0:0:0:0:
64,192,104306,1,2,0:2:0:0:
192,192,104306,1,0,0:0:0:0:
64,192,104473,1,8,0:2:0:0:
448,192,104473,1,0,0:0:0:0:
192,192,104639,1,2,0:2:0:0:
320,192,104639,1,0,0:0:0:70:tom5.wav
64,192,104806,1,8,0:2:0:0:
448,192,104806,128,0,106306:0:0:0:0:
192,192,104973,1,0,0:0:0:70:tom5.wav
320,192,104973,1,2,0:2:0:0:
64,192,105306,1,8,0:2:0:0:
320,192,105306,1,0,0:0:0:0:
192,192,105473,1,0,0:0:0:0:
192,192,105639,1,2,0:2:0:0:
64,192,105973,1,8,0:2:0:0:
320,192,105973,1,0,0:0:0:0:
192,192,106306,128,2,106973:0:2:0:0:
64,192,106639,1,8,0:2:0:0:
320,192,106639,1,0,0:0:0:70:LR_Drum EDge.wav
64,192,106973,1,2,0:2:0:0:
448,192,106973,1,0,0:0:0:0:
192,192,107139,1,2,0:2:0:0:
320,192,107139,1,0,0:0:0:0:
320,192,107306,1,8,0:2:0:0:
448,192,107306,1,0,0:0:0:0:
64,192,107473,1,2,0:2:0:0:
448,192,107473,1,0,0:0:0:0:
64,192,107806,1,2,0:2:0:0:
448,192,107806,1,0,0:0:0:0:
192,192,107973,1,2,0:2:0:0:
320,192,107973,1,0,0:0:0:0:
64,192,108139,1,2,0:2:0:0:
192,192,108139,1,0,0:0:0:0:
64,192,108306,1,2,0:2:0:0:
448,192,108306,1,0,0:0:0:0:
192,192,108639,1,8,0:1:0:0:
320,192,108639,1,0,0:0:0:0:
64,192,108973,128,4,109639:0:2:0:0:
448,192,108973,1,2,0:2:0:0:
320,192,109306,1,2,0:3:0:0:
448,192,109306,1,0,0:0:0:70:LR_Drum EDge.wav
448,192,109639,128,2,110139:0:3:0:0:
192,192,109806,1,2,0:3:0:0:
64,192,109973,1,2,0:3:0:0:
320,192,109973,1,0,0:0:0:70:LR_Drum EDge.wav
192,192,110139,128,2,110806:0:3:0:0:
448,192,110306,1,2,0:3:0:0:
320,192,110473,1,2,0:3:0:0:
64,192,110639,1,2,0:3:0:0:
448,192,110639,1,0,0:0:0:70:LR_Drum EDge.wav
320,192,110806,128,2,111306:0:3:0:0:
64,192,110973,1,2,0:3:0:0:
192,192,111139,1,2,0:3:0:0:
64,192,111306,128,2,111639:0:3:0:0:
448,192,111306,1,0,0:0:0:70:LR_Drum EDge.wav
192,192,111473,1,2,0:3:0:0:
448,192,111639,128,2,112306:0:3:0:0:
64,192,111806,1,2,0:3:0:0:
192,192,111973,1,2,0:3:0:0:
320,192,111973,1,0,0:0:0:70:LR_Drum EDge.wav
64,192,112139,1,2,0:3:0:0:
192,192,112306,128,2,112806:0:3:0:0:
320,192,112473,1,2,0:3:0:0:
64,192,112639,1,2,0:3:0:0:
448,192,112639,1,0,0:0:0:70:LR_Drum EDge.wav
320,192,112806,128,4,113139:0:2:0:0:
448,192,112806,1,0,0:0:0:0:
64,192,113139,1,8,0:2:0:0:
192,192,113139,1,0,0:0:0:0:
320,192,113306,1,8,0:2:0:0:
448,192,113306,1,0,0:0:0:0:
64,192,113473,1,8,0:2:0:0:
192,192,113473,1,0,0:0:0:0:
320,192,113639,1,8,0:2:0:0:
448,192,113639,1,0,0:0:0:0:
192,192,113723,1,8,0:2:0:0:
320,192,113806,1,8,0:2:0:0:
448,192,113889,1,8,0:2:0:0:
64,192,113973,1,8,0:2:0:0:
192,192,113973,1,0,0:0:0:0:
320,192,114056,1,8,0:2:0:0:
192,192,114139,1,8,0:2:0:0:
64,192,114223,1,8,0:2:0:0:
320,192,114306,1,4,0:2:0:0:
448,192,114306,128,0,114473:0:0:0:0:
64,192,114473,1,0,0:0:0:0:
320,192,114639,128,2,114806:0:3:0:0:
448,192,114639,1,0,0:0:0:70:LR_Drum EDge.wav
192,192,114806,1,2,0:3:0:0:
64,192,114973,128,2,115139:0:3:0:0:
320,192,115139,1,2,0:3:0:0:
64,192,115306,1,2,0:3:0:0:
192,192,115306,128,0,115473:0:0:0:70:LR_Drum EDge.wav
448,192,115473,128,2,115806:0:3:0:0:
320,192,115639,1,2,0:3:0:0:
192,192,115806,1,2,0:3:0:0:
320,192,115973,128,2,116139:0:3:0:0:
448,192,115973,1,0,0:0:0:70:LR_Drum EDge.wav
64,192,116139,128,2,116473:0:3:0:0:
192,192,116306,1,2,0:3:0:0:
320,192,116473,1,2,0:3:0:0:
64,192,116639,1,2,0:3:0:0:
192,192,116639,128,0,116806:0:0:0:70:LR_Drum EDge.wav
320,192,116806,1,2,0:3:0:0:
448,192,116973,128,2,117139:0:3:0:0:
64,192,117139,1,2,0:3:0:0:
192,192,117306,128,2,117473:0:3:0:0:
320,192,117306,1,0,0:0:0:70:LR_Drum EDge.wav
448,192,117473,1,2,0:3:0:0:
320,192,117639,128,2,117806:0:3:0:0:
192,192,117806,1,2,0:3:0:0:
64,192,117973,128,2,118139:0:3:0:0:
320,192,117973,1,0,0:0:0:70:LR_Drum EDge.wav
192,192,118139,1,4,0:2:0:0:
448,192,118139,1,0,0:0:0:0:
320,192,118473,1,2,0:2:0:0:
448,192,118473,1,0,0:0:0:0:
64,192,118639,1,8,0:2:0:0:
192,192,118639,1,0,0:0:0:0:
320,192,118806,1,2,0:2:0:0:
448,192,118806,1,0,0:0:0:0:
64,192,118973,1,2,0:2:0:0:
192,192,118973,1,0,0:0:0:0:
448,192,119056,1,2,0:2:0:0:
320,192,119139,1,8,0:2:0:0:
192,192,119223,1,8,0:2:0:0:
64,192,119306,1,8,0:2:0:0:
448,192,119306,1,0,0:0:0:0:
192,192,119473,1,8,0:2:0:0:
320,192,119556,1,8,0:2:0:0:
64,192,119639,1,2,0:2:0:0:
192,192,119639,1,4,0:2:0:0:
448,192,119639,1,0,0:0:0:0:
64,192,119806,1,2,0:3:0:0:
192,192,119973,1,8,0:2:0:0:
448,192,119973,1,0,0:0:0:0:
64,192,120139,1,2,0:3:0:0:
320,192,120306,1,2,0:2:0:0:
448,192,120306,1,0,0:0:0:0:
64,192,120473,1,2,0:3:0:0:
192,192,120639,1,8,0:2:0:0:
448,192,120639,1,0,0:0:0:0:
64,192,120806,1,2,0:3:0:0:
320,192,120973,1,2,0:2:0:0:
448,192,120973,1,0,0:0:0:0:
64,192,121139,1,2,0:3:0:0:
192,192,121306,1,4,0:2:0:0:
448,192,121306,1,8,0:2:0:0:
64,192,121639,1,4,0:2:0:0:
320,192,121639,1,8,0:2:0:0:
64,192,121973,1,4,0:2:0:0:
192,192,121973,1,8,0:2:0:0:
448,192,121973,1,0,0:0:0:0:
64,192,122306,1,2,0:2:0:0:
320,192,122306,1,4,0:2:0:0:
448,192,122306,1,0,0:0:0:0:
192,192,122473,1,2,0:3:0:0:
64,192,122639,1,8,0:2:0:0:
448,192,122639,1,0,0:0:0:0:
192,192,122806,1,2,0:3:0:0:
320,192,122973,1,2,0:2:0:0:
448,192,122973,1,0,0:0:0:0:
192,192,123139,1,2,0:3:0:0:
64,192,123306,1,8,0:2:0:0:
448,192,123306,1,0,0:0:0:0:
192,192,123473,1,2,0:3:0:0:
320,192,123639,1,2,0:2:0:0:
448,192,123639,1,0,0:0:0:0:
192,192,123806,1,2,0:2:0:0:
64,192,123973,1,8,0:2:0:0:
320,192,123973,1,0,0:0:0:0:
320,192,124139,1,2,0:2:0:0:
192,192,124306,1,8,0:2:0:0:
448,192,124306,1,0,0:0:0:0:
192,192,124473,1,2,0:2:0:0:
64,192,124639,1,4,0:2:0:0:
320,192,124639,1,8,0:2:0:0:
320,192,124806,1,8,0:2:0:0:
64,192,124973,1,4,0:2:0:0:
192,192,124973,1,2,0:2:0:0:
448,192,124973,1,0,0:0:0:0:
320,192,125139,1,2,0:3:0:0:
64,192,125306,1,8,0:2:0:0:
448,192,125306,1,0,0:0:0:0:
320,192,125473,1,2,0:3:0:0:
64,192,125639,1,2,0:2:0:0:
192,192,125639,1,0,0:0:0:0:
320,192,125806,1,2,0:3:0:0:
64,192,125973,1,8,0:2:0:0:
448,192,125973,1,0,0:0:0:0:
320,192,126139,1,2,0:3:0:0:
64,192,126306,1,2,0:2:0:0:
192,192,126306,1,0,0:0:0:0:
448,192,126473,1,2,0:3:0:0:
64,192,126639,1,4,0:2:0:0:
320,192,126639,1,8,0:2:0:0:
192,192,126973,1,4,0:2:0:0:
448,192,126973,1,8,0:2:0:0:
64,192,127306,1,4,0:2:0:0:
320,192,127306,1,8,0:2:0:0:
448,192,127306,1,0,0:0:0:0:
64,192,127639,1,2,0:2:0:0:
192,192,127639,1,4,0:2:0:0:
448,192,127806,1,2,0:3:0:0:
64,192,127973,1,8,0:2:0:0:
320,192,127973,1,0,0:0:0:0:
448,192,128139,1,2,0:3:0:0:
64,192,128306,1,2,0:2:0:0:
192,192,128306,1,0,0:0:0:0:
448,192,128473,1,2,0:3:0:0:
192,192,128639,1,8,0:2:0:0:
320,192,128639,1,0,0:0:0:0:
64,192,128806,128,4,128973:0:2:0:0:
448,192,128806,1,0,0:0:0:0:
320,192,128973,1,2,0:2:0:0:
64,192,129139,1,0,0:0:0:0:
320,192,129306,1,8,0:2:0:0:
448,192,129306,1,0,0:0:0:0:
64,192,129389,1,8,0:2:0:0:
192,192,129473,1,8,0:2:0:0:
320,192,129556,1,8,0:2:0:0:
64,192,129639,1,2,0:2:0:0:
192,192,129639,1,8,0:2:0:0:
448,192,129723,1,8,0:2:0:0:
320,192,129806,1,8,0:2:0:0:
192,192,129889,1,8,0:2:0:0:
320,192,129973,1,2,0:2:0:0:
448,192,129973,1,8,0:2:0:0:
64,192,130056,1,8,0:2:0:0:
192,192,130139,1,8,0:2:0:0:
320,192,130223,1,8,0:2:0:0:
64,192,130306,1,4,0:2:0:0:
192,192,130306,1,2,0:2:0:0:
448,192,130306,128,0,131639:0:0:0:0:
320,192,130473,1,0,0:0:0:70:ride.wav
192,192,130639,1,0,0:0:0:70:ride.wav
64,192,130806,1,2,0:2:0:0:
320,192,130973,1,0,0:0:0:70:ride.wav
192,192,131139,1,2,0:2:0:0:
64,192,131306,1,8,0:2:0:0:
320,192,131306,1,0,0:0:0:70:ride.wav
64,192,131639,128,2,132973:0:2:0:0:
320,192,131639,1,0,0:0:0:70:ride.wav
192,192,131806,1,0,0:0:0:70:ride.wav
448,192,131973,1,0,0:0:0:70:ride.wav
320,192,132139,1,2,0:2:0:0:
192,192,132306,1,0,0:0:0:70:ride.wav
448,192,132473,1,2,0:2:0:0:
192,192,132639,1,8,0:2:0:0:
320,192,132639,1,0,0:0:0:70:LR_Drum EDge.wav
192,192,132973,128,2,134306:0:2:0:0:
448,192,132973,1,0,0:0:0:70:ride.wav
320,192,133139,1,0,0:0:0:70:ride.wav
64,192,133306,1,0,0:0:0:70:ride.wav
320,192,133473,1,2,0:2:0:0:
448,192,133639,1,0,0:0:0:70:ride.wav
64,192,133806,1,2,0:2:0:0:
320,192,133973,1,8,0:2:0:0:
448,192,133973,1,0,0:0:0:70:ride.wav
64,192,134306,1,2,0:2:0:0:
320,192,134306,128,0,135139:0:0:0:70:ride.wav
448,192,134473,1,0,0:0:0:70:ride.wav
64,192,134639,1,0,0:0:0:70:ride.wav
192,192,134806,1,2,0:2:0:0:
448,192,134973,1,0,0:0:0:70:ride.wav
64,192,135139,1,0,0:0:0:70:ride.wav
192,192,135139,1,2,0:2:0:0:
64,192,135306,1,8,0:2:0:0:
448,192,135306,1,0,0:0:0:70:LR_Drum EDge.wav
64,192,135639,1,2,0:2:0:0:
320,192,135639,1,4,0:2:0:0:
448,192,135639,1,0,0:0:0:0:
192,192,135806,1,0,0:0:0:0:
64,192,135973,1,8,0:2:0:0:
448,192,135973,128,0,136139:0:0:0:0:
320,192,136139,1,2,0:3:0:0:
192,192,136306,1,2,0:2:0:0:
448,192,136306,128,0,136473:0:0:0:0:
320,192,136473,1,2,0:3:0:0:
64,192,136639,1,8,0:2:0:0:
448,192,136639,1,0,0:0:0:0:
192,192,136806,1,2,0:3:0:0:
320,192,136973,1,2,0:2:0:0:
448,192,136973,1,0,0:0:0:0:
192,192,137139,1,2,0:3:0:0:
64,192,137306,128,8,137473:0:2:0:0:
320,192,137306,1,0,0:0:0:0:
192,192,137473,1,2,0:3:0:0:
64,192,137639,128,2,137806:0:2:0:0:
448,192,137639,1,0,0:0:0:0:
320,192,137806,1,2,0:3:0:0:
192,192,137973,1,8,0:2:0:0:
448,192,137973,1,0,0:0:0:0:
320,192,138139,1,2,0:3:0:0:
64,192,138306,1,2,0:2:0:0:
192,192,138306,1,0,0:0:0:0:
448,192,138473,1,2,0:3:0:0:
64,192,138639,1,8,0:2:0:0:
320,192,138639,128,0,138806:0:0:0:0:
192,192,138806,1,2,0:3:0:0:
320,192,138973,128,2,139139:0:2:0:0:
448,192,138973,1,0,0:0:0:0:
64,192,139139,1,0,0:0:0:0:
192,192,139306,1,8,0:2:0:0:
448,192,139306,1,2,0:3:0:0:
320,192,139473,1,0,0:0:0:0:
64,192,139639,1,2,0:2:0:0:
192,192,139639,1,0,0:0:0:0:
64,192,139806,1,0,0:0:0:0:
320,192,139973,1,8,0:2:0:0:
448,192,139973,1,0,0:0:0:0:
64,192,140056,1,8,0:2:0:0:
192,192,140139,1,8,0:2:0:0:
320,192,140223,1,8,0:2:0:0:
64,192,140306,1,8,0:2:0:0:
448,192,140306,1,2,0:2:0:0:
192,192,140389,1,8,0:2:0:0:
320,192,140473,1,8,0:2:0:0:
448,192,140556,1,8,0:2:0:0:
64,192,140639,1,8,0:2:0:0:
192,192,140639,1,0,0:0:0:0:
448,192,140723,1,8,0:2:0:0:
320,192,140806,1,8,0:2:0:0:
192,192,140889,1,8,0:2:0:0:
64,192,140973,1,0,0:0:0:0:
320,192,141139,1,2,0:3:0:0:
64,192,141306,1,0,0:0:0:0:
192,192,141473,1,2,0:3:0:0:
448,192,141639,1,0,0:0:0:0:
320,192,141806,1,2,0:3:0:0:
192,192,141973,1,0,0:0:0:0:
64,192,142139,1,2,0:3:0:0:
320,192,142306,1,0,0:0:0:0:
448,192,142473,1,2,0:3:0:0:
64,192,142639,1,0,0:0:0:0:
192,192,142806,1,2,0:3:0:0:
448,192,142973,1,0,0:0:0:0:
320,192,143139,1,2,0:3:0:0:
64,192,143306,128,0,143473:0:0:0:0:
192,192,143473,128,2,143639:0:3:0:0:
448,192,143639,128,0,143806:0:0:0:0:
320,192,143806,128,2,143973:0:3:0:0:
64,192,143973,128,0,144139:0:0:0:0:
192,192,144139,128,2,144306:0:3:0:0:
448,192,144306,128,0,144473:0:0:0:0:
192,192,144473,128,2,144639:0:3:0:0:
320,192,144639,128,0,144806:0:0:0:0:
64,192,144806,128,2,144973:0:3:0:0:
320,192,144973,128,0,147139:0:0:0:0:
64,192,147139,1,8,0:1:0:0:
448,192,147139,1,0,0:0:0:0:
64,192,147306,1,8,0:1:0:0:
448,192,147306,1,0,0:0:0:0:
64,192,147639,128,2,147806:0:2:0:0:
192,192,147639,1,4,0:2:0:0:
448,192,147639,1,0,0:0:0:0:
320,192,147806,1,2,0:3:0:0:
64,192,147973,1,8,0:2:0:0:
448,192,147973,128,0,148139:0:0:0:0:
320,192,148139,1,2,0:3:0:0:
64,192,148306,1,2,0:2:0:0:
192,192,148306,128,0,148473:0:0:0:0:
448,192,148473,1,2,0:3:0:0:
64,192,148639,1,8,0:2:0:0:
320,192,148639,128,0,148806:0:0:0:0:
192,192,148806,128,2,148973:0:3:0:0:
320,192,148973,1,2,0:2:0:0:
448,192,148973,1,0,0:0:0:0:
192,192,149139,1,2,0:3:0:0:
320,192,149223,1,0,0:0:0:0:
64,192,149306,1,8,0:2:0:0:
448,192,149306,1,0,0:0:0:0:
320,192,149473,128,2,149806:0:3:0:0:
64,192,149639,128,2,149806:0:2:0:0:
448,192,149639,1,0,0:0:0:0:
192,192,149806,128,2,149973:0:3:0:0:
64,192,149973,1,8,0:2:0:0:
448,192,149973,1,0,0:0:0:0:
64,192,150139,128,2,150306:0:3:0:0:
320,192,150306,1,2,0:2:0:0:
448,192,150306,1,0,0:0:0:0:
448,192,150473,128,2,150639:0:3:0:0:
64,192,150639,1,8,0:2:0:0:
192,192,150639,1,0,0:0:0:0:
64,192,150806,128,2,150973:0:3:0:0:
192,192,150973,1,2,0:2:0:0:
448,192,150973,1,0,0:0:0:0:
448,192,151139,128,2,151306:0:3:0:0:
64,192,151306,1,8,0:2:0:0:
320,192,151306,1,0,0:0:0:0:
64,192,151473,128,2,151639:0:3:0:0:
320,192,151639,1,2,0:2:0:0:
448,192,151639,1,0,0:0:0:0:
64,192,151806,1,2,0:2:0:0:
192,192,151806,1,0,0:0:0:0:
192,192,152473,1,8,0:2:0:0:
320,192,152473,1,0,0:0:0:0:
64,192,152639,1,2,0:2:0:0:
448,192,152639,1,0,0:0:0:70:tom5.wav
64,192,152806,1,2,0:2:0:0:
448,192,152806,1,0,0:0:0:70:tom5.wav
64,192,152973,1,2,0:2:0:0:
192,192,152973,1,4,0:2:0:0:
320,192,152973,1,0,0:0:0:0:
192,192,153139,1,0,0:0:0:0:
64,192,153306,1,8,0:2:0:0:
448,192,153306,1,0,0:0:0:0:
320,192,153473,1,2,0:3:0:0:
64,192,153639,1,2,0:2:0:0:
192,192,153639,128,0,153806:0:0:0:0:
320,192,153806,128,2,153973:0:3:0:0:
64,192,153973,1,8,0:2:0:0:
448,192,153973,1,0,0:0:0:0:
192,192,154139,128,2,154306:0:3:0:0:
320,192,154306,1,2,0:2:0:0:
448,192,154306,1,0,0:0:0:0:
448,192,154473,128,2,154639:0:3:0:0:
64,192,154639,1,8,0:2:0:0:
192,192,154639,1,0,0:0:0:0:
320,192,154806,128,2,154973:0:3:0:0:
448,192,154973,1,2,0:2:0:0:
192,192,155139,128,2,155306:0:3:0:0:
320,192,155306,128,8,155473:0:2:0:0:
448,192,155306,1,0,0:0:0:0:
64,192,155473,128,2,155639:0:3:0:0:
320,192,155639,1,2,0:2:0:0:
448,192,155639,128,0,155806:0:0:0:0:
320,192,155973,1,8,0:2:0:0:
448,192,155973,128,0,156139:0:0:0:0:
64,192,156306,1,2,0:2:0:0:
192,192,156306,1,0,0:0:0:0:
320,192,156473,1,2,0:2:0:0:
448,192,156473,1,0,0:0:0:0:
64,192,156639,1,2,0:2:0:0:
192,192,156639,1,0,0:0:0:0:
64,192,156806,1,2,0:2:0:0:
320,192,156806,1,4,0:2:0:0:
448,192,156806,1,0,0:0:0:70:tom1.wav
64,192,157139,1,2,0:2:0:0:
192,192,157139,1,0,0:0:0:70:tom4.wav
64,192,157306,1,8,0:2:0:0:
320,192,157306,1,0,0:0:0:0:
320,192,157473,1,2,0:2:0:0:
448,192,157473,1,0,0:0:0:70:tom5.wav
192,192,157639,1,8,0:2:0:0:
448,192,157639,1,0,0:0:0:0:
192,192,157806,1,2,0:2:0:0:
320,192,157806,1,0,0:0:0:0:
192,192,157973,128,2,158139:0:2:0:0:
320,192,157973,128,0,158139:0:0:0:0:
64,192,158306,1,4,0:2:0:0:
320,192,158306,1,2,0:2:0:0:
448,192,158306,128,0,158473:0:0:0:0:
192,192,158473,1,2,0:3:0:0:
64,192,158639,128,8,158806:0:2:0:0:
448,192,158639,1,0,0:0:0:0:
192,192,158806,1,2,0:3:0:0:
320,192,158973,128,2,159139:0:2:0:0:
448,192,158973,1,0,0:0:0:0:
64,192,159139,1,2,0:3:0:0:
192,192,159306,128,8,159473:0:2:0:0:
448,192,159306,1,0,0:0:0:0:
320,192,159473,128,2,159639:0:3:0:0:
64,192,159639,1,2,0:2:0:0:
192,192,159639,1,0,0:0:0:0:
320,192,159806,1,2,0:3:0:0:
64,192,159973,1,8,0:2:0:0:
448,192,159973,1,0,0:0:0:0:
192,192,160139,128,2,160473:0:3:0:0:
448,192,160306,128,2,160473:0:2:0:0:
64,192,160473,1,2,0:3:0:0:
320,192,160473,128,0,160639:0:0:0:0:
64,192,160639,1,8,0:2:0:0:
448,192,160639,1,0,0:0:0:0:
448,192,160806,128,2,160973:0:3:0:0:
64,192,160973,1,2,0:2:0:0:
192,192,160973,1,0,0:0:0:0:
64,192,161139,128,2,161306:0:3:0:0:
320,192,161306,1,8,0:2:0:0:
448,192,161306,1,0,0:0:0:0:
448,192,161473,128,2,161639:0:3:0:0:
64,192,161639,1,2,0:2:0:0:
320,192,161639,1,0,0:0:0:0:
64,192,161806,128,2,161973:0:3:0:0:
192,192,161973,1,8,0:2:0:0:
448,192,161973,1,0,0:0:0:0:
448,192,162139,128,2,162306:0:3:0:0:
64,192,162306,1,8,0:2:0:0:
192,192,162306,1,0,0:0:0:0:
320,192,162473,1,0,0:0:0:0:
64,192,162556,1,4,0:2:0:0:
192,192,162556,1,8,0:2:0:0:
320,192,162639,1,2,0:2:0:0:
448,192,162639,1,0,0:0:0:0:
192,192,162806,1,8,0:2:0:0:
320,192,162806,1,0,0:0:0:0:
64,192,162973,1,2,0:2:0:0:
448,192,162973,1,0,0:0:0:0:
192,192,163056,1,8,0:2:0:0:
320,192,163139,1,8,0:2:0:0:
64,192,163306,1,8,0:2:0:0:
192,192,163306,1,0,0:0:0:0:
448,192,163389,1,8,0:2:0:0:
320,192,163473,1,8,0:2:0:0:
192,192,163556,1,8,0:2:0:0:
64,192,163639,1,2,0:2:0:0:
320,192,163639,1,4,0:2:0:0:
448,192,163639,1,0,0:0:0:0:
320,192,163806,1,0,0:0:0:0:
64,192,163973,1,8,0:2:0:0:
448,192,163973,1,0,0:0:0:0:
192,192,164139,1,2,0:3:0:0:
320,192,164306,128,2,164473:0:2:0:0:
448,192,164306,1,0,0:0:0:0:
192,192,164473,128,2,164639:0:3:0:0:
64,192,164639,1,8,0:2:0:0:
448,192,164639,1,0,0:0:0:0:
320,192,164806,128,2,164973:0:3:0:0:
64,192,164973,1,2,0:2:0:0:
192,192,164973,1,0,0:0:0:0:
64,192,165139,128,2,165306:0:3:0:0:
320,192,165306,1,8,0:2:0:0:
448,192,165306,1,0,0:0:0:0:
192,192,165473,128,2,165639:0:3:0:0:
64,192,165639,1,2,0:2:0:0:
320,192,165806,128,2,165973:0:3:0:0:
64,192,165973,1,8,0:2:0:0:
192,192,165973,128,0,166139:0:0:0:0:
448,192,166139,128,2,166306:0:3:0:0:
64,192,166306,128,2,166473:0:2:0:0:
192,192,166306,1,0,0:0:0:0:
64,192,166639,1,8,0:2:0:0:
320,192,166639,128,0,166806:0:0:0:0:
320,192,166973,1,2,0:2:0:0:
448,192,166973,1,0,0:0:0:0:
64,192,167139,1,2,0:2:0:0:
192,192,167139,1,0,0:0:0:0:
320,192,167306,1,2,0:2:0:0:
448,192,167306,1,0,0:0:0:0:
64,192,167473,1,4,0:2:0:0:
192,192,167473,128,2,167639:0:2:0:0:
448,192,167473,1,0,0:0:0:70:tom1.wav
64,192,167806,1,2,0:2:0:0:
320,192,167806,128,0,167973:0:0:0:70:LR_Drum EDge.wav
192,192,168139,1,2,0:2:0:0:
448,192,168139,128,0,168306:0:0:0:70:tom5.wav
192,192,168473,1,8,0:2:0:0:
320,192,168473,1,0,0:0:0:0:
192,192,168639,128,8,168973:0:2:0:0:
320,192,168639,128,0,168973:0:0:0:0:
64,192,168973,128,8,169139:0:2:0:0:
448,192,168973,1,0,0:0:0:0:
448,192,169139,128,0,169306:0:0:0:0:
64,192,169306,128,2,169473:0:2:0:0:
192,192,169473,1,8,0:2:0:0:
448,192,169473,128,0,169639:0:0:0:0:
320,192,169639,1,2,0:2:0:0:
64,192,169806,1,8,0:2:0:0:
192,192,169806,128,0,169973:0:0:0:0:
320,192,169973,128,2,170139:0:2:0:0:
64,192,170139,128,8,170306:0:2:0:0:
448,192,170139,1,0,0:0:0:0:
192,192,170306,1,2,0:2:0:0:
320,192,170473,1,8,0:2:0:0:
448,192,170473,128,0,170639:0:0:0:0:
64,192,170639,128,2,170806:0:2:0:0:
192,192,170806,1,8,0:2:0:0:
320,192,170806,128,0,170973:0:0:0:0:
64,192,170973,1,4,0:2:0:0:
448,192,170973,1,8,0:2:0:0:
192,192,171306,1,4,0:2:0:0:
320,192,171306,1,8,0:2:0:0:
64,192,171639,1,4,0:2:0:0:
192,192,171639,1,2,0:2:0:0:
448,192,171639,1,0,0:0:0:0:
64,192,171973,1,8,0:2:0:0:
320,192,171973,1,4,0:2:0:0:
448,192,171973,1,0,0:0:0:0:
64,192,172306,1,2,0:2:0:0:
192,192,172306,1,0,0:0:0:0:
320,192,172473,1,2,0:2:0:0:
448,192,172473,1,0,0:0:0:0:
64,192,172806,1,8,0:2:0:0:
192,192,172806,1,4,0:2:0:0:
448,192,172806,128,0,173973:0:0:0:0:
64,192,173473,1,2,0:3:0:0:
192,192,173639,1,0,0:0:0:0:
320,192,173806,1,2,0:3:0:0:
64,192,173973,128,0,174139:0:0:0:0:
192,192,174139,128,2,174306:0:3:0:0:
448,192,174306,128,0,174639:0:0:0:0:
320,192,174473,1,2,0:3:0:0:
64,192,174639,1,0,0:0:0:0:
192,192,174751,1,0,0:0:0:0:
320,192,174825,128,0,174973:0:0:0:0:
64,192,174973,128,0,175306:0:0:0:0:
192,192,175139,1,2,0:3:0:0:
448,192,175306,128,0,175473:0:0:0:0:
320,192,175473,128,2,175806:0:3:0:0:
192,192,175639,1,0,0:0:0:0:
64,192,175806,128,2,175973:0:3:0:0:
192,192,175973,128,0,176139:0:0:0:0:
448,192,176139,128,2,176306:0:3:0:0:
320,192,176306,128,0,176473:0:0:0:0:
192,192,176473,128,2,176639:0:3:0:0:
64,192,176639,128,0,176806:0:0:0:0:
320,192,176806,128,2,177139:0:3:0:0:
448,192,177139,128,2,177306:0:3:0:0:
64,192,177306,128,0,177473:0:0:0:0:
192,192,177473,128,2,177639:0:3:0:0:
448,192,177639,128,0,177806:0:0:0:0:
320,192,177806,128,2,177973:0:3:0:0:
192,192,177973,1,0,0:0:0:0:
64,192,178139,1,2,0:3:0:0:
192,192,178306,1,2,0:2:0:0:
320,192,178306,1,4,0:2:0:0:
448,192,178306,1,0,0:0:0:0:
320,192,178473,1,2,0:2:0:0:
448,192,178473,1,0,0:0:0:0:
64,192,178639,1,8,0:2:0:0:
192,192,178639,1,0,0:0:0:0:
448,192,178806,1,0,0:0:0:0:
64,192,178973,1,2,0:2:0:0:
192,192,178973,1,0,0:0:0:0:
64,192,179139,1,2,0:2:0:0:
192,192,179139,1,0,0:0:0:0:
320,192,179306,1,8,0:2:0:0:
448,192,179306,1,0,0:0:0:0:
64,192,179473,1,0,0:0:0:0:
192,192,179639,1,2,0:2:0:0:
448,192,179639,1,0,0:0:0:0:
192,192,179806,1,2,0:2:0:0:
448,192,179806,1,0,0:0:0:0:
64,192,179973,1,8,0:2:0:0:
320,192,179973,1,0,0:0:0:0:
192,192,180139,1,2,0:2:0:0:
448,192,180139,1,0,0:0:0:0:
192,192,180473,1,2,0:2:0:0:
448,192,180473,1,0,0:0:0:0:
64,192,180639,1,8,0:2:0:0:
320,192,180639,1,0,0:0:0:0:
192,192,180806,1,2,0:2:0:0:
448,192,180806,1,0,0:0:0:0:
64,192,180973,1,2,0:2:0:0:
448,192,180973,1,0,0:0:0:0:
192,192,181139,1,2,0:3:0:0:
64,192,181306,1,8,0:2:0:0:
320,192,181306,1,0,0:0:0:0:
64,192,181473,1,2,0:3:0:0:
320,192,181639,1,2,0:2:0:0:
448,192,181639,1,0,0:0:0:0:
448,192,181806,1,2,0:3:0:0:
64,192,181973,1,8,0:2:0:0:
192,192,181973,1,0,0:0:0:0:
320,192,182139,1,2,0:3:0:0:
64,192,182306,1,2,0:2:0:0:
448,192,182306,1,0,0:0:0:0:
192,192,182473,1,8,0:2:0:0:
320,192,182473,1,0,0:0:0:0:
64,192,182639,1,2,0:2:0:0:
448,192,182639,1,0,0:0:0:0:
320,192,182806,1,0,0:0:0:0:
64,192,182973,1,8,0:2:0:0:
448,192,182973,1,0,0:0:0:0:
192,192,183056,1,8,0:2:0:0:
320,192,183139,1,8,0:2:0:0:
448,192,183223,1,8,0:2:0:0:
192,192,183306,1,8,0:2:0:0:
320,192,183389,1,8,0:2:0:0:
192,192,183473,1,8,0:2:0:0:
320,192,183556,1,8,0:2:0:0:
64,192,183639,128,2,183806:0:2:0:0:
192,192,183639,1,0,0:0:0:0:
448,192,183806,1,0,0:0:0:0:
192,192,183973,128,0,184139:0:0:0:0:
320,192,184139,1,0,0:0:0:0:
64,192,184306,1,0,0:0:0:70:LR_Drum EDge.wav
448,192,184306,128,0,184473:0:0:0:0:
320,192,184473,128,0,184639:0:0:0:0:
192,192,184639,128,0,184806:0:0:0:0:
64,192,184806,128,0,184973:0:0:0:0:
320,192,184973,1,2,0:2:0:0:
448,192,184973,128,0,185139:0:0:0:0:
64,192,185139,1,0,0:0:0:0:
320,192,185306,128,2,185473:0:2:0:0:
448,192,185306,1,0,0:0:0:0:
192,192,185473,1,0,0:0:0:0:
64,192,185639,128,0,185806:0:0:0:70:LR_Drum EDge.wav
448,192,185639,1,0,0:0:0:0:
192,192,185806,128,0,185973:0:0:0:0:
320,192,185973,128,0,186139:0:0:0:0:
448,192,186139,128,0,186306:0:0:0:0:
64,192,186306,1,2,0:2:0:0:
192,192,186306,1,4,0:2:0:0:
320,192,186306,1,0,0:0:0:0:
64,192,186639,1,8,0:2:0:0:
320,192,186639,1,4,0:2:0:0:
448,192,186639,1,0,0:0:0:0:
448,192,186889,1,8,0:2:0:0:
192,192,186973,1,2,0:2:0:0:
320,192,186973,1,4,0:2:0:0:
64,192,187056,1,8,0:2:0:0:
64,192,187306,1,8,0:2:0:0:
320,192,187306,1,4,0:2:0:0:
448,192,187306,1,0,0:0:0:0:
192,192,187473,1,8,0:2:0:0:
320,192,187556,1,8,0:2:0:0:
448,192,187639,1,10,0:2:0:0:
64,192,187723,1,8,0:2:0:0:
448,192,187806,1,10,0:2:0:0:
64,192,187889,1,8,0:2:0:0:
448,192,187973,1,10,0:2:0:0:
320,192,188056,1,8,0:2:0:0:
192,192,188139,1,2,0:2:0:0:
448,192,188223,1,0,0:0:0:70:tom1.wav
320,192,188306,1,0,0:0:0:70:tom1.wav
192,192,188389,1,0,0:0:0:70:tom1.wav
64,192,188473,1,0,0:0:0:70:tom4.wav
320,192,188556,1,0,0:0:0:70:tom4.wav
448,192,188639,1,0,0:0:0:70:tom4.wav
64,192,188723,1,0,0:0:0:70:tom5.wav
192,192,188806,1,0,0:0:0:70:tom5.wav
320,192,188889,1,0,0:0:0:70:tom5.wav
448,192,188973,1,2,0:3:0:0:
64,192,189306,1,2,0:3:0:0:
320,192,189473,1,2,0:3:0:0:
64,192,189639,1,0,0:0:0:70:LR_Drum EDge.wav
448,192,189639,1,0,0:0:0:0:
448,192,189973,1,2,0:3:0:0:
192,192,190139,1,2,0:3:0:0:
320,192,190306,1,2,0:2:0:0:
448,192,190306,1,0,0:0:0:0:
64,192,190639,1,2,0:3:0:0:
192,192,190639,1,2,0:2:0:0:
64,192,190973,1,0,0:0:0:70:LR_Drum EDge.wav
448,192,190973,1,0,0:0:0:0:
448,192,191139,128,2,191306:0:2:0:0:
64,192,191306,128,8,191639:0:2:0:0:
192,192,191306,1,4,0:2:0:0:
192,192,191639,1,2,0:2:0:0:
448,192,191639,1,4,0:2:0:0:
320,192,191723,1,0,0:0:0:0:
192,192,191806,1,2,0:3:0:0:
320,192,191973,1,2,0:2:0:0:
448,192,191973,1,0,0:0:0:0:
192,192,192139,1,2,0:3:0:0:
64,192,192306,1,2,0:2:0:0:
448,192,192306,1,0,0:0:0:0:
320,192,192473,1,2,0:3:0:0:
64,192,192639,1,2,0:2:0:0:
192,192,192639,1,0,0:0:0:0:
320,192,192723,1,0,0:0:0:0:
448,192,192806,1,2,0:3:0:0:
64,192,192973,1,2,0:2:0:0:
448,192,192973,1,0,0:0:0:0:
320,192,193056,1,0,0:0:0:0:
192,192,193139,1,2,0:3:0:0:
64,192,193306,1,2,0:2:0:0:
320,192,193306,1,0,0:0:0:0:
320,192,193473,1,2,0:3:0:0:
64,192,193639,1,2,0:2:0:0:
192,192,193639,1,4,0:2:0:0:
448,192,193639,1,0,0:0:0:0:
320,192,193806,1,8,0:2:0:0:
448,192,193806,1,0,0:0:0:70:LR_Drum EDge.wav
64,192,193973,1,2,0:2:0:0:
192,192,193973,1,0,0:0:0:0:
192,192,194139,1,2,0:2:0:0:
320,192,194223,1,8,0:2:0:0:
64,192,194306,1,8,0:2:0:0:
448,192,194306,1,2,0:2:0:0:
320,192,194473,1,8,0:2:0:0:
192,192,194556,1,8,0:2:0:0:
320,192,194639,1,2,0:2:0:0:
320,192,194806,1,0,0:0:0:70:tom1.wav
192,192,194889,1,0,0:0:0:70:tom1.wav
64,192,194973,1,2,0:2:0:0:
448,192,195139,1,2,0:2:0:0:
320,192,195223,1,0,0:0:0:70:tom4.wav
192,192,195306,1,2,0:2:0:0:
320,192,195473,1,0,0:0:0:70:tom5.wav
64,192,195639,1,4,0:2:0:0:
192,192,195639,1,2,0:2:0:0:
448,192,195639,1,0,0:0:0:70:tom5.wav
64,192,195973,1,8,0:2:0:0:
320,192,195973,1,4,0:2:0:0:
448,192,195973,1,0,0:0:0:0:
192,192,196306,1,0,0:0:0:0:
64,192,196473,1,8,0:1:0:0:
448,192,196473,1,0,0:0:0:0:
64,192,196639,1,8,0:1:0:0:
448,192,196639,1,8,0:2:0:0:
64,192,196973,128,2,197973:0:2:0:0:
192,192,196973,1,4,0:2:0:0:
448,192,196973,1,0,0:0:0:0:
320,192,197139,128,2,197306:0:3:0:0:
192,192,197306,1,8,0:2:0:0:
448,192,197306,1,0,0:0:0:0:
320,192,197473,128,2,197639:0:3:0:0:
192,192,197639,128,0,197806:0:0:0:0:
448,192,197806,1,2,0:3:0:0:
320,192,197889,1,0,0:0:0:0:
192,192,197973,1,0,0:0:0:70:tom4.wav
448,192,198056,1,0,0:0:0:70:tom4.wav
320,192,198139,1,0,0:0:0:70:tom5.wav
192,192,198223,1,0,0:0:0:70:tom5.wav
64,192,198306,1,2,0:2:0:0:
320,192,198306,1,4,0:2:0:0:
448,192,198306,1,0,0:0:0:0:
64,192,198473,1,2,0:2:0:0:
192,192,198473,1,4,0:2:0:0:
192,192,198639,1,8,0:2:0:0:
320,192,198806,1,4,0:2:0:0:
448,192,198806,1,2,0:2:0:0:
64,192,198973,128,0,199139:0:0:0:0:
320,192,199139,128,0,199306:0:0:0:0:
320,192,199473,128,0,199639:0:0:0:0:
64,192,199639,1,2,0:2:0:0:
192,192,199639,1,4,0:2:0:0:
448,192,199639,1,0,0:0:0:0:
448,192,199806,128,2,199973:0:3:0:0:
64,192,199973,1,8,0:2:0:0:
320,192,199973,1,0,0:0:0:0:
64,192,200139,128,2,200306:0:3:0:0:
192,192,200306,1,0,0:0:0:0:
448,192,200306,1,0,0:0:0:0:
448,192,200473,128,2,200639:0:3:0:0:
192,192,200639,1,8,0:2:0:0:
320,192,200723,1,8,0:2:0:0:
192,192,200806,1,8,0:2:0:0:
64,192,200973,1,2,0:2:0:0:
448,192,200973,1,0,0:0:0:0:
64,192,201139,128,2,201306:0:2:0:0:
448,192,201139,128,0,201306:0:0:0:0:
64,192,201473,1,2,0:2:0:0:
192,192,201473,1,4,0:2:0:0:
448,192,201473,1,0,0:0:0:0:
320,192,201639,1,8,0:2:0:0:
64,192,201723,1,8,0:2:0:0:
320,192,201806,1,8,0:2:0:0:
192,192,201889,1,8,0:2:0:0:
64,192,201973,1,0,0:0:0:70:tom4.wav
448,192,201973,1,0,0:0:0:0:
192,192,202139,1,0,0:0:0:70:tom5.wav
64,192,202306,1,2,0:2:0:0:
320,192,202306,1,4,0:2:0:0:
448,192,202306,1,0,0:0:0:0:
320,192,202473,1,0,0:0:0:0:
64,192,202639,1,8,0:2:0:0:
448,192,202639,1,0,0:0:0:0:
192,192,202806,1,2,0:3:0:0:
320,192,202973,128,2,203139:0:2:0:0:
448,192,202973,1,0,0:0:0:0:
192,192,203139,128,2,203306:0:3:0:0:
64,192,203306,1,8,0:2:0:0:
448,192,203306,1,0,0:0:0:0:
320,192,203473,128,2,203639:0:3:0:0:
64,192,203639,1,2,0:2:0:0:
192,192,203639,1,0,0:0:0:0:
64,192,203806,128,2,203973:0:3:0:0:
320,192,203973,1,8,0:2:0:0:
448,192,203973,1,0,0:0:0:0:
192,192,204139,128,2,204306:0:3:0:0:
64,192,204306,1,2,0:2:0:0:
320,192,204473,128,2,204639:0:3:0:0:
64,192,204639,1,8,0:2:0:0:
192,192,204639,128,0,204806:0:0:0:0:
448,192,204806,128,2,204973:0:3:0:0:
64,192,204973,128,2,205139:0:2:0:0:
192,192,204973,1,0,0:0:0:0:
64,192,205306,1,8,0:2:0:0:
320,192,205306,128,0,205473:0:0:0:0:
192,192,205639,1,2,0:2:0:0:
448,192,205639,1,0,0:0:0:0:
192,192,205806,1,2,0:2:0:0:
448,192,205806,1,0,0:0:0:0:
192,192,205973,1,2,0:2:0:0:
448,192,205973,1,0,0:0:0:0:
64,192,206139,1,2,0:2:0:0:
320,192,206139,1,4,0:2:0:0:
448,192,206139,1,0,0:0:0:70:tom1.wav
320,192,206473,1,2,0:2:0:0:
448,192,206473,1,0,0:0:0:70:tom4.wav
192,192,206639,1,8,0:2:0:0:
448,192,206639,1,0,0:0:0:0:
64,192,206806,1,2,0:2:0:0:
192,192,206806,1,0,0:0:0:70:tom5.wav
64,192,206973,1,8,0:2:0:0:
320,192,206973,1,0,0:0:0:0:
192,192,207139,1,2,0:2:0:0:
320,192,207139,1,0,0:0:0:0:
192,192,207306,128,2,207473:0:2:0:0:
320,192,207306,128,0,207473:0:0:0:0:
64,192,207639,128,4,207806:0:2:0:0:
192,192,207639,1,2,0:2:0:0:
448,192,207639,1,0,0:0:0:0:
320,192,207806,1,2,0:3:0:0:
64,192,207973,1,8,0:2:0:0:
448,192,207973,128,0,208139:0:0:0:0:
320,192,208139,1,2,0:3:0:0:
64,192,208306,1,2,0:2:0:0:
192,192,208306,128,0,208473:0:0:0:0:
448,192,208473,1,2,0:3:0:0:
64,192,208639,1,8,0:2:0:0:
320,192,208639,128,0,208973:0:0:0:0:
192,192,208806,1,2,0:3:0:0:
64,192,208973,1,2,0:2:0:0:
448,192,208973,1,0,0:0:0:0:
320,192,209139,1,2,0:3:0:0:
192,192,209306,1,8,0:2:0:0:
448,192,209306,1,0,0:0:0:0:
448,192,209473,128,2,209806:0:3:0:0:
64,192,209639,1,2,0:2:0:0:
192,192,209639,128,0,209806:0:0:0:0:
320,192,209806,128,2,209973:0:3:0:0:
64,192,209973,1,8,0:2:0:0:
448,192,209973,1,0,0:0:0:0:
192,192,210139,128,2,210306:0:3:0:0:
320,192,210306,1,2,0:2:0:0:
448,192,210306,1,0,0:0:0:0:
448,192,210473,128,2,210639:0:3:0:0:
64,192,210639,1,8,0:2:0:0:
192,192,210639,1,0,0:0:0:0:
64,192,210806,128,2,210973:0:3:0:0:
192,192,210973,1,2,0:2:0:0:
448,192,210973,1,0,0:0:0:0:
448,192,211139,128,2,211306:0:3:0:0:
64,192,211306,1,8,0:2:0:0:
320,192,211306,1,0,0:0:0:0:
64,192,211473,128,2,211639:0:3:0:0:
320,192,211639,1,2,0:2:0:0:
448,192,211639,1,0,0:0:0:0:
64,192,211806,1,2,0:2:0:0:
192,192,211806,1,0,0:0:0:0:
64,192,212473,1,2,0:2:0:0:
448,192,212473,1,0,0:0:0:70:tom5.wav
192,192,212639,1,0,0:0:0:70:tom5.wav
320,192,212639,1,2,0:2:0:0:
192,192,212806,1,2,0:2:0:0:
320,192,212806,1,0,0:0:0:70:tom5.wav
64,192,212973,1,2,0:2:0:0:
320,192,212973,1,4,0:2:0:0:
448,192,212973,1,0,0:0:0:0:
192,192,213139,1,0,0:0:0:0:
64,192,213306,1,8,0:2:0:0:
448,192,213306,1,0,0:0:0:0:
320,192,213473,1,2,0:3:0:0:
64,192,213639,1,2,0:2:0:0:
192,192,213639,128,0,213806:0:0:0:0:
320,192,213806,128,2,213973:0:3:0:0:
64,192,213973,1,8,0:2:0:0:
448,192,213973,1,0,0:0:0:0:
192,192,214139,128,2,214306:0:3:0:0:
320,192,214306,1,2,0:2:0:0:
448,192,214306,1,0,0:0:0:0:
448,192,214473,128,2,214639:0:3:0:0:
64,192,214639,1,8,0:2:0:0:
192,192,214639,1,0,0:0:0:0:
320,192,214806,128,2,214973:0:3:0:0:
448,192,214973,1,2,0:2:0:0:
192,192,215139,128,2,215306:0:3:0:0:
320,192,215306,128,8,215473:0:2:0:0:
448,192,215306,1,0,0:0:0:0:
64,192,215473,128,2,215639:0:3:0:0:
320,192,215639,1,2,0:2:0:0:
448,192,215639,128,0,215806:0:0:0:0:
192,192,215973,128,8,216139:0:2:0:0:
448,192,215973,1,0,0:0:0:0:
64,192,216306,1,2,0:2:0:0:
320,192,216306,1,0,0:0:0:0:
64,192,216473,1,2,0:2:0:0:
320,192,216473,1,0,0:0:0:0:
64,192,216639,1,2,0:2:0:0:
320,192,216639,1,0,0:0:0:0:
64,192,216806,1,4,0:2:0:0:
192,192,216806,1,2,0:2:0:0:
448,192,216806,1,0,0:0:0:70:tom1.wav
64,192,217139,1,2,0:2:0:0:
192,192,217139,1,0,0:0:0:70:LR_Drum EDge.wav
64,192,217306,1,8,0:2:0:0:
320,192,217306,1,0,0:0:0:0:
320,192,217473,1,2,0:2:0:0:
448,192,217473,1,0,0:0:0:70:tom5.wav
192,192,217639,1,8,0:2:0:0:
448,192,217639,1,0,0:0:0:0:
192,192,217806,1,8,0:2:0:0:
320,192,217806,1,0,0:0:0:0:
192,192,217973,128,8,218306:0:2:0:0:
320,192,217973,128,0,218306:0:0:0:0:
64,192,218306,1,2,0:2:0:0:
448,192,218306,128,0,218473:0:0:0:0:
64,192,218473,128,0,218639:0:0:0:0:
448,192,218639,128,2,218806:0:2:0:0:
64,192,218806,128,8,218973:0:2:0:0:
320,192,218806,1,0,0:0:0:70:LR_Drum EDge.wav
192,192,218973,1,2,0:2:0:0:
320,192,219139,128,8,219306:0:2:0:0:
448,192,219139,1,0,0:0:0:70:LR_Drum EDge.wav
192,192,219306,128,2,219473:0:2:0:0:
64,192,219473,1,8,0:2:0:0:
448,192,219473,128,0,219639:0:0:0:70:LR_Drum EDge.wav
320,192,219639,1,2,0:2:0:0:
64,192,219806,128,8,219973:0:2:0:0:
192,192,219806,1,0,0:0:0:70:LR_Drum EDge.wav
448,192,219973,128,2,220139:0:2:0:0:
192,192,220139,128,0,220306:0:0:0:70:LR_Drum EDge.wav
320,192,220139,1,8,0:2:0:0:
64,192,220306,1,4,0:2:0:0:
320,192,220306,1,8,0:2:0:0:
448,192,220306,1,0,0:0:0:0:
64,192,220639,1,4,0:2:0:0:
192,192,220639,1,8,0:2:0:0:
448,192,220639,1,0,0:0:0:0:
192,192,220973,1,4,0:2:0:0:
320,192,220973,1,2,0:2:0:0:
448,192,220973,1,0,0:0:0:0:
64,192,221306,1,4,0:2:0:0:
192,192,221306,1,2,0:2:0:0:
320,192,221306,1,0,0:0:0:0:
320,192,221639,1,2,0:2:0:0:
448,192,221639,1,0,0:0:0:0:
64,192,221806,1,2,0:2:0:0:
192,192,221806,1,0,0:0:0:0:
64,192,222139,128,8,223639:0:2:0:0:
320,192,222139,128,4,223306:0:2:0:0:
448,192,222139,128,0,223473:0:0:0:0:
