osu file format v14

[General]
AudioFilename: audio.mp3
AudioLeadIn: 0
PreviewTime: 69301
Countdown: 1
SampleSet: Soft
StackLeniency: 0.7
Mode: 0
LetterboxInBreaks: 0
WidescreenStoryboard: 0

[Editor]
DistanceSpacing: 1.2
BeatDivisor: 4
GridSize: 4
TimelineZoom: 1.5

[Metadata]
Title:DOKIDOKI Rhythm
TitleUnicode:DOKIDOKIリズム
Artist:Jougasaki Rika (CV: Yamamoto Nozomi)
ArtistUnicode:城ヶ崎莉嘉 (CV:山本希望)
Creator:Lufu
Version:demo demo demo demo
Source:アイドルマスター シンデレラガールズ
Tags:the idolm@ster cinderella girls idolmaster im@s starlight stage
BeatmapID:1579313
BeatmapSetID:749835

[Difficulty]
HPDrainRate:6
CircleSize:4
OverallDifficulty:8
ApproachRate:9.3
SliderMultiplier:1.8
SliderTickRate:1

[Events]
//Background and Video events
0,0,"7e6fdb9aa75ffe53ce8c9e941423b8488c255727_s2_n1.png",0,0
//Break Periods
2,95834,99368
//Storyboard Layer 0 (Background)
//Storyboard Layer 1 (Fail)
//Storyboard Layer 2 (Pass)
//Storyboard Layer 3 (Foreground)
//Storyboard Sound Samples

[TimingPoints]
1302,333.333333333333,4,2,0,60,1,0
1302,-100,4,2,0,60,0,0
5968,-100,4,3,0,80,0,0
6635,-100,4,2,0,60,0,0
9301,-66.6666666666667,4,2,0,60,0,0
10468,-66.6666666666667,4,3,0,80,0,0
11468,-66.6666666666667,4,2,0,60,0,0
11968,-66.6666666666667,4,3,0,80,0,0
13968,-66.6666666666667,4,2,0,60,0,0
15801,-166.666666666667,4,2,0,60,0,0
16968,-100,4,2,0,60,0,0
21301,-100,4,3,0,80,0,0
22635,-100,4,2,0,60,0,0
26635,-100,4,2,0,60,0,0
27968,-125,4,2,0,60,0,0
28801,-125,4,3,0,80,0,0
30301,-125,4,2,0,60,0,0
34801,-125,4,3,0,80,0,0
35968,-125,4,2,0,60,0,0
40801,-125,4,3,0,80,0,0
40968,-125,4,2,0,60,0,0
41135,-125,4,3,0,80,0,0
41301,-125,4,2,0,60,0,0
45468,-125,4,3,0,80,0,0
46635,-125,4,2,0,60,0,0
50468,-100,4,2,0,60,0,0
50968,-100,4,3,0,80,0,0
51968,-166.666666666667,4,2,0,60,0,0
57301,-100,4,2,0,60,0,0
62301,-100,4,3,0,80,0,0
62635,-166.666666666667,4,2,0,60,0,0
65968,-125,4,2,0,60,0,0
69301,-83.3333333333333,4,2,0,60,0,1
73968,-83.3333333333333,4,3,0,80,0,1
74635,-83.3333333333333,4,2,0,60,0,1
78468,-83.3333333333333,4,3,0,80,0,1
79468,-66.6666666666667,4,2,0,60,0,1
79801,-83.3333333333333,4,2,0,60,0,1
84635,-83.3333333333333,4,3,0,80,0,1
85301,-83.3333333333333,4,2,0,60,0,1
89135,-83.3333333333333,4,3,0,80,0,1
90135,-66.6666666666667,4,2,0,60,0,1
90468,-83.3333333333333,4,2,0,60,0,1
90635,-83.3333333333333,4,3,0,80,0,1
92635,-83.3333333333333,4,2,0,60,0,1
94468,-166.666666666667,4,2,0,60,0,1
94635,-166.666666666667,4,2,0,60,0,0
99968,-100,4,2,0,60,0,0
104635,-100,4,3,0,80,0,0
105301,-166.666666666667,4,2,0,60,0,0
107968,-125,4,2,0,60,0,0
108635,-100,4,2,0,60,0,0
109135,-100,4,3,0,80,0,0
109968,-166.666666666667,4,2,0,60,0,0
112635,-100,4,2,0,60,0,0
115301,-100,4,3,0,80,0,0
117301,-100,4,2,0,60,0,0
118635,-166.666666666667,4,2,0,60,0,1
121301,-100,4,2,0,60,0,1
123301,-100,4,3,0,80,0,1
123968,-83.3333333333333,4,2,0,60,0,1
127801,-83.3333333333333,4,3,0,80,0,1
128801,-66.6666666666667,4,2,0,60,0,1
129135,-83.3333333333333,4,2,0,60,0,1
138468,-83.3333333333333,4,3,0,80,0,1
139468,-66.6666666666667,4,2,0,60,0,1
139968,-66.6666666666667,4,3,0,80,0,1
141968,-66.6666666666667,4,2,0,60,0,1
143801,-166.666666666667,4,2,0,60,0,1
144968,-166.666666666667,4,2,0,60,0,0

[HitObjects]
104,176,1302,5,2,0:0:0:0:
256,112,1468,1,2,0:0:0:0:
104,176,1635,1,10,0:0:0:0:
256,112,1801,1,2,0:0:0:0:
200,268,1968,2,0,P|248:276|320:252,1,90,2|2,0:0|0:0,0:0:0:0:
436,184,2301,1,10,0:0:0:0:
448,344,2468,1,2,0:0:0:0:
348,196,2635,6,0,P|296:184|228:212,1,90,2|2,0:0|0:0,0:0:0:0:
392,276,2968,1,10,0:0:0:0:
296,108,3135,2,0,B|188:44|184:164|84:156|88:68|124:60|168:84,1,269.999991760254,6|10,0:0|0:0,0:0:0:0:
252,200,3968,6,0,L|140:212,1,90,6|2,0:0|0:0,0:0:0:0:
312,72,4301,2,0,L|416:64,1,90,10|2,0:0|0:0,0:0:0:0:
224,240,4635,2,0,L|112:252,1,90,2|2,0:0|0:0,0:0:0:0:
336,32,4968,2,0,L|440:24,1,90,10|2,0:0|0:0,0:0:0:0:
260,120,5301,5,2,0:0:0:0:
440,172,5468,1,2,0:0:0:0:
372,348,5635,2,0,P|332:356|252:336,1,90,10|2,0:0|0:0,0:0:0:0:
112,308,5968,1,0,0:0:0:0:
91,277,6051,1,0,0:0:0:0:
77,245,6134,1,0,0:0:0:0:
76,209,6217,1,0,0:0:0:0:
87,174,6301,1,0,0:0:0:0:
101,141,6384,1,0,0:0:0:0:
104,106,6467,1,0,0:0:0:0:
91,73,6551,1,0,0:0:0:0:
70,44,6635,6,0,B|17:44|78:113|200:61,1,180,6|10,0:0|0:0,0:0:0:0:
328,20,7135,1,0,0:0:0:0:
360,212,7301,1,0,0:0:0:0:
492,84,7468,2,0,L|300:116,1,180,2|6,0:0|0:0,0:0:0:0:
88,148,8135,5,0,0:0:0:0:
240,192,8301,2,0,L|336:216,1,90,8|0,0:0|0:0,0:0:0:0:
180,268,8635,1,0,0:0:0:0:
20,212,8801,5,2,0:0:0:0:
144,360,8968,1,10,0:0:0:0:
240,192,9135,1,2,0:0:0:0:
364,340,9301,2,0,L|504:368,1,135.000005149842,2|2,0:0|0:0,0:0:0:0:
400,188,9635,2,0,L|240:216,1,135.000005149842,10|2,0:0|0:0,0:0:0:0:
52,240,9968,1,2,0:0:0:0:
132,68,10135,1,2,0:0:0:0:
248,240,10301,1,2,0:0:0:0:
48,136,10468,5,2,0:0:0:0:
432,100,10801,5,2,0:0:0:0:
128,348,11135,5,2,0:0:0:0:
272,192,11468,6,0,L|364:208,1,67.5000025749208,2|0,0:0|0:0,0:0:0:0:
416,248,11635,2,0,L|272:272,1,135.000005149842,2|0,0:0|0:0,0:0:0:0:
96,296,11968,5,0,0:0:0:0:
227,108,12135,1,0,0:0:0:0:
324,316,12301,1,8,0:0:0:0:
455,128,12468,1,0,0:0:0:0:
188,256,12801,5,0,0:0:0:0:
284,48,12968,1,8,0:0:0:0:
192,260,13135,1,0,0:0:0:0:
88,140,13468,5,0,0:0:0:0:
304,72,13635,1,8,0:0:0:0:
400,272,13801,1,0,0:0:0:0:
124,60,13968,1,10,0:0:0:0:
480,96,14301,1,10,0:0:0:0:
196,296,14635,6,0,P|224:224|188:172,1,135.000005149842,2|2,0:0|0:0,0:0:0:0:
96,92,14968,2,0,L|248:116,1,135.000005149842,2|2,0:0|0:0,0:0:0:0:
420,256,15301,1,6,0:0:0:0:
197,178,15468,1,6,0:0:0:0:
312,16,15801,2,0,B|432:184|188:184|356:368,1,377.999988464356,6|6,0:0|0:0,0:0:0:0:
436,88,17301,5,0,0:0:0:0:
256,164,17468,1,0,0:0:0:0:
256,164,17551,1,0,0:0:0:0:
256,164,17635,2,0,P|206:164|152:168,1,90,8|0,0:0|0:0,0:0:0:0:
312,260,17968,1,0,0:0:0:0:
480,180,18135,1,2,0:0:0:0:
312,260,18301,1,10,0:0:0:0:
264,20,18635,5,0,0:0:0:0:
104,108,18801,1,0,0:0:0:0:
104,108,18885,1,0,0:0:0:0:
104,108,18968,2,0,L|0:124,1,90,8|0,0:0|0:0,0:0:0:0:
160,184,19301,1,0,0:0:0:0:
256,344,19468,1,2,0:0:0:0:
160,184,19635,1,10,0:0:0:0:
408,52,19968,5,0,0:0:0:0:
488,228,20135,1,0,0:0:0:0:
488,228,20218,1,0,0:0:0:0:
488,228,20301,2,0,L|392:244,1,90,8|0,0:0|0:0,0:0:0:0:
224,264,20635,1,0,0:0:0:0:
348,136,20801,1,2,0:0:0:0:
160,180,20968,1,10,0:0:0:0:
272,28,21135,1,0,0:0:0:0:
320,272,21301,5,0,0:0:0:0:
192,76,21468,1,0,0:0:0:0:
200,300,21635,1,8,0:0:0:0:
384,168,21801,1,0,0:0:0:0:
144,256,21968,1,0,0:0:0:0:
304,92,22135,1,0,0:0:0:0:
416,288,22302,1,8,0:0:0:0:
232,156,22468,1,0,0:0:0:0:
156,368,22635,5,0,0:0:0:0:
88,192,22801,1,0,0:0:0:0:
88,192,22885,1,0,0:0:0:0:
88,192,22968,2,0,L|200:172,1,90,8|0,0:0|0:0,0:0:0:0:
20,128,23301,1,0,0:0:0:0:
96,296,23468,1,2,0:0:0:0:
20,128,23635,1,10,0:0:0:0:
368,192,23968,5,0,0:0:0:0:
248,40,24135,1,0,0:0:0:0:
248,40,24218,1,0,0:0:0:0:
248,40,24301,2,0,L|132:52,1,90,8|0,0:0|0:0,0:0:0:0:
340,48,24635,1,0,0:0:0:0:
184,156,24801,1,2,0:0:0:0:
340,48,24968,1,10,0:0:0:0:
176,300,25301,5,2,0:0:0:0:
264,128,25468,1,2,0:0:0:0:
332,348,25635,1,10,0:0:0:0:
288,160,25801,1,2,0:0:0:0:
104,300,25968,1,2,0:0:0:0:
292,244,26135,1,2,0:0:0:0:
204,56,26301,1,10,0:0:0:0:
200,272,26468,1,2,0:0:0:0:
368,168,26635,6,0,P|420:160|460:168,1,90
320,64,26968,2,0,L|196:80,2,90,8|0|0,0:0|0:0|0:0,0:0:0:0:
456,166,27468,1,0,0:0:0:0:
360,284,27635,2,0,P|315:290|271:282,1,90,8|0,0:0|0:0,0:0:0:0:
56,128,27968,6,0,P|108:72|164:208,1,288,6|0,0:0|0:0,0:0:0:0:
48,292,28801,1,0,0:0:0:0:
128,144,28968,1,0,0:0:0:0:
216,288,29135,1,0,0:0:0:0:
288,96,29468,5,0,0:0:0:0:
432,16,29635,1,0,0:0:0:0:
416,176,29801,1,0,0:0:0:0:
160,40,29968,1,0,0:0:0:0:
32,332,30301,5,2,0:0:0:0:
288,112,30635,6,0,P|320:108|368:120,1,72,2|2,0:0|0:0,0:0:0:0:
436,224,30968,2,0,P|388:232|352:220,1,72,8|0,0:0|0:0,0:0:0:0:
260,140,31301,1,0,0:0:0:0:
156,220,31468,1,0,0:0:0:0:
244,316,31635,1,8,0:0:0:0:
68,132,31801,6,0,P|120:84|192:88,2,144,2|2|2,0:0|0:0|0:0,0:0:0:0:
24,264,32635,2,0,L|120:248,1,72,2|0,0:0|0:0,0:0:0:0:
232,224,32968,1,8,0:0:0:0:
312,328,33135,1,0,0:0:0:0:
464,164,33301,6,0,P|420:144|372:156,1,72,2|0,0:0|0:0,0:0:0:0:
264,196,33635,2,0,P|308:216|356:204,1,72,8|0,0:0|0:0,0:0:0:0:
456,64,33968,1,0,0:0:0:0:
330,214,34135,1,0,0:0:0:0:
308,32,34301,1,8,0:0:0:0:
464,164,34468,1,4,0:0:0:0:
164,284,34801,5,0,0:0:0:0:
96,108,34968,1,8,0:0:0:0:
232,224,35135,1,0,0:0:0:0:
20,164,35301,1,0,0:0:0:0:
220,140,35468,1,0,0:0:0:0:
36,248,35635,1,8,0:0:0:0:
172,76,35801,1,0,0:0:0:0:
440,208,35968,6,0,P|400:216|352:200,1,72,6|0,0:0|0:0,0:0:0:0:
284,112,36301,2,0,P|324:104|372:120,1,72,8|0,0:0|0:0,0:0:0:0:
468,180,36635,1,0,0:0:0:0:
376,284,36801,1,0,0:0:0:0:
484,360,36968,1,8,0:0:0:0:
272,216,37135,6,0,P|208:200|120:232,2,144,2|2|2,0:0|0:0|0:0,0:0:0:0:
128,300,37968,2,0,P|88:308|28:288,1,72,2|0,0:0|0:0,0:0:0:0:
124,148,38301,1,8,0:0:0:0:
204,284,38468,1,0,0:0:0:0:
312,88,38635,6,0,L|408:112,1,72,2|0,0:0|0:0,0:0:0:0:
124,148,38968,2,0,L|28:172,1,72,8|0,0:0|0:0,0:0:0:0:
196,248,39301,1,0,0:0:0:0:
340,312,39469,2,0,L|392:308,2,36,0|0|8,0:0|0:0|0:0,0:0:0:0:
74,291,39801,6,0,P|42:184|78:144,1,144,6|2,0:0|0:0,0:0:0:0:
168,60,40301,1,8,0:0:0:0:
320,140,40468,1,0,0:0:0:0:
144,76,40635,1,0,0:0:0:0:
336,52,40801,1,0,0:0:0:0:
336,52,40885,1,0,0:0:0:0:
336,52,40968,2,0,P|396:48|428:60,1,72,8|0,0:0|0:0,0:0:0:0:
492,112,41218,1,0,0:0:0:0:
492,112,41301,6,0,L|392:120,1,72,2|0,0:0|0:0,0:0:0:0:
244,128,41635,2,0,L|224:212,1,72,8|0,0:0|0:0,0:0:0:0:
196,328,41968,1,0,0:0:0:0:
304,208,42135,1,0,0:0:0:0:
144,232,42301,2,0,L|64:248,1,72,8|0,0:0|0:0,0:0:0:0:
288,284,42635,6,0,L|308:368,1,72
392,212,42968,2,0,L|416:120,1,72,8|0,0:0|0:0,0:0:0:0:
236,192,43301,2,0,L|256:276,1,72
312,88,43635,1,8,0:0:0:0:
156,148,43801,1,0,0:0:0:0:
328,52,43968,6,0,L|416:16,1,72
192,52,44301,2,0,L|116:80,1,72,8|0,0:0|0:0,0:0:0:0:
360,84,44635,2,0,L|436:112,1,72
248,128,44968,2,0,L|172:100,1,72,8|0,0:0|0:0,0:0:0:0:
427,108,45301,5,0,0:0:0:0:
280,232,45468,1,0,0:0:0:0:
476,176,45635,1,8,0:0:0:0:
360,316,45801,1,0,0:0:0:0:
268,152,45968,1,0,0:0:0:0:
224,328,46135,1,0,0:0:0:0:
364,196,46301,1,8,0:0:0:0:
180,112,46468,1,0,0:0:0:0:
360,64,46635,6,0,L|452:80,1,72
284,136,46968,2,0,L|200:148,1,72,8|0,0:0|0:0,0:0:0:0:
360,208,47301,2,0,L|452:224,1,72
284,280,47635,2,0,L|200:292,1,72,8|0,0:0|0:0,0:0:0:0:
84,312,47968,5,0,0:0:0:0:
28,204,48135,1,0,0:0:0:0:
132,128,48301,2,0,L|220:132,1,72,8|0,0:0|0:0,0:0:0:0:
312,216,48635,2,0,L|224:212,1,72
388,268,48968,1,8,0:0:0:0:
344,120,49135,1,0,0:0:0:0:
464,232,49301,6,0,P|472:272|464:308,1,72
320,328,49635,1,8,0:0:0:0:
392,188,49801,1,0,0:0:0:0:
256,264,49968,2,0,P|216:272|168:248,1,72
72,188,50301,1,8,0:0:0:0:
192,40,50468,2,0,P|256:24|284:120,1,180,2|6,0:0|0:0,0:0:0:0:
240,260,50968,5,0,0:0:0:0:
240,260,51051,1,0,0:0:0:0:
240,260,51134,1,0,0:0:0:0:
240,260,51218,1,0,0:0:0:0:
240,260,51301,2,0,L|216:320,1,45
344,232,51468,2,0,L|368:172,1,45
280,136,51635,2,0,L|256:196,1,45
368,76,51801,1,0,0:0:0:0:
368,76,51885,1,0,0:0:0:0:
368,76,51968,6,0,B|324:56|324:56|292:64|248:52,1,107.999996704102,2|0,0:0|0:0,0:0:0:0:
144,108,52468,2,0,B|220:100|220:100|248:64,1,107.999996704102,2|0,0:0|0:0,0:0:0:0:
104,32,52968,1,8,0:0:0:0:
176,248,53301,6,0,P|224:264|284:240,1,107.999996704102,2|0,0:0|0:0,0:0:0:0:
380,168,53801,2,0,P|332:152|272:176,1,107.999996704102,2|0,0:0|0:0,0:0:0:0:
448,112,54301,1,8,0:0:0:0:
372,324,54635,6,0,B|300:304|300:304|312:344,1,107.999996704102,2|0,0:0|0:0,0:0:0:0:
192,288,55135,2,0,B|148:316|148:316|92:300,1,107.999996704102,2|0,0:0|0:0,0:0:0:0:
260,240,55635,1,8,0:0:0:0:
376,132,55968,6,0,B|428:120|428:120|408:192,1,107.999996704102,2|0,0:0|0:0,0:0:0:0:
360,60,56468,2,0,L|240:92,1,107.999996704102,2|0,0:0|0:0,0:0:0:0:
96,132,56968,1,8,0:0:0:0:
180,284,57135,1,0,0:0:0:0:
16,248,57301,6,0,L|121:220,1,90,2|2,0:0|0:0,0:0:0:0:
360,140,57635,1,8,0:0:0:0:
392,312,57801,1,0,0:0:0:0:
500,200,57968,6,0,L|392:216,1,90,2|2,0:0|0:0,0:0:0:0:
184,92,58301,1,8,0:0:0:0:
272,224,58468,1,0,0:0:0:0:
416,136,58635,6,0,L|536:116,1,90,2|2,0:0|0:0,0:0:0:0:
328,296,58968,1,8,0:0:0:0:
224,160,59135,1,0,0:0:0:0:
92,236,59301,6,0,L|-28:256,1,90,2|2,0:0|0:0,0:0:0:0:
240,356,59635,1,8,0:0:0:0:
92,236,59801,1,0,0:0:0:0:
256,180,59968,5,2,0:0:0:0:
112,56,60135,1,2,0:0:0:0:
184,252,60301,1,10,0:0:0:0:
228,56,60468,1,2,0:0:0:0:
320,232,60635,2,0,P|368:240|436:212,1,90,2|2,0:0|0:0,0:0:0:0:
492,60,60968,2,0,P|444:52|376:80,1,90,10|2,0:0|0:0,0:0:0:0:
260,136,61301,5,2,0:0:0:0:
136,284,61468,1,2,0:0:0:0:
320,232,61635,1,2,0:0:0:0:
196,376,61801,1,2,0:0:0:0:
156,180,61968,1,2,0:0:0:0:
288,332,62135,1,2,0:0:0:0:
64,164,62301,5,0,0:0:0:0:
81,122,62384,1,0,0:0:0:0:
115,94,62467,1,0,0:0:0:0:
159,85,62551,1,0,0:0:0:0:
202,97,62635,6,0,L|272:116,1,53.9999983520508
328,224,62968,2,0,L|258:205,1,53.9999983520508
184,176,63301,2,0,P|144:172|120:184,2,53.9999983520508
312,296,63968,6,0,P|344:300|380:284,1,53.9999983520508
428,212,64301,2,0,P|476:208|500:216,1,53.9999983520508
356,144,64635,2,0,P|300:132|240:160,1,107.999996704102
416,76,65301,6,0,L|484:68,2,53.9999983520508
316,220,65968,2,0,L|236:228,2,72
256,192,66635,12,0,68635,0:0:0:0:
260,196,68801,5,8,0:0:0:0:
260,196,68968,1,8,0:0:0:0:
124,72,69301,5,2,0:0:0:0:
168,264,69468,1,2,0:0:0:0:
324,136,69635,1,10,0:0:0:0:
280,328,69802,1,2,0:0:0:0:
396,172,69968,2,0,P|452:160|508:180,1,107.999996704102,2|2,0:0|0:0,0:0:0:0:
324,236,70301,1,10,0:0:0:0:
464,300,70468,1,2,0:0:0:0:
192,168,70635,6,0,B|144:184|144:184|80:168,1,107.999996704102,2|2,0:0|0:0,0:0:0:0:
252,72,70968,1,8,0:0:0:0:
220,288,71135,2,0,B|108:360|108:236|16:296|8:316|8:316|-8:344|8:368|48:368|76:320,1,323.999990112305,6|10,0:0|0:0,0:0:0:0:
88,29,71968,5,6,0:0:0:0:
9,218,72135,1,2,0:0:0:0:
185,51,72301,1,10,0:0:0:0:
155,252,72468,1,2,0:0:0:0:
282,46,72635,1,2,0:0:0:0:
305,248,72802,1,2,0:0:0:0:
379,15,72968,1,10,0:0:0:0:
452,204,73135,1,2,0:0:0:0:
248,152,73301,6,0,L|120:164,1,107.999996704102,2|2,0:0|0:0,0:0:0:0:
232,336,73635,2,0,L|339:325,1,107.999996704102,10|2,0:0|0:0,0:0:0:0:
408,88,73968,1,0,0:0:0:0:
410,104,74051,1,0,0:0:0:0:
413,121,74134,1,0,0:0:0:0:
416,138,74217,1,0,0:0:0:0:
420,156,74301,1,0,0:0:0:0:
396,203,74384,1,0,0:0:0:0:
351,232,74467,1,0,0:0:0:0:
298,232,74550,1,0,0:0:0:0:
253,203,74635,6,0,B|204:184|204:184|144:260|24:200,1,215.999993408203,6|10,0:0|0:0,0:0:0:0:
232,104,75135,1,0,0:0:0:0:
288,304,75301,1,0,0:0:0:0:
480,144,75468,2,0,B|384:192|384:192|268:188,1,215.999993408203,2|6,0:0|0:0,0:0:0:0:
56,172,76135,5,0,0:0:0:0:
160,296,76301,2,0,L|232:380,1,107.999996704102,8|0,0:0|0:0,0:0:0:0:
192,212,76635,1,0,0:0:0:0:
284,36,76801,5,2,0:0:0:0:
284,36,76885,1,2,0:0:0:0:
284,36,76968,1,10,0:0:0:0:
116,120,77135,1,2,0:0:0:0:
408,144,77301,1,2,0:0:0:0:
192,356,77635,1,2,0:0:0:0:
324,64,77968,1,2,0:0:0:0:
284,312,78135,1,2,0:0:0:0:
92,148,78301,1,2,0:0:0:0:
392,192,78468,5,2,0:0:0:0:
88,324,78801,5,2,0:0:0:0:
224,20,79135,5,2,0:0:0:0:
372,300,79468,6,0,L|276:324,1,67.5000025749208,2|0,0:0|0:0,0:0:0:0:
172,340,79635,2,0,P|216:280|280:284,1,135.000005149842,2|0,0:0|0:0,0:0:0:0:
120,216,79968,5,0,0:0:0:0:
208,44,80135,1,0,0:0:0:0:
296,208,80301,1,8,0:0:0:0:
208,44,80468,1,0,0:0:0:0:
392,96,80635,2,0,P|444:140|432:204,1,107.999996704102,2|2,0:0|0:0,0:0:0:0:
384,356,80968,1,8,0:0:0:0:
372,168,81135,1,0,0:0:0:0:
232,280,81301,6,0,P|168:296|116:268,1,107.999996704102,2|2,0:0|0:0,0:0:0:0:
296,208,81635,1,10,0:0:0:0:
72,24,81801,2,0,B|40:76|72:132|72:132|92:176|58:231|58:231|20:180|52:120,1,323.999990112305,6|10,0:0|0:0,0:0:0:0:
205,15,82635,5,6,0:0:0:0:
167,213,82801,1,2,0:0:0:0:
298,57,82968,1,10,0:0:0:0:
260,254,83135,1,2,0:0:0:0:
390,99,83302,1,2,0:0:0:0:
352,297,83468,1,2,0:0:0:0:
482,141,83635,1,10,0:0:0:0:
445,339,83801,1,2,0:0:0:0:
324,168,83968,6,0,P|280:140|208:164,1,107.999996704102
136,208,84218,1,0,0:0:0:0:
136,208,84301,2,0,L|16:220,1,107.999996704102,8|0,0:0|0:0,0:0:0:0:
176,60,84635,1,0,0:0:0:0:
216,41,84718,1,0,0:0:0:0:
260,38,84801,1,0,0:0:0:0:
302,51,84884,1,0,0:0:0:0:
337,78,84968,1,0,0:0:0:0:
340,94,85051,1,0,0:0:0:0:
346,110,85134,1,0,0:0:0:0:
352,127,85217,1,0,0:0:0:0:
356,144,85301,6,0,P|356:215|217:261,1,215.999993408203,6|10,0:0|0:0,0:0:0:0:
80,240,85801,1,0,0:0:0:0:
268,180,85968,1,0,0:0:0:0:
128,8,86135,2,0,B|108:116|200:92|168:216,1,215.999993408203,2|6,0:0|0:0,0:0:0:0:
368,48,86801,5,0,0:0:0:0:
388,200,86968,2,0,L|372:320,1,107.999996704102,8|0,0:0|0:0,0:0:0:0:
476,176,87301,1,0,0:0:0:0:
272,124,87468,5,2,0:0:0:0:
148,312,87635,1,10,0:0:0:0:
373,307,87801,1,2,0:0:0:0:
144,184,87968,2,0,L|-8:204,1,107.999996704102,2|2,0:0|0:0,0:0:0:0:
265,292,88301,2,0,L|417:312,1,107.999996704102,10|2,0:0|0:0,0:0:0:0:
300,100,88635,5,2,0:0:0:0:
216,360,88801,1,2,0:0:0:0:
448,264,88968,1,2,0:0:0:0:
168,192,89135,5,2,0:0:0:0:
444,12,89468,5,2,0:0:0:0:
504,344,89801,5,2,0:0:0:0:
227,173,90135,6,0,L|119:177,1,67.5000025749208,2|0,0:0|0:0,0:0:0:0:
56,256,90301,2,0,L|200:252,1,135.000005149842,2|0,0:0|0:0,0:0:0:0:
416,244,90635,5,0,0:0:0:0:
316,40,90801,1,0,0:0:0:0:
416,244,90968,1,8,0:0:0:0:
316,40,91135,1,0,0:0:0:0:
96,260,91468,5,0,0:0:0:0:
288,152,91635,1,8,0:0:0:0:
272,368,91801,1,0,0:0:0:0:
404,72,92135,5,0,0:0:0:0:
192,144,92301,1,8,0:0:0:0:
408,200,92468,1,0,0:0:0:0:
96,260,92635,2,0,P|148:272|224:244,1,107.999996704102,10|0,0:0|0:0,0:0:0:0:
404,72,92968,2,0,P|351:59|299:71,1,107.999996704102,10|0,0:0|0:0,0:0:0:0:
68,280,93301,5,2,0:0:0:0:
268,8,93635,1,2,0:0:0:0:
424,292,93968,1,6,0:0:0:0:
180,356,94135,1,6,0:0:0:0:
436,136,94468,2,0,B|356:104|356:104|276:136|276:136|184:84|64:148,1,377.999988464356,6|0,0:0|0:0,0:0:0:0:
348,104,99968,6,0,L|460:96,2,90,4|0|8,0:0|0:0|0:0,0:0:0:0:
200,184,100635,6,0,L|88:192,2,90,4|0|8,0:0|0:0|0:0,0:0:0:0:
348,264,101301,6,0,L|460:256,2,90,4|0|8,0:0|0:0|0:0,0:0:0:0:
184,284,101801,1,4,0:0:0:0:
272,48,102135,1,2,0:0:0:0:
364,180,102301,1,10,0:0:0:0:
428,32,102468,1,2,0:0:0:0:
188,128,102635,6,0,P|176:168|188:216,1,90,2|2,0:0|0:0,0:0:0:0:
320,364,102968,2,0,P|332:324|320:276,1,90,10|2,0:0|0:0,0:0:0:0:
364,108,103301,2,0,L|472:124,1,90,2|2,0:0|0:0,0:0:0:0:
275,199,103635,2,0,L|186:213,1,90,10|2,0:0|0:0,0:0:0:0:
28,224,103968,5,2,0:0:0:0:
100,40,104135,1,2,0:0:0:0:
186,212,104301,1,10,0:0:0:0:
12,112,104468,1,2,0:0:0:0:
132,296,104635,1,0,0:0:0:0:
162,310,104718,1,0,0:0:0:0:
196,320,104801,1,0,0:0:0:0:
228,317,104884,1,0,0:0:0:0:
259,305,104968,1,0,0:0:0:0:
290,290,105051,1,0,0:0:0:0:
323,283,105134,1,0,0:0:0:0:
356,290,105218,1,0,0:0:0:0:
385,306,105301,6,0,P|356:324|320:324,1,53.9999983520508
228,240,105635,2,0,P|257:218|288:216,1,53.9999983520508
376,216,105968,2,0,L|428:240,2,53.9999983520508
224,120,106635,6,0,P|192:116|160:120,1,53.9999983520508
80,180,106968,2,0,P|48:184|16:180,1,53.9999983520508
136,256,107301,2,0,P|192:268|248:248,1,107.999996704102
384,128,107968,6,0,L|460:120,2,72,0|0|4,0:0|0:0|0:0,0:0:0:0:
216,64,108635,2,0,L|120:72,2,90,0|0|4,0:0|0:0|0:0,0:0:0:0:
312,96,109135,1,0,0:0:0:0:
312,96,109218,1,0,0:0:0:0:
312,96,109301,6,0,L|368:92,1,45
240,152,109468,2,0,L|195:155,1,45
336,208,109635,1,0,0:0:0:0:
336,208,109718,1,0,0:0:0:0:
336,208,109801,1,0,0:0:0:0:
336,208,109885,1,0,0:0:0:0:
336,208,109968,6,0,P|376:260|232:220,1,431.999986816407,0|2,0:0|0:0,0:0:0:0:
296,286,111968,1,0,0:0:0:0:
296,286,112302,1,0,0:0:0:0:
364,116,112635,2,0,B|320:124|320:124|260:112,1,90,2|0,0:0|0:0,0:0:0:0:
120,84,112968,1,4,0:0:0:0:
168,276,113301,5,2,0:0:0:0:
168,276,113385,1,2,0:0:0:0:
168,276,113468,1,2,0:0:0:0:
308,232,113635,1,10,0:0:0:0:
404,344,113801,1,2,0:0:0:0:
468,168,113968,2,0,L|368:176,1,90,2|2,0:0|0:0,0:0:0:0:
224,192,114301,5,10,0:0:0:0:
224,192,114385,1,2,0:0:0:0:
224,192,114468,1,2,0:0:0:0:
272,48,114635,5,2,0:0:0:0:
272,48,114718,1,2,0:0:0:0:
272,48,114801,1,2,0:0:0:0:
116,92,114968,5,10,0:0:0:0:
124,100,115051,1,2,0:0:0:0:
124,100,115135,1,2,0:0:0:0:
368,52,115301,5,0,0:0:0:0:
425,209,115468,1,0,0:0:0:0:
268,267,115634,1,8,0:0:0:0:
210,108,115801,1,0,0:0:0:0:
148,320,115968,5,0,0:0:0:0:
276,172,116135,1,0,0:0:0:0:
88,152,116301,1,8,0:0:0:0:
212,12,116468,1,0,0:0:0:0:
368,188,116635,5,0,0:0:0:0:
188,232,116801,1,0,0:0:0:0:
384,284,116968,1,8,0:0:0:0:
184,140,117135,1,0,0:0:0:0:
400,40,117301,6,0,P|448:32|496:44,1,90,2|2,0:0|0:0,0:0:0:0:
368,188,117635,2,0,P|324:196|280:188,1,90,10|2,0:0|0:0,0:0:0:0:
84,108,117968,1,2,0:0:0:0:
144,288,118135,1,10,0:0:0:0:
144,288,118301,1,10,0:0:0:0:
328,100,118635,5,6,0:0:0:0:
132,256,119968,5,2,0:0:0:0:
328,280,120135,1,2,0:0:0:0:
260,36,120468,1,6,0:0:0:0:
388,92,121301,6,0,L|284:104,1,90,6|2,0:0|0:0,0:0:0:0:
128,164,121635,2,0,L|232:176,1,90,10|2,0:0|0:0,0:0:0:0:
388,236,121968,2,0,L|284:248,1,90,2|2,0:0|0:0,0:0:0:0:
128,308,122301,2,0,L|232:320,1,90,10|2,0:0|0:0,0:0:0:0:
416,336,122635,5,2,0:0:0:0:
217,174,122801,1,2,0:0:0:0:
504,148,123135,1,6,0:0:0:0:
368,24,123301,1,0,0:0:0:0:
331,16,123384,1,0,0:0:0:0:
294,16,123467,1,0,0:0:0:0:
259,26,123550,1,0,0:0:0:0:
225,42,123634,1,0,0:0:0:0:
191,57,123717,1,0,0:0:0:0:
155,64,123800,1,0,0:0:0:0:
118,60,123884,1,0,0:0:0:0:
84,48,123968,6,0,P|44:48|100:136,1,215.999993408203,6|10,0:0|0:0,0:0:0:0:
240,108,124468,1,2,0:0:0:0:
312,316,124635,1,2,0:0:0:0:
488,176,124801,2,0,B|408:180|408:180|364:204|364:204|268:212,1,215.999993408203,2|6,0:0|0:0,0:0:0:0:
44,224,125468,5,0,0:0:0:0:
212,288,125635,2,0,L|336:280,1,107.999996704102,8|0,0:0|0:0,0:0:0:0:
152,356,125968,1,0,0:0:0:0:
24,204,126135,5,2,0:0:0:0:
24,204,126218,1,2,0:0:0:0:
24,204,126301,1,10,0:0:0:0:
232,100,126468,1,2,0:0:0:0:
280,356,126635,1,2,0:0:0:0:
380,32,126968,1,10,0:0:0:0:
488,328,127301,5,2,0:0:0:0:
260,216,127468,1,2,0:0:0:0:
496,128,127635,1,2,0:0:0:0:
304,332,127801,5,2,0:0:0:0:
236,28,128135,5,2,0:0:0:0:
28,280,128468,5,2,0:0:0:0:
336,160,128801,6,0,L|416:188,1,67.5000025749208,2|0,0:0|0:0,0:0:0:0:
504,228,128968,2,0,L|364:252,1,135.000005149842,2|0,0:0|0:0,0:0:0:0:
176,284,129301,5,2,0:0:0:0:
67,104,129468,1,2,0:0:0:0:
261,186,129635,1,10,0:0:0:0:
56,233,129801,1,2,0:0:0:0:
194,75,129968,2,0,P|252:60|316:96,1,107.999996704102,2|2,0:0|0:0,0:0:0:0:
460,168,130301,1,10,0:0:0:0:
292,240,130468,1,2,0:0:0:0:
116,202,130635,6,0,P|60:194|0:214,1,107.999996704102,2|2,0:0|0:0,0:0:0:0:
192,260,130968,1,10,0:0:0:0:
390,108,131135,2,0,B|462:204|374:304|374:304|348:255|288:239,1,323.999990112305,6|10,0:0|0:0,0:0:0:0:
12,208,131968,5,6,0:0:0:0:
145,359,132135,1,2,0:0:0:0:
117,143,132301,1,10,0:0:0:0:
41,327,132468,1,2,0:0:0:0:
209,155,132635,1,2,0:0:0:0:
289,335,132802,1,2,0:0:0:0:
321,119,132968,1,10,0:0:0:0:
205,275,133135,1,2,0:0:0:0:
421,199,133301,5,2,0:0:0:0:
193,79,133468,1,2,0:0:0:0:
80,304,134135,1,2,0:0:0:0:
200,160,134301,1,2,0:0:0:0:
300,316,134468,1,2,0:0:0:0:
416,176,134635,6,0,P|444:96|304:52,1,215.999993408203,6|10,0:0|0:0,0:0:0:0:
164,64,135135,1,0,0:0:0:0:
364,112,135301,1,0,0:0:0:0:
272,308,135468,2,0,B|236:196|236:196|256:80,1,215.999993408203,2|6,0:0|0:0,0:0:0:0:
200,360,136135,5,0,0:0:0:0:
360,284,136301,2,0,L|472:292,1,107.999996704102,8|0,0:0|0:0,0:0:0:0:
320,208,136635,1,0,0:0:0:0:
124,312,136801,5,2,0:0:0:0:
320,208,136968,1,10,0:0:0:0:
104,136,137135,1,2,0:0:0:0:
276,352,137301,1,2,0:0:0:0:
336,36,137635,1,10,0:0:0:0:
80,232,137968,1,2,0:0:0:0:
288,136,138135,1,2,0:0:0:0:
208,348,138301,1,2,0:0:0:0:
416,256,138468,5,2,0:0:0:0:
132,80,138801,5,2,0:0:0:0:
300,360,139135,5,2,0:0:0:0:
372,44,139468,6,0,L|304:72,1,67.5000025749208,2|0,0:0|0:0,0:0:0:0:
188,132,139635,2,0,P|284:136|312:92,1,135.000005149842,2|0,0:0|0:0,0:0:0:0:
136,244,139968,5,0,0:0:0:0:
192,20,140135,1,0,0:0:0:0:
280,228,140301,1,8,0:0:0:0:
88,108,140468,1,0,0:0:0:0:
416,132,140801,5,0,0:0:0:0:
364,360,140968,1,8,0:0:0:0:
416,132,141135,1,0,0:0:0:0:
364,360,141468,5,0,0:0:0:0:
148,288,141635,1,8,0:0:0:0:
260,88,141801,1,0,0:0:0:0:
40,196,141968,2,0,P|136:196|188:148,1,135.000005149842,12|0,0:0|0:0,0:0:0:0:
412,40,142301,2,0,P|316:40|264:88,1,135.000005149842,12|0,0:0|0:0,0:0:0:0:
464,188,142635,5,2,0:0:0:0:
156,88,142968,1,2,0:0:0:0:
380,324,143301,1,6,0:0:0:0:
148,348,143468,1,6,0:0:0:0:
260,148,143801,2,0,P|336:108|264:224,1,377.999988464356,6|0,0:0|0:0,0:0:0:0:
