osu file format v14

[General]
AudioFilename: audio.mp3
AudioLeadIn: 0
PreviewTime: 212
Countdown: 0
SampleSet: Soft
StackLeniency: 0.7
Mode: 0
LetterboxInBreaks: 0
WidescreenStoryboard: 0

[Editor]
Bookmarks: 1198,14517,27836,34496,40790,42457
DistanceSpacing: 1.4
BeatDivisor: 4
GridSize: 4
TimelineZoom: 1

[Metadata]
Title:Swiper No Swiping!
TitleUnicode:Swiper No Swiping!
Artist:Joshua Sitron & Billy Straus
ArtistUnicode:Joshua Sitron & Billy Straus
Creator:Gordon
Version:Oh, Man!
Source:Dora The Explorer
Tags:English Novelty Children's Music The Fox Swiper's Theme Boots The Monkey Nickelodeon Jr Nick Jr. Cartoon TV Television Latin Polyrhythm Records Paramount Dora the Explorer (Album) 2004 Costa Rica Marc Weiner Kathleen Herles Harrison Chad Leisha Medina Gordon123 StarCastler -ascended- -_ascended_- ascended AJT
BeatmapID:2963126
BeatmapSetID:1440219

[Difficulty]
HPDrainRate:5
CircleSize:4
OverallDifficulty:8
ApproachRate:9
SliderMultiplier:2.4
SliderTickRate:1

[Events]
//Background and Video events
0,0,"50103_artistic-swiper.png",0,0
//Break Periods
//Storyboard Layer 0 (Background)
//Storyboard Layer 1 (Fail)
//Storyboard Layer 2 (Pass)
//Storyboard Layer 3 (Foreground)
//Storyboard Layer 4 (Overlay)
//Storyboard Sound Samples

[TimingPoints]
212,416.666666666667,4,2,0,100,1,0
447,416.666666666667,4,2,0,100,1,0
590,416.666666666667,4,2,0,100,1,0
1198,416.377515614157,4,2,0,60,1,0
4527,-83.3333333333333,4,2,0,60,0,0
4944,-100,4,2,0,60,0,0
5776,-66.6666666666667,4,2,0,60,0,0
6192,-83.3333333333333,4,2,0,60,0,0
6609,-100,4,2,0,60,0,0
7441,-66.6666666666667,4,2,0,60,0,0
7545,-66.6666666666667,4,2,0,5,0,0
7857,-83.3333333333333,4,2,0,60,0,0
8273,-100,4,2,0,60,0,0
9522,-83.3333333333333,4,2,0,60,0,0
9938,-100,4,2,0,60,0,0
11187,-83.3333333333333,4,2,0,60,0,0
11603,-66.6666666666667,4,2,0,60,0,0
12020,-100,4,2,0,60,0,0
12852,-83.3333333333333,4,2,0,60,0,0
13268,-100,4,2,0,60,0,0
13476,-66.6666666666667,4,2,0,60,0,0
13580,-66.6666666666667,4,2,0,5,0,0
13684,-100,4,2,0,60,0,0
14517,-66.6666666666667,4,2,0,60,0,0
15662,-66.6666666666667,4,2,0,5,0,0
15766,-50,4,2,0,60,0,0
16182,-66.6666666666667,4,2,0,60,0,0
16598,-83.3333333333333,4,2,0,60,0,0
17327,-83.3333333333333,4,2,0,5,0,0
17431,-50,4,2,0,60,0,0
17847,-50,4,2,0,60,0,0
18263,-83.3333333333333,4,2,0,60,0,0
19096,-50,4,2,0,60,0,0
19512,-66.6666666666667,4,2,0,60,0,0
19928,-83.3333333333333,4,2,0,60,0,0
20656,-83.3333333333333,4,2,0,5,0,0
20760,-83.3333333333333,4,2,0,60,0,0
21177,-50,4,2,0,60,0,0
27846,-66.6666666666667,4,2,0,60,0,0
29511,-50,4,2,0,60,0,0
31177,-40,4,2,0,60,0,0
32842,-33.3333333333333,4,2,0,60,0,0
34507,437.956204379562,4,2,0,49,1,0
34507,-333.333333333333,4,2,0,49,0,0
35382,424.028268551237,4,2,0,49,1,0
35382,-500.000000000005,4,2,0,49,0,0
35700,-500.000000000005,4,2,0,5,0,0
35806,-166.666666666667,4,2,0,49,0,0
36124,-166.666666666667,4,2,0,5,0,0
36230,411.522633744856,4,2,0,49,1,0
36230,-333.333333333333,4,2,0,49,0,0
37053,-500,4,2,0,49,0,0
37361,-500,4,2,0,5,0,0
37464,-166.666666666667,4,2,0,49,0,0
37771,-166.666666666667,4,2,0,49,0,0
37876,418.118466898955,4,2,0,49,1,0
37876,-333.333333333333,4,2,0,49,0,0
38712,-500,4,2,0,49,0,0
39025,-500,4,2,0,5,0,0
39130,-166.666666666667,4,2,0,49,0,0
39444,-166.666666666667,4,2,0,5,0,0
39548,414.22160856058,4,2,0,49,1,0
39548,-125,4,2,0,49,0,0
40790,434.782608695652,4,2,0,50,1,0
41442,384.615384615385,4,2,0,50,1,0
41442,-125,4,2,0,60,0,0
42499,-125,4,2,0,5,0,0
42595,427.046263345196,4,2,0,50,1,0
42595,-100,4,2,2,50,0,0
43022,419.58041958042,4,2,0,60,1,0
43022,-250.000000000001,4,2,0,60,0,0
43334,-250.000000000001,4,2,0,5,0,0
43438,-66.6666666666667,4,2,0,60,0,0
43751,-66.6666666666667,4,2,0,5,0,0
43861,412.938747419133,4,2,0,60,1,0
43861,-66.6666666666667,4,2,0,60,0,0
44272,-100,4,2,0,60,0,0
44686,427.046263345196,4,2,0,60,1,0

[Colours]
Combo1 : 254,141,170
Combo2 : 111,183,255
Combo3 : 0,98,196
Combo4 : 255,128,64
Combo5 : 249,220,134

[HitObjects]
499,360,1198,5,0,3:0:0:0:
363,245,1510,2,0,B|358:195|358:195|353:181|353:181|348:116,1,120,2|0,1:0|0:0,0:0:0:0:
447,83,1822,2,0,B|442:138|442:138|436:151|436:151|432:201,1,120,2|0,1:0|0:0,0:0:0:0:
238,14,2863,5,0,3:0:0:0:
100,131,3175,2,0,B|95:180|95:180|90:194|90:194|85:259,1,120,2|0,1:0|0:0,0:0:0:0:
187,285,3488,2,0,B|182:229|182:229|176:216|176:216|172:166,1,120,2|0,1:0|0:0,0:0:0:0:
503,40,4529,6,0,P|428:43|377:88,1,143.999995605469,2|0,1:0|0:0,0:0:0:0:
321,139,4840,1,2,2:0:0:0:
321,139,4945,2,0,P|269:84|219:88,1,120,10|0,1:0|0:0,0:0:0:0:
19,373,5464,21,2,1:0:0:0:
122,304,5674,1,2,0:0:0:0:
122,304,5778,2,0,B|169:284|213:320|195:348|232:385|287:364,1,180.000006866455,2|0,1:0|0:0,0:0:0:0:
422,384,6194,38,0,P|423:308|434:240,1,143.999995605469,2|0,1:0|0:0,0:0:0:0:
393,176,6506,1,2,2:0:0:0:
393,176,6610,2,0,P|369:104|322:86,1,120,10|0,1:0|0:0,0:0:0:0:
77,149,7131,21,2,1:0:0:0:
167,45,7339,1,2,0:0:0:0:
167,45,7443,2,0,B|170:33|178:21|178:21|191:42|188:70|175:92,1,90.0000034332277,2|0,1:0|0:0,0:0:0:0:
12,281,7860,38,0,P|87:284|138:329,1,143.999995605469,2|0,1:0|0:0,0:0:0:0:
194,380,8172,1,2,2:0:0:0:
194,380,8276,2,0,P|246:325|296:329,1,120,10|0,1:0|0:0,0:0:0:0:
464,318,8692,6,0,L|457:378,1,60,2|0,1:0|0:0,0:0:0:0:
382,297,8900,1,2,2:0:0:0:
382,297,9005,1,2,2:0:0:0:
382,297,9109,2,0,L|373:212,1,60,2|0,1:0|0:0,0:0:0:0:
318,154,9317,1,10,1:2:0:0:
318,154,9421,1,10,1:2:0:0:
318,154,9525,6,0,P|264:198|188:222,1,143.999995605469,10|0,1:0|0:0,0:0:0:0:
126,267,9837,1,2,2:0:0:0:
126,267,9941,2,0,P|102:208|56:127,1,120,10|0,1:0|0:0,0:0:0:0:
214,0,10358,37,2,1:0:0:0:
188,15,10462,1,2,0:0:0:0:
168,37,10566,1,2,2:0:0:0:
155,64,10670,1,2,2:0:0:0:
150,94,10774,2,0,L|156:158,1,60,10|0,1:0|0:0,0:0:0:0:
211,260,10982,1,10,1:2:0:0:
211,260,11086,1,10,1:2:0:0:
211,260,11191,6,0,P|264:215|340:191,1,143.999995605469,10|0,1:0|0:0,0:0:0:0:
425,236,11503,1,0,0:0:0:0:
425,236,11607,2,0,B|385:183|403:137|446:149|444:88|409:49,1,180.000006866455,10|8,1:0|1:0,0:0:0:0:
352,16,11919,1,10,1:2:0:0:
352,16,12023,6,0,L|293:10,1,60,2|0,1:0|0:0,0:0:0:0:
253,79,12232,1,2,2:0:0:0:
253,79,12336,1,2,2:0:0:0:
253,79,12440,2,0,L|168:87,1,60,2|0,1:0|0:0,0:0:0:0:
102,79,12648,1,10,1:2:0:0:
102,79,12752,1,10,1:2:0:0:
102,79,12856,38,0,P|131:142|143:234,1,143.999995605469,10|0,1:0|0:0,0:0:0:0:
209,267,13168,1,2,2:0:0:0:
209,267,13272,2,0,P|226:228|252:196,1,60,10|0,1:0|0:0,0:0:0:0:
328,125,13481,38,0,B|358:107|391:108|391:108|386:131,1,90.0000034332277,14|0,1:0|0:0,0:0:0:0:
447,185,13689,38,0,L|453:244,1,60,2|0,1:0|0:0,0:0:0:0:
395,291,13897,1,2,2:0:0:0:
395,291,14001,1,2,2:0:0:0:
395,291,14105,2,0,L|386:375,1,60,10|0,1:0|0:0,0:0:0:0:
320,378,14313,1,10,1:2:0:0:
320,378,14417,1,10,1:2:0:0:
320,378,14522,6,0,B|256:397|224:369|251:335|203:303|149:314,1,180.000006866455,14|0,1:0|1:0,0:0:0:0:
104,384,14834,1,2,0:0:0:0:
104,384,14938,2,0,B|139:386|181:346|155:321|193:285|247:291,1,180.000006866455,10|8,1:0|1:0,0:0:0:0:
305,238,15250,1,8,1:0:0:0:
305,238,15354,2,0,B|251:162|301:69|401:52|417:145|366:198,1,270.000010299683,2|0,1:0|0:0,0:0:0:0:
376,181,15771,22,0,B|327:177|327:177|313:163|313:163|254:157,1,120,10|0,1:0|0:0,0:0:0:0:
126,106,15979,2,0,B|176:101|176:101|191:86|191:86|239:83,1,120,2|0,1:0|0:0,0:0:0:0:
117,28,16187,6,0,P|50:121|86:173,1,180.000006866455,6|0,1:0|0:0,0:0:0:0:
111,242,16499,1,2,2:0:0:0:
111,242,16603,2,0,P|170:222|253:248,1,143.999995605469,10|8,1:0|1:0,0:0:0:0:
321,283,16915,1,10,1:0:0:0:
321,283,17019,2,0,L|340:63,1,215.999993408203,2|0,1:0|0:0,0:0:0:0:
344,56,17436,38,0,B|393:60|393:60|407:74|407:74|466:80,1,120,10|0,1:0|0:0,0:0:0:0:
307,178,17644,2,0,B|257:183|257:183|242:198|242:198|194:201,1,120,2|0,1:0|0:0,0:0:0:0:
86,241,17852,38,0,B|14:200|20:107|93:57|140:125|119:186,1,240,2|0,1:0|0:0,0:0:0:0:
188,210,18164,1,2,2:0:0:0:
188,210,18268,2,0,L|180:291,1,71.9999978027344,10|0,1:0|0:0,0:0:0:0:
152,357,18476,1,10,2:0:0:0:
152,357,18580,1,10,2:0:0:0:
152,357,18684,2,0,P|115:352|67:365,1,71.9999978027344,2|0,1:0|0:0,0:0:0:0:
13,329,18894,1,10,1:2:0:0:
13,329,18998,1,10,1:2:0:0:
13,329,19102,38,0,B|16:280|16:280|31:266|31:266|36:207,1,120,2|0,1:0|0:0,0:0:0:0:
101,82,19310,2,0,B|106:132|106:132|121:147|121:147|124:194,1,120,2|0,1:0|0:0,0:0:0:0:
28,53,19518,38,0,P|109:3|178:54,1,180.000006866455,2|0,1:0|0:0,0:0:0:0:
244,80,19830,1,2,2:0:0:0:
244,80,19934,2,0,P|304:16|362:20,1,143.999995605469,10|8,1:0|0:0,0:0:0:0:
443,1,20247,1,8,1:0:0:0:
443,1,20351,2,0,L|461:216,1,215.999993408203,10|0,1:0|0:0,0:0:0:0:
457,232,20767,6,0,B|420:209|380:221,1,71.9999978027344,10|0,1:0|0:0,0:0:0:0:
283,335,20975,2,0,B|320:314|330:274,1,71.9999978027344,2|0,1:0|0:0,0:0:0:0:
268,92,21184,22,0,B|266:157|311:201,1,120,2|0,1:0|0:0,0:0:0:0:
340,46,21392,1,2,2:0:0:0:
340,46,21496,1,2,2:0:0:0:
340,46,21600,2,0,P|285:13|218:20,1,120,10|0,1:0|0:0,0:0:0:0:
89,137,21808,1,8,1:0:0:0:
89,137,21912,1,8,1:0:0:0:
89,137,22016,2,0,P|151:121|193:69,1,120,2|0,1:1|0:0,0:0:0:0:
0,121,22224,1,2,2:0:0:0:
0,121,22328,1,2,2:0:0:0:
0,121,22432,54,0,B|3:170|3:170|18:184|18:184|23:243,1,120,10|0,1:0|0:0,0:0:0:0:
83,367,22640,2,0,B|88:317|88:317|103:302|103:302|106:255,1,120,2|0,1:0|0:0,0:0:0:0:
100,127,22849,22,0,B|159:92|219:126|198:197|270:221|321:201,1,240,2|0,1:0|0:0,0:0:0:0:
360,138,23161,1,2,2:0:0:0:
360,138,23266,2,0,P|424:143|380:270,1,240,10|8,1:0|0:0,0:0:0:0:
295,329,23578,1,8,1:0:0:0:
295,329,23682,2,0,L|276:82,1,240,2|0,1:0|0:0,0:0:0:0:
186,37,23994,1,2,2:0:0:0:
186,37,24098,2,0,P|158:88|191:139,1,120,10|0,1:0|0:0,0:0:0:0:
294,114,24307,1,10,2:0:0:0:
293,123,24411,1,10,2:0:0:0:
293,131,24515,6,0,P|353:104|427:112,2,120,10|0|2,1:0|0:0|2:0,0:0:0:0:
244,195,24827,1,2,2:0:0:0:
244,195,24931,2,0,P|181:129|51:173,1,240,2|8,1:0|0:0,0:0:0:0:
0,231,25243,1,0,0:0:0:0:
0,231,25347,2,0,L|10:351,1,120,10|0,1:0|0:0,0:0:0:0:
134,318,25556,2,0,L|144:197,1,120,10|0,2:0|0:0,0:0:0:0:
216,62,25764,1,10,1:0:0:0:
270,39,25868,1,2,0:0:0:0:
328,52,25972,1,2,2:0:0:0:
367,97,26076,1,2,2:0:0:0:
373,155,26180,38,0,L|363:274,1,120,2|0,1:0|0:0,0:0:0:0:
293,344,26388,1,2,2:0:0:0:
293,344,26492,1,2,2:0:0:0:
293,344,26596,2,0,P|238:322|231:262,1,120,10|0,1:0|0:0,0:0:0:0:
287,149,26805,1,10,2:0:0:0:
288,161,26909,1,10,2:0:0:0:
288,173,27013,2,0,L|269:39,1,120,10|0,1:0|0:0,0:0:0:0:
181,0,27221,2,0,L|171:119,1,120,10|0,2:0|0:0,0:0:0:0:
120,187,27429,1,10,1:0:0:0:
123,228,27533,1,2,0:0:0:0:
126,269,27637,1,2,2:0:0:0:
130,311,27741,1,2,2:0:0:0:
133,352,27846,6,0,P|93:336|42:335,1,90.0000034332277,6|0,1:0|0:0,0:0:0:0:
210,295,28054,1,2,2:0:0:0:
210,295,28158,1,2,2:0:0:0:
210,295,28262,2,0,P|249:279|300:278,1,90.0000034332277,10|0,1:0|0:0,0:0:0:0:
116,249,28470,1,2,2:0:0:0:
116,249,28574,1,2,2:0:0:0:
116,249,28678,2,0,P|98:209|63:172,1,90.0000034332277,2|0,1:0|0:0,0:0:0:0:
179,31,28887,1,0,0:0:0:0:
179,31,28991,1,0,0:0:0:0:
179,31,29095,2,0,P|148:63|130:104,1,90.0000034332277,10|0,1:0|0:0,0:0:0:0:
223,247,29303,2,0,P|209:204|183:167,1,90.0000034332277,2|0,1:0|0:0,0:0:0:0:
5,126,29511,6,0,P|41:164|122:175,1,120,6|0,1:0|0:0,0:0:0:0:
236,102,29719,1,2,2:0:0:0:
236,102,29823,1,2,2:0:0:0:
236,102,29928,2,0,L|224:229,1,120,10|0,1:0|0:0,0:0:0:0:
337,356,30136,1,2,2:0:0:0:
337,356,30240,1,2,2:0:0:0:
337,356,30345,2,0,L|325:228,1,120,2|0,1:0|0:0,0:0:0:0:
472,178,30552,1,2,2:0:0:0:
472,178,30656,1,2,2:0:0:0:
472,178,30760,2,0,P|455:233|400:244,1,120,10|0,1:0|0:0,0:0:0:0:
271,136,30968,2,0,P|327:123|364:165,1,120,2|0,1:0|0:0,0:0:0:0:
294,276,31177,38,0,L|142:262,1,150,6|0,1:0|0:0,0:0:0:0:
15,343,31385,1,2,2:0:0:0:
15,343,31489,1,2,2:0:0:0:
15,343,31593,2,0,P|82:375|142:332,1,150,10|0,1:0|0:0,0:0:0:0:
107,153,31801,1,2,2:0:0:0:
107,153,31905,1,2,2:0:0:0:
107,153,32009,2,0,P|43:195|49:270,1,150,2|0,1:0|0:0,0:0:0:0:
193,167,32218,1,2,2:0:0:0:
193,167,32322,1,2,2:0:0:0:
193,167,32426,2,0,L|179:12,1,150,10|0,1:0|0:0,0:0:0:0:
313,97,32634,2,0,L|299:246,1,150,2|0,1:0|0:0,0:0:0:0:
344,316,32842,6,0,P|423:285|491:343,1,180.000006866455,6|0,1:0|0:0,0:0:0:0:
273,384,33050,1,2,2:0:0:0:
273,384,33154,1,2,2:0:0:0:
273,384,33258,2,0,L|254:182,1,180.000006866455,10|0,1:0|0:0,0:0:0:0:
393,97,33467,1,2,2:0:0:0:
393,97,33571,1,2,2:0:0:0:
393,97,33675,2,0,P|404:183|330:202,1,180.000006866455,2|0,1:0|0:0,0:0:0:0:
163,128,33883,1,2,2:0:0:0:
163,128,33987,1,2,2:0:0:0:
163,128,34091,2,0,P|232:74|285:129,1,180.000006866455,10|0,1:0|0:0,0:0:0:0:
311,317,34300,2,0,P|229:283|250:209,1,180.000006866455,2|0,1:0|0:0,0:0:0:0:
501,141,34507,22,2,P|470:160|435:168,1,71.9999978027344,2|2,1:0|0:0,1:0:0:0:
363,102,35163,1,10,3:2:0:0:
363,102,35273,1,10,3:2:0:0:
363,102,35382,2,0,P|362:80|355:59,1,36,2|0,0:0|0:0,0:0:0:0:
280,46,35806,2,0,P|282:102|300:155,1,107.999996704102,2|0,1:0|0:0,0:0:0:0:
260,220,36230,6,2,P|229:201|194:193,1,71.9999978027344,2|2,1:0|0:0,1:0:0:0:
110,268,36847,1,10,3:2:0:0:
110,268,36950,1,10,3:2:0:0:
110,268,37053,2,0,P|109:290|102:311,1,36,2|0,0:0|0:0,0:0:0:0:
27,324,37464,2,0,P|29:267|47:214,1,107.999996704102,2|0,1:0|0:0,0:0:0:0:
90,161,37876,54,2,P|63:135|46:104,1,71.9999978027344,2|2,1:0|0:0,1:0:0:0:
197,21,38503,1,10,3:2:0:0:
197,21,38607,1,10,3:2:0:0:
197,21,38712,2,0,P|175:16|153:17,1,36,2|0,0:0|0:0,0:0:0:0:
122,87,39130,2,0,P|177:99|233:96,1,107.999996704102,2|0,1:0|0:0,0:0:0:0:
249,88,39548,22,2,B|171:93|144:187|249:198|206:308|124:298,1,288,2|0,1:0|0:0,1:0:0:0:
471,194,40790,53,0,1:0:0:0:
213,95,41442,2,2,B|211:34|275:-12|362:45|375:138|292:232|171:141|109:195|110:264|140:318|200:329|238:314|248:261,1,528,2|0,0:0|0:0,1:0:0:0:
247,259,42595,37,8,2:0:0:0:
477,361,43022,6,2,P|452:338|415:339,1,72,0|0,0:0|0:0,1:0:0:0:
407,344,43441,6,0,B|323:386|256:326|320:280|272:210|189:243,1,270.000010299683,6|0,1:0|0:0,0:0:0:0:
211,321,43861,2,0,B|266:323|297:276|250:249|292:204|350:212,1,180.000006866455,2|0,1:0|0:0,0:0:0:0:
383,154,44170,1,2,2:0:0:0:
383,154,44273,38,0,L|390:79,1,60,2|0,0:0|0:0,0:0:0:0:
310,11,44480,2,0,L|316:70,1,60,2|0,0:0|0:0,0:0:0:0:
251,131,44686,1,0,1:0:0:0:
170,86,44792,1,2,2:0:0:0:
104,153,44899,1,2,2:0:0:0:
147,234,45006,1,2,2:0:0:0:
236,222,45113,1,4,0:0:0:0:
