osu file format v14

[General]
AudioFilename: audio.mp3
AudioLeadIn: 0
PreviewTime: 212
Countdown: 0
SampleSet: Soft
StackLeniency: 0.7
Mode: 0
LetterboxInBreaks: 0
WidescreenStoryboard: 0

[Editor]
Bookmarks: 14540,21207,34540,40790,42457
DistanceSpacing: 0.9
BeatDivisor: 4
GridSize: 4
TimelineZoom: 1

[Metadata]
Title:Swiper No Swiping!
TitleUnicode:Swiper No Swiping!
Artist:Joshua Sitron & Billy Straus
ArtistUnicode:Joshua Sitron & Billy Straus
Creator:Gordon
Version:Ascended's Normal!
Source:Dora The Explorer
Tags:English Novelty Children's Music The Fox Swiper's Theme Boots The Monkey Nickelodeon Jr Nick Jr. Cartoon TV Television Latin Polyrhythm Records Paramount Dora the Explorer (Album) 2004 Costa Rica Marc Weiner Kathleen Herles Harrison Chad Leisha Medina Gordon123 StarCastler -ascended- -_ascended_- ascended AJT
BeatmapID:2993229
BeatmapSetID:1440219

[Difficulty]
HPDrainRate:4
CircleSize:3.4
OverallDifficulty:4
ApproachRate:6
SliderMultiplier:1.5
SliderTickRate:1

[Events]
//Background and Video events
0,0,"50103_artistic-swiper.png",0,0
//Break Periods
2,34707,39665
//Storyboard Layer 0 (Background)
//Storyboard Layer 1 (Fail)
//Storyboard Layer 2 (Pass)
//Storyboard Layer 3 (Foreground)
//Storyboard Layer 4 (Overlay)
//Storyboard Sound Samples

[TimingPoints]
212,416.666666666667,4,2,0,100,1,0
447,416.666666666667,4,2,0,100,1,0
590,416.666666666667,4,2,0,100,1,0
1198,416.377515614157,4,2,0,60,1,0
1198,-111.111111111111,4,2,0,60,0,0
7545,-111.111111111111,4,2,0,5,0,0
7857,-111.111111111111,4,2,0,60,0,0
13580,-111.111111111111,4,2,0,5,0,0
13684,-111.111111111111,4,2,0,60,0,0
14522,-100,4,2,0,60,0,0
15662,-100,4,2,0,5,0,0
15766,-100,4,2,0,60,0,0
17327,-100,4,2,0,5,0,0
17431,-100,4,2,0,60,0,0
20656,-100,4,2,0,5,0,0
20760,-100,4,2,0,60,0,0
27836,-100,4,2,0,60,0,0
34507,437.956204379562,4,2,0,49,1,0
34540,-111.111111111111,4,2,0,49,0,0
35382,424.028268551237,4,2,0,49,1,0
35700,-100,4,2,0,5,0,0
35806,-100,4,2,0,49,0,0
36124,-100,4,2,0,5,0,0
36230,411.522633744856,4,2,0,49,1,0
37361,-100,4,2,0,5,0,0
37464,-100,4,2,0,49,0,0
37876,418.118466898955,4,2,0,49,1,0
39025,-100,4,2,0,5,0,0
39130,-100,4,2,0,49,0,0
39444,-100,4,2,0,5,0,0
39548,414.22160856058,4,2,0,49,1,0
40790,434.782608695652,4,2,0,50,1,0
41442,384.615384615385,4,2,0,60,1,0
41442,-111.111111111111,4,2,0,60,0,0
42403,-100,4,2,0,5,0,0
42499,-100,4,2,0,5,0,0
42595,427.046263345196,4,2,2,50,1,0
43022,419.58041958042,4,2,0,60,1,0
43022,-111.111111111111,4,2,0,60,0,0
43334,-111.111111111111,4,2,0,5,0,0
43438,-111.111111111111,4,2,0,60,0,0
43751,-111.111111111111,4,2,0,5,0,0
43861,412.938747419133,4,2,0,60,1,0
44686,427.046263345196,4,2,0,60,1,0
44686,-111.111111111111,4,2,0,60,0,0

[Colours]
Combo1 : 254,141,170
Combo2 : 111,183,255
Combo3 : 0,98,196
Combo4 : 255,128,64
Combo5 : 249,220,134

[HitObjects]
129,97,1198,6,0,P|72:105|18:121,2,101.249996910095,0|2|2,3:0|1:0|1:0,0:0:0:0:
425,161,2863,2,0,P|459:119|445:70,2,101.249996910095,0|2|2,3:0|1:0|1:0,0:0:0:0:
144,358,4529,5,2,1:0:0:0:
71,303,4841,1,2,2:0:0:0:
107,221,5153,1,2,0:0:0:0:
107,221,5361,2,0,B|144:206|171:235|155:244|186:271|229:259,1,134.999995880127,0|2,0:0|1:0,0:0:0:0:
347,245,6194,5,2,1:0:0:0:
420,192,6506,1,2,2:0:0:0:
399,107,6819,1,2,0:0:0:0:
399,107,7027,2,0,P|337:123|264:135,1,134.999995880127,0|2,0:0|1:0,0:0:0:0:
168,63,7860,5,2,1:0:0:0:
81,90,8172,1,2,2:0:0:0:
101,183,8484,1,2,0:0:0:0:
101,183,8692,2,0,P|88:231|79:287,2,101.249996910095,2|2|10,1:0|2:0|1:2,0:0:0:0:
158,203,9525,6,0,B|228:193|208:251|285:241,1,134.999995880127,10|10,1:0|1:0,0:0:0:0:
375,164,10358,1,2,1:0:0:0:
460,194,10670,1,2,2:0:0:0:
490,285,10982,1,10,1:2:0:0:
490,285,11191,6,0,P|423:295|358:312,1,134.999995880127,10|10,1:0|1:0,0:0:0:0:
238,337,12023,1,2,1:0:0:0:
150,311,12336,1,2,2:0:0:0:
157,223,12648,1,10,1:2:0:0:
157,223,12856,6,0,P|223:212|288:195,1,134.999995880127,10|10,1:0|1:0,0:0:0:0:
406,164,13689,1,2,1:0:0:0:
484,118,14001,1,2,2:0:0:0:
429,51,14313,1,10,1:2:0:0:
429,51,14522,6,0,P|384:45|346:33,1,75,14|0,1:0|1:0,0:0:0:0:
299,0,14938,2,0,B|250:-5|222:22|230:33|198:58|152:31,1,150,10|2,1:0|1:0,0:0:0:0:
102,13,15563,1,2,0:0:0:0:
102,13,15771,1,10,1:0:0:0:
54,140,16187,6,0,P|64:186|69:218,1,75,6|0,1:0|0:0,0:0:0:0:
43,276,16603,2,0,B|92:261|118:296|112:302|136:330|189:307,1,150,10|2,1:0|1:0,0:0:0:0:
237,272,17228,1,2,0:0:0:0:
237,272,17436,1,10,1:0:0:0:
305,158,17853,6,0,P|343:144|383:151,1,75,2|0,1:0|0:0,0:0:0:0:
443,159,18269,2,0,P|423:242|413:315,1,150,10|2,1:0|1:0,0:0:0:0:
419,377,18894,1,10,1:2:0:0:
419,377,19102,1,2,1:0:0:0:
286,352,19518,6,0,P|237:332|226:302,1,75,2|0,1:0|0:0,0:0:0:0:
224,247,19934,2,0,P|189:310|117:316,1,150,10|10,1:0|1:0,0:0:0:0:
72,272,20559,1,2,0:0:0:0:
72,272,20767,1,10,1:0:0:0:
104,140,21184,6,0,P|149:138|185:154,1,75,2|2,1:0|2:0,0:0:0:0:
235,115,21600,2,0,P|275:117|313:102,1,75,10|8,1:0|1:0,0:0:0:0:
374,99,22016,2,0,P|439:148|428:223,1,150,2|10,1:1|1:0,0:0:0:0:
408,274,22641,1,2,1:0:0:0:
408,274,22849,5,2,1:0:0:0:
277,239,23266,1,10,1:0:0:0:
168,319,23682,1,2,1:0:0:0:
36,288,24098,1,10,1:0:0:0:
16,223,24306,1,10,2:0:0:0:
61,173,24515,6,0,P|105:187|143:186,1,75,10|2,1:0|2:0,0:0:0:0:
200,186,24931,2,0,P|237:184|272:171,1,75,2|8,1:0|0:0,0:0:0:0:
333,199,25347,2,0,P|391:189|410:98,1,150,10|10,1:0|1:0,0:0:0:0:
387,53,25972,1,2,2:0:0:0:
387,53,26180,5,2,1:0:0:0:
257,13,26597,1,10,1:0:0:0:
129,55,27013,1,10,1:0:0:0:
64,173,27429,1,10,1:0:0:0:
87,236,27637,1,2,2:0:0:0:
94,303,27846,6,0,B|174:284|147:351|232:361,1,150,6|10,1:0|1:0,0:0:0:0:
331,277,28678,2,0,P|346:237|344:198,1,75,2|0,1:0|0:0,0:0:0:0:
300,154,29095,2,0,P|285:114|287:75,1,75,10|2,1:0|1:0,0:0:0:0:
321,25,29511,6,0,P|402:43|476:50,1,150,6|10,1:0|1:0,0:0:0:0:
504,180,30344,1,2,1:0:0:0:
451,304,30760,1,10,1:0:0:0:
385,289,30968,1,2,1:0:0:0:
320,308,31177,6,0,P|266:294|152:277,1,150,6|10,1:0|1:0,0:0:0:0:
42,312,32009,2,0,P|22:263|33:237,1,75,2|2,1:0|2:0,0:0:0:0:
17,177,32426,2,0,P|37:128|63:117,1,75,10|2,1:0|1:0,0:0:0:0:
118,140,32842,6,0,P|172:154|286:171,1,150,6|10,1:0|1:0,0:0:0:0:
384,231,33675,1,2,1:0:0:0:
498,160,34091,1,10,1:0:0:0:
509,93,34300,1,2,1:0:0:0:
457,55,34507,5,2,1:0:0:0:
48,345,40790,5,0,1:0:0:0:
157,170,41442,2,2,B|235:161|235:161|337:374|337:374|431:368,1,404.999987640381,2|8,0:0|2:0,1:0:0:0:
483,258,43022,5,0,0:0:0:0:
458,139,43441,2,0,P|385:117|310:103,1,134.999995880127,6|2,1:0|1:0,0:0:0:0:
99,163,44686,5,0,1:0:0:0:
75,282,45113,1,4,0:0:0:0:
