osu file format v14

[General]
AudioFilename: audio.mp3
AudioLeadIn: 0
PreviewTime: 64816
Countdown: 1
SampleSet: None
StackLeniency: 0.7
Mode: 0
LetterboxInBreaks: 0
WidescreenStoryboard: 1

[Editor]
DistanceSpacing: 1
BeatDivisor: 4
GridSize: 4
TimelineZoom: 2.1

[Metadata]
Title:Forest
TitleUnicode:Forest
Artist:Joshua Queen
ArtistUnicode:Joshua Queen
Creator:Nyfot
Version:Easy jumps
Source:
Tags:
BeatmapID:1700899
BeatmapSetID:796202

[Difficulty]
HPDrainRate:8.3
CircleSize:4.5
OverallDifficulty:7
ApproachRate:9.3
SliderMultiplier:1.20000000596046
SliderTickRate:1

[Events]
//Background and Video events
0,0,"2882113-artwork-digital-art-fantasy-art-creature-dark-hades-smite___fantasy-wallpapers.jpg",0,0
//Break Periods
//Storyboard Layer 0 (Background)
//Storyboard Layer 1 (Fail)
//Storyboard Layer 2 (Pass)
//Storyboard Layer 3 (Foreground)
//Storyboard Sound Samples

[TimingPoints]
98,337.073363304299,4,1,0,65,1,0
98,-83.3333333333333,4,3,0,75,0,0
20490,-83.3333333333333,4,3,0,65,0,0
21670,-133.333333333333,4,2,0,65,0,0
23018,-83.3333333333333,4,1,0,65,0,0
24367,-83.3333333333333,4,3,0,65,0,0
25378,-83.3333333333333,4,1,0,65,0,0
26726,-83.3333333333333,4,1,0,65,0,0
27148,-83.3333333333333,4,2,0,65,0,0
28496,-83.3333333333333,4,1,0,65,0,0
29844,-83.3333333333333,4,3,0,65,0,0
30518,-83.3333333333333,4,1,0,65,0,0
31108,-83.3333333333333,4,2,0,65,0,0
31782,-83.3333333333333,4,1,0,65,0,0
32457,-83.3333333333333,4,1,0,65,0,0
48636,-40,4,1,0,65,0,1
51333,-83.3333333333333,4,1,0,65,0,0
54029,-40,4,1,0,65,0,1
62119,-83.3333333333333,4,3,0,65,0,0
64816,-83.3333333333333,4,1,0,65,0,0
85209,-83.3333333333333,4,3,0,65,0,0
86388,-83.3333333333333,4,2,0,65,0,0
87821,-83.3333333333333,4,1,0,65,0,0
89085,-83.3333333333333,4,3,0,65,0,0
90096,-83.3333333333333,4,1,0,65,0,0
91444,-83.3333333333333,4,2,0,65,0,0
93214,-83.3333333333333,4,1,0,65,0,0
94394,-83.3333333333333,4,3,0,65,0,0
95068,-83.3333333333333,4,1,0,65,0,0
95826,-83.3333333333333,4,2,0,65,0,0
96585,-83.3333333333333,4,3,0,65,0,0
97175,-83.3333333333333,4,1,0,65,0,0
102905,-40,4,1,0,65,0,0
105264,-83.3333333333333,4,1,0,65,0,0
107961,-40,4,1,0,65,0,1
109983,-66.6666666666667,4,1,0,65,0,1
110320,-83.3333333333333,4,1,0,65,0,0
113017,-83.3333333333333,4,1,0,65,0,1
116051,-83.3333333333333,4,1,0,65,0,0
118747,-40,4,1,0,65,0,1
129534,-83.3333333333333,4,1,0,65,0,0

[HitObjects]
144,148,98,6,0,P|212:112|284:120,1,143.999996320725,0|8,0:0|0:0,0:0:0:0:
212,256,772,5,0,0:0:0:0:
376,168,940,1,0,0:0:0:0:
184,64,1109,2,0,P|136:104|136:136,1,71.9999981603623,8|0,0:0|0:0,0:0:0:0:
384,64,1446,5,8,0:0:0:0:
120,240,1614,2,0,P|140:280|168:296,1,71.9999981603623,0|8,0:0|0:0,0:0:0:0:
204,52,1951,1,0,0:0:0:0:
352,280,2120,6,0,P|328:324|280:340,2,71.9999981603623,8|4|8,0:0|0:0|0:0,0:0:0:0:
168,120,2794,2,0,P|136:172|120:256,1,143.999996320725,0|8,0:0|0:0,0:0:0:0:
320,224,3300,2,0,P|344:156|256:40,1,215.999994481087,0|8,0:0|0:0,0:0:0:0:
132,344,4142,5,0,0:0:0:0:
416,80,4311,1,0,0:0:0:0:
168,72,4479,1,8,0:0:0:0:
312,316,4648,1,0,0:0:0:0:
300,92,4817,1,4,0:0:0:0:
160,236,4985,1,4,0:0:0:0:
320,220,5154,1,8,0:0:0:0:
216,164,5322,1,0,0:0:0:0:
387,308,5491,2,0,P|411:220|367:100,1,215.999994481086
88,308,6165,5,4,0:0:0:0:
120,112,6333,1,4,0:0:0:0:
220,268,6502,2,0,P|276:272|304:240,1,71.9999981603623,8|0,0:0|0:0,0:0:0:0:
360,68,6839,1,4,0:0:0:0:
132,228,7008,1,0,0:0:0:0:
220,56,7176,2,0,P|284:84|288:104,1,71.9999981603623,8|0,0:0|0:0,0:0:0:0:
404,228,7513,5,4,0:0:0:0:
256,320,7682,1,0,0:0:0:0:
152,208,7850,6,0,P|164:140|184:120,1,71.9999981603623,8|0,0:0|0:0,0:0:0:0:
284,312,8187,1,4,0:0:0:0:
240,48,8524,5,8,0:0:0:0:
460,196,8693,1,0,0:0:0:0:
392,64,9198,1,8,0:0:0:0:
104,280,9536,5,4,0:0:0:0:
216,112,9704,1,0,0:0:0:0:
408,292,9873,1,8,0:0:0:0:
92,196,10041,1,0,0:0:0:0:
340,104,10210,1,8,0:0:0:0:
200,308,10378,1,8,0:0:0:0:
104,104,10547,1,8,0:0:0:0:
432,232,10715,1,8,0:0:0:0:
132,196,10884,2,0,P|172:279|185:269,1,143.999996320725,12|12,0:0|0:0,0:0:0:0:
408,80,11558,5,12,0:0:0:0:
224,316,11727,1,12,0:0:0:0:
236,56,11895,2,0,P|175:60|158:92,1,71.9999981603623,8|0,0:0|0:0,0:0:0:0:
384,212,12232,1,4,0:0:0:0:
80,228,12401,1,0,0:0:0:0:
320,56,12569,2,0,P|360:72|372:104,1,71.9999981603623,8|0,0:0|0:0,0:0:0:0:
236,324,12906,1,4,0:0:0:0:
120,144,13075,1,4,0:0:0:0:
376,172,13243,1,8,0:0:0:0:
132,296,13412,1,0,0:0:0:0:
248,80,13580,6,0,P|308:64|388:96,1,143.999996320725,4|8,0:0|0:0,0:0:0:0:
376,248,14086,2,0,P|320:276|296:268,1,71.9999981603623,0|4,0:0|0:0,0:0:0:0:
176,232,14423,1,4,0:0:0:0:
276,116,14592,2,0,B|228:100|200:112,1,71.9999981603623,8|0,0:0|0:0,0:0:0:0:
424,328,14929,5,4,0:0:0:0:
380,56,15097,1,4,0:0:0:0:
328,260,15266,1,8,0:0:0:0:
288,104,15434,1,0,0:0:0:0:
228,224,15603,1,0,0:0:0:0:
228,224,15771,1,0,0:0:0:0:
292,100,15940,1,8,0:0:0:0:
328,260,16108,1,8,0:0:0:0:
376,40,16277,2,0,P|428:128|416:176,1,143.999996320724,0|8,0:0|0:0,0:0:0:0:
104,56,16951,5,4,0:0:0:0:
268,288,17120,1,4,0:0:0:0:
296,64,17288,2,0,P|360:72|376:92,1,71.9999981603623,8|0,0:0|0:0,0:0:0:0:
112,228,17625,1,4,0:0:0:0:
384,192,17794,1,0,0:0:0:0:
168,56,17962,2,0,P|120:92|120:124,1,71.9999981603623,8|0,0:0|0:0,0:0:0:0:
317,237,18299,1,0,0:0:0:0:
292,263,18383,1,0,0:0:0:0:
261,281,18467,1,0,0:0:0:0:
226,288,18551,1,0,0:0:0:0:
190,285,18636,1,0,0:0:0:0:
157,270,18720,1,0,0:0:0:0:
130,247,18804,1,0,0:0:0:0:
111,216,18888,1,0,0:0:0:0:
100,187,18974,2,0,P|108:127|132:115,1,71.9999981603623
340,96,19311,5,8,0:0:0:0:
88,316,19479,2,0,P|160:344|248:336,1,143.999996320725
180,96,19985,2,0,P|244:124|264:144,1,71.9999981603623,8|0,0:0|0:0,0:0:0:0:
424,288,20322,1,2,0:0:0:0:
88,236,20490,5,8,0:0:0:0:
88,236,20575,1,8,0:0:0:0:
88,236,20659,1,8,0:0:0:0:
88,236,20743,1,8,0:0:0:0:
100,240,20828,1,0,0:0:0:0:
116,240,20912,1,0,0:0:0:0:
127,236,20996,1,0,0:0:0:0:
300,156,21165,1,0,0:0:0:0:
152,344,21333,1,4,0:0:0:0:
424,59,21670,5,2,0:0:0:0:
425,81,21754,1,0,0:0:0:0:
424,103,21838,1,0,0:0:0:0:
422,126,21922,1,0,0:0:0:0:
420,148,22007,1,8,0:0:0:0:
415,170,22091,1,0,0:0:0:0:
408,192,22175,1,0,0:0:0:0:
398,212,22259,1,0,0:0:0:0:
384,229,22344,5,2,0:0:0:0:
367,244,22428,1,0,0:0:0:0:
349,257,22512,1,4,0:0:0:0:
329,268,22596,1,0,0:0:0:0:
308,277,22681,1,8,0:0:0:0:
287,283,22765,1,0,0:0:0:0:
264,286,22849,1,4,0:0:0:0:
242,288,22934,1,0,0:0:0:0:
220,288,23018,1,2,0:0:0:0:
213,214,23103,5,0,0:0:0:0:
229,214,23187,1,0,0:0:0:0:
245,213,23272,1,0,0:0:0:0:
261,210,23356,1,8,0:0:0:0:
277,206,23440,1,0,0:0:0:0:
291,200,23525,1,4,0:0:0:0:
305,192,23609,1,0,0:0:0:0:
318,183,23693,1,2,0:0:0:0:
330,172,23777,5,0,0:0:0:0:
340,160,23862,1,2,0:0:0:0:
347,145,23946,1,0,0:0:0:0:
352,130,24030,1,8,0:0:0:0:
356,114,24114,1,0,0:0:0:0:
358,98,24199,1,4,0:0:0:0:
359,83,24283,1,0,0:0:0:0:
291,86,24367,5,0,0:0:0:0:
289,93,24451,1,0,0:0:0:0:
287,101,24535,1,2,0:0:0:0:
285,107,24620,1,0,0:0:0:0:
280,113,24704,1,8,0:0:0:0:
275,119,24788,1,0,0:0:0:0:
269,124,24872,1,4,0:0:0:0:
264,129,24957,1,0,0:0:0:0:
256,131,25041,1,8,0:0:0:0:
249,135,25125,1,0,0:0:0:0:
242,137,25210,1,4,0:0:0:0:
235,139,25294,1,0,0:0:0:0:
226,143,25378,6,0,P|181:148|138:133,1,71.999998160362,8|0,0:0|0:0,0:0:0:0:
67,304,25715,2,0,P|109:326|137:319,1,71.999998160362
396,242,26052,2,0,P|405:198|399:158,1,71.999998160362,8|0,0:0|0:0,0:0:0:0:
102,131,26389,2,0,P|116:98|141:71,1,71.999998160362,8|0,0:0|0:0,0:0:0:0:
288,272,26726,5,8,0:0:0:0:
304,272,26811,1,0,0:0:0:0:
316,268,26895,1,0,0:0:0:0:
328,260,26979,1,0,0:0:0:0:
340,252,27063,1,2,0:0:0:0:
364,212,27148,5,0,0:0:0:0:
372,164,27232,1,0,0:0:0:0:
360,120,27316,1,0,0:0:0:0:
332,84,27400,1,8,0:0:0:0:
288,64,27485,1,0,0:0:0:0:
244,72,27569,1,0,0:0:0:0:
204,96,27653,1,0,0:0:0:0:
172,128,27738,1,2,0:0:0:0:
164,176,27822,5,0,0:0:0:0:
176,220,27906,1,2,0:0:0:0:
212,248,27990,1,0,0:0:0:0:
256,260,28075,1,8,0:0:0:0:
300,268,28159,1,0,0:0:0:0:
344,256,28243,1,2,0:0:0:0:
388,240,28327,1,0,0:0:0:0:
428,216,28412,1,2,0:0:0:0:
392,184,28496,5,0,0:0:0:0:
356,156,28580,1,0,0:0:0:0:
316,132,28664,1,0,0:0:0:0:
272,112,28749,1,8,0:0:0:0:
232,92,28833,1,0,0:0:0:0:
188,84,28917,1,0,0:0:0:0:
140,88,29002,1,0,0:0:0:0:
96,104,29086,1,4,0:0:0:0:
60,132,29170,5,0,0:0:0:0:
36,172,29254,1,2,0:0:0:0:
28,220,29339,1,0,0:0:0:0:
52,260,29423,1,8,0:0:0:0:
92,284,29507,1,0,0:0:0:0:
136,272,29591,1,2,0:0:0:0:
172,240,29676,1,0,0:0:0:0:
184,196,29760,1,4,0:0:0:0:
200,152,29844,5,0,0:0:0:0:
224,192,29928,1,0,0:0:0:0:
248,232,30013,1,0,0:0:0:0:
284,264,30097,1,8,0:0:0:0:
332,264,30181,1,0,0:0:0:0:
372,244,30266,1,0,0:0:0:0:
388,204,30350,1,0,0:0:0:0:
384,160,30434,1,2,0:0:0:0:
368,120,30518,5,0,0:0:0:0:
344,156,30603,1,2,0:0:0:0:
320,192,30687,1,0,0:0:0:0:
288,220,30771,1,8,0:0:0:0:
248,232,30855,1,0,0:0:0:0:
204,224,30940,1,2,0:0:0:0:
168,196,31024,1,0,0:0:0:0:
156,156,31108,5,12,0:0:0:0:
200,164,31193,1,0,0:0:0:0:
244,160,31277,1,0,0:0:0:0:
272,128,31361,1,0,0:0:0:0:
272,84,31445,1,8,0:0:0:0:
244,52,31530,1,0,0:0:0:0:
204,40,31614,1,0,0:0:0:0:
160,48,31698,1,0,0:0:0:0:
128,76,31782,1,10,0:0:0:0:
112,116,31867,5,0,0:0:0:0:
156,116,31951,1,2,0:0:0:0:
196,128,32035,1,0,0:0:0:0:
232,152,32119,1,8,0:0:0:0:
260,184,32204,1,0,0:0:0:0:
280,220,32288,1,2,0:0:0:0:
276,264,32372,1,2,0:0:0:0:
256,300,32457,2,0,P|208:316|164:312,1,71.999998160362,4|0,0:0|0:0,0:0:0:0:
95,81,32794,5,8,0:0:0:0:
195,305,32962,1,0,0:0:0:0:
229,121,33131,1,2,0:0:0:0:
316,248,33299,1,2,0:0:0:0:
409,95,33468,1,8,0:0:0:0:
172,192,33636,2,0,P|168:240|208:276,1,71.999998160362,0|4,0:0|0:0,0:0:0:0:
404,312,33973,5,0,0:0:0:0:
240,132,34142,1,8,0:0:0:0:
184,312,34310,1,0,0:0:0:0:
380,151,34479,1,2,0:0:0:0:
106,117,34648,1,2,0:0:0:0:
380,151,34816,1,8,0:0:0:0:
106,117,34985,1,0,0:0:0:0:
344,240,35153,6,0,P|324:284|276:304,1,71.999998160362,4|0,0:0|0:0,0:0:0:0:
124,284,35490,2,0,P|64:264|48:232,1,71.999998160362,8|0,0:0|0:0,0:0:0:0:
416,208,35827,1,2,0:0:0:0:
96,112,35996,1,2,0:0:0:0:
216,308,36164,1,8,0:0:0:0:
312,80,36333,2,0,P|268:120|268:152,1,71.999998160362,0|2,0:0|0:0,0:0:0:0:
372,264,36670,2,0,P|324:296|280:304,1,71.999998160362,0|8,0:0|0:0,0:0:0:0:
168,192,37007,2,0,L|92:184,2,71.999998160362,0|2|2,0:0|0:0|0:0,0:0:0:0:
420,200,37513,1,8,0:0:0:0:
192,256,37850,6,0,P|128:264|104:256,1,71.999998160362
146,98,38187,5,8,0:0:0:0:
353,167,38355,1,0,0:0:0:0:
183,243,38524,1,2,0:0:0:0:
298,276,38692,1,2,0:0:0:0:
237,73,38861,1,8,0:0:0:0:
98,213,39029,1,0,0:0:0:0:
389,249,39198,5,2,0:0:0:0:
146,116,39367,1,2,0:0:0:0:
234,292,39535,5,8,0:0:0:0:
340,131,39704,1,0,0:0:0:0:
119,276,39872,5,2,0:0:0:0:
240,82,40041,1,2,0:0:0:0:
359,276,40209,5,8,0:0:0:0:
125,192,40378,1,0,0:0:0:0:
346,146,40546,2,0,P|359:173|332:221,1,71.999998160362,2|0,0:0|0:0,0:0:0:0:
141,141,40883,2,0,P|126:171|125:223,1,71.999998160362,8|0,0:0|0:0,0:0:0:0:
216,296,41220,5,2,0:0:0:0:
236,296,41305,1,0,0:0:0:0:
252,292,41389,1,0,0:0:0:0:
268,284,41473,1,0,0:0:0:0:
284,276,41558,1,8,0:0:0:0:
300,268,41642,1,0,0:0:0:0:
316,256,41726,1,0,0:0:0:0:
332,240,41810,1,0,0:0:0:0:
344,224,41895,5,4,0:0:0:0:
360,204,41979,1,0,0:0:0:0:
372,176,42063,1,8,0:0:0:0:
372,148,42147,1,0,0:0:0:0:
360,120,42232,1,8,0:0:0:0:
336,100,42316,1,0,0:0:0:0:
308,84,42400,1,2,0:0:0:0:
280,72,42484,1,0,0:0:0:0:
248,68,42569,1,4,0:0:0:0:
216,68,42653,5,0,0:0:0:0:
184,76,42737,1,4,0:0:0:0:
152,96,42822,1,0,0:0:0:0:
128,120,42906,1,2,0:0:0:0:
108,156,42990,1,0,0:0:0:0:
100,196,43074,1,0,0:0:0:0:
112,236,43159,1,0,0:0:0:0:
138,255,43243,6,0,P|184:275|214:271,1,71.999998160362,8|0,0:0|0:0,0:0:0:0:
369,158,43580,2,0,P|352:125|311:107,1,71.999998160362,8|0,0:0|0:0,0:0:0:0:
115,95,43917,2,0,P|95:128|92:178,1,71.999998160362,8|0,0:0|0:0,0:0:0:0:
296,292,44254,2,0,P|339:275|365:235,1,71.999998160362
302,62,44591,2,0,L|282:92,1,35.999999080181,2|0,0:0|0:0,0:0:0:0:
169,258,44760,2,0,L|206:248,1,35.999999080181,2|0,0:0|0:0,0:0:0:0:
418,208,44928,2,0,L|371:192,1,35.999999080181,2|0,0:0|0:0,0:0:0:0:
128,128,45097,2,0,P|91:130|92:284,1,215.999994481086,0|8,0:0|0:0,0:0:0:0:
264,315,45939,5,2,0:0:0:0:
430,154,46108,1,0,0:0:0:0:
204,182,46277,1,8,0:0:0:0:
440,300,46445,1,0,0:0:0:0:
440,300,46529,1,8,0:0:0:0:
440,300,46614,5,4,0:0:0:0:
248,98,46782,1,2,0:0:0:0:
146,289,46951,1,8,0:0:0:0:
400,210,47119,1,2,0:0:0:0:
93,107,47288,1,0,0:0:0:0:
400,107,47456,1,4,0:0:0:0:
93,198,47625,1,8,0:0:0:0:
440,300,47793,1,0,0:0:0:0:
440,300,47878,1,8,0:0:0:0:
440,300,47962,6,0,P|388:324|292:328,1,143.999996320724,2|8,0:0|0:0,0:0:0:0:
288,320,48383,1,0,0:0:0:0:
276,308,48468,1,0,0:0:0:0:
264,296,48552,1,0,0:0:0:0:
252,284,48636,5,8,0:0:0:0:
101,98,48805,1,0,0:0:0:0:
378,145,48973,5,8,0:0:0:0:
168,279,49142,1,2,0:0:0:0:
223,80,49310,5,8,0:0:0:0:
340,256,49479,1,4,0:0:0:0:
103,192,49647,5,8,0:0:0:0:
323,89,49816,1,4,0:0:0:0:
135,298,49984,2,0,P|190:314|276:286,1,150.000000745057,8|0,0:0|0:0,0:0:0:0:
402,221,50321,5,8,0:0:0:0:
147,241,50490,1,0,0:0:0:0:
249,77,50659,2,0,P|313:83|417:147,1,150.000000745057,8|0,0:0|0:0,0:0:0:0:
133,145,50996,5,8,0:0:0:0:
390,186,51164,1,4,0:0:0:0:
207,278,51333,2,0,P|161:267|138:259,1,71.999998160362,2|0,0:0|0:0,0:0:0:0:
265,74,51670,1,8,0:0:0:0:
364,299,51838,1,0,0:0:0:0:
364,299,51923,1,8,0:0:0:0:
364,299,52007,6,0,P|424:253|441:234,1,71.999998160362,2|0,0:0|0:0,0:0:0:0:
159,73,52344,2,0,P|114:88|104:129,2,71.999998160362,8|2|0,0:0|0:0|0:0,0:0:0:0:
402,87,52849,5,0,0:0:0:0:
220,285,53018,1,8,0:0:0:0:
377,192,53187,1,0,0:0:0:0:
190,178,53355,1,4,0:0:0:0:
319,124,53524,1,8,0:0:0:0:
266,212,53692,1,2,0:0:0:0:
247,144,53861,1,0,0:0:0:0:
125,224,54029,6,0,P|168:273|247:307,1,150.000000745057,8|0,0:0|0:0,0:0:0:0:
395,286,54366,5,10,0:0:0:0:
128,153,54535,1,8,0:0:0:0:
402,168,54703,2,0,P|360:226|292:271,1,150.000000745057,8|0,0:0|0:0,0:0:0:0:
297,91,55040,5,2,0:0:0:0:
244,300,55209,1,4,0:0:0:0:
191,84,55378,5,8,0:0:0:0:
381,239,55546,1,4,0:0:0:0:
131,195,55715,5,8,0:0:0:0:
384,98,55883,1,4,0:0:0:0:
184,280,56052,5,8,0:0:0:0:
282,77,56220,1,4,0:0:0:0:
332,284,56389,5,8,0:0:0:0:
116,179,56557,1,4,0:0:0:0:
377,131,56726,6,0,P|395:171|384:286,1,150.000000745057,8|0,0:0|0:0,0:0:0:0:
170,271,57063,5,8,0:0:0:0:
326,84,57231,1,4,0:0:0:0:
160,91,57400,6,0,P|127:141|135:245,1,150.000000745057,8|0,0:0|0:0,0:0:0:0:
375,278,57737,5,8,0:0:0:0:
230,78,57906,1,4,0:0:0:0:
385,131,58074,2,0,P|353:190|271:234,1,150.000000745057,8|0,0:0|0:0,0:0:0:0:
143,122,58411,5,2,0:0:0:0:
313,280,58580,1,4,0:0:0:0:
280,103,58748,2,0,P|235:142|186:232,1,150.000000745057,8|0,0:0|0:0,0:0:0:0:
379,144,59085,5,8,0:0:0:0:
126,196,59254,1,4,0:0:0:0:
396,218,59422,2,0,P|389:281|314:326,1,150.000000745057,8|0,0:0|0:0,0:0:0:0:
263,80,59759,1,8,0:0:0:0:
123,291,59928,1,4,0:0:0:0:
181,85,60097,1,8,0:0:0:0:
263,285,60265,1,0,0:0:0:0:
324,89,60434,1,2,0:0:0:0:
392,282,60602,1,0,0:0:0:0:
125,266,60771,2,0,P|113:200|153:124,1,150.000000745057,8|0,0:0|0:0,0:0:0:0:
377,153,61108,5,8,0:0:0:0:
166,218,61276,1,0,0:0:0:0:
385,286,61445,5,8,0:0:0:0:
227,93,61613,1,0,0:0:0:0:
166,299,61782,5,8,0:0:0:0:
345,100,61950,1,0,0:0:0:0:
114,122,62119,5,8,0:0:0:0:
118,135,62203,1,0,0:0:0:0:
114,149,62288,1,8,0:0:0:0:
120,161,62372,1,0,0:0:0:0:
116,174,62456,1,0,0:0:0:0:
125,185,62540,1,0,0:0:0:0:
145,191,62625,5,8,0:0:0:0:
154,201,62709,1,0,0:0:0:0:
150,214,62793,1,8,0:0:0:0:
159,224,62877,1,0,0:0:0:0:
152,237,62962,1,0,0:0:0:0:
162,247,63046,1,0,0:0:0:0:
187,253,63130,5,8,0:0:0:0:
196,264,63214,1,0,0:0:0:0:
191,273,63299,1,8,0:0:0:0:
197,281,63383,1,0,0:0:0:0:
195,291,63467,1,0,0:0:0:0:
213,300,63552,1,0,0:0:0:0:
218,309,63636,5,8,0:0:0:0:
212,318,63720,1,0,0:0:0:0:
218,326,63804,1,8,0:0:0:0:
239,338,63889,1,0,0:0:0:0:
263,342,63973,1,0,0:0:0:0:
286,331,64057,1,0,0:0:0:0:
301,316,64141,1,0,0:0:0:0:
308,295,64226,1,0,0:0:0:0:
309,273,64310,1,0,0:0:0:0:
302,252,64394,1,0,0:0:0:0:
289,234,64479,6,0,P|273:197|226:155,1,71.999998160362,8|0,0:0|0:0,0:0:0:0:
430,143,64816,2,0,P|389:101|368:96,1,71.999998160362,8|0,0:0|0:0,0:0:0:0:
187,72,65153,1,8,0:0:0:0:
187,312,65321,1,0,0:0:0:0:
430,241,65490,2,0,P|389:283|368:288,1,71.999998160362,2|0,0:0|0:0,0:0:0:0:
106,205,65827,1,8,0:0:0:0:
407,69,65995,1,0,0:0:0:0:
356,313,66164,2,0,P|307:327|270:321,1,71.999998160362,4|0,0:0|0:0,0:0:0:0:
168,107,66501,5,8,0:0:0:0:
421,159,66669,1,0,0:0:0:0:
77,240,66838,2,0,P|96:291|127:307,1,71.999998160362,2|0,0:0|0:0,0:0:0:0:
374,296,67175,2,0,P|426:265|428:239,1,71.999998160362,8|0,0:0|0:0,0:0:0:0:
287,53,67512,2,0,P|229:47|199:67,1,71.999998160362
149,236,67849,2,0,L|125:303,2,71.999998160362,8|0|2,0:0|0:0|0:0,0:0:0:0:
321,74,68355,1,0,0:0:0:0:
429,238,68523,2,0,P|414:282|384:301,1,71.999998160362,8|0,0:0|0:0,0:0:0:0:
145,116,68860,5,2,0:0:0:0:
374,171,69029,1,0,0:0:0:0:
232,283,69198,5,8,0:0:0:0:
313,116,69366,1,0,0:0:0:0:
136,214,69535,5,2,0:0:0:0:
364,244,69703,1,2,0:0:0:0:
159,99,69872,5,8,0:0:0:0:
264,282,70040,1,2,0:0:0:0:
369,81,70209,2,0,P|302:46|214:67,1,143.999996320724,4|8,0:0|0:0,0:0:0:0:
203,290,70883,5,2,0:0:0:0:
345,224,71051,1,2,0:0:0:0:
147,178,71220,1,8,0:0:0:0:
396,128,71389,1,0,0:0:0:0:
110,88,71557,1,4,0:0:0:0:
266,300,71726,1,2,0:0:0:0:
364,78,71894,2,0,P|325:70|287:77,1,71.999998160362,8|0,0:0|0:0,0:0:0:0:
85,183,72231,2,0,P|88:226|118:248,1,71.999998160362,2|0,0:0|0:0,0:0:0:0:
340,310,72568,1,8,0:0:0:0:
429,107,72905,6,0,P|370:80|337:79,1,71.999998160362,2|0,0:0|0:0,0:0:0:0:
375,281,73242,1,8,0:0:0:0:
223,85,73411,1,0,0:0:0:0:
117,276,73579,1,2,0:0:0:0:
339,188,73748,1,2,0:0:0:0:
95,99,73917,2,0,P|71:153|76:193,1,71.999998160362,8|0,0:0|0:0,0:0:0:0:
295,306,74254,5,4,0:0:0:0:
232,90,74422,1,2,0:0:0:0:
120,271,74591,1,8,0:0:0:0:
425,134,74759,1,2,0:0:0:0:
117,143,74928,1,0,0:0:0:0:
370,279,75096,1,8,0:0:0:0:
261,78,75265,1,8,0:0:0:0:
239,313,75433,1,8,0:0:0:0:
415,68,75602,2,0,P|451:123|468:206,1,143.999996320724,10|12,0:0|0:0,0:0:0:0:
194,111,76276,5,2,0:0:0:0:
192,253,76445,1,4,0:0:0:0:
318,84,76613,1,8,0:0:0:0:
346,280,76782,1,2,0:0:0:0:
91,178,76950,2,0,P|186:173|193:174,1,71.999998160362
414,74,77287,1,8,0:0:0:0:
230,291,77456,1,0,0:0:0:0:
258,56,77624,6,0,P|190:55|162:69,1,71.999998160362,10|4,0:0|0:0,0:0:0:0:
69,302,77961,1,8,0:0:0:0:
366,322,78130,1,2,0:0:0:0:
316,96,78299,2,0,P|280:102|250:121,1,71.999998160362,4|0,0:0|0:0,0:0:0:0:
92,195,78636,2,0,P|63:173|52:139,2,71.999998160362,8|4|2,0:0|0:0|0:0,0:0:0:0:
380,196,79310,1,8,0:0:0:0:
144,93,79647,5,2,0:0:0:0:
302,277,79815,1,0,0:0:0:0:
228,100,79984,1,8,0:0:0:0:
87,259,80152,1,4,0:0:0:0:
313,104,80321,2,0,P|355:134|357:181,1,71.999998160362,2|2,0:0|0:0,0:0:0:0:
82,116,80658,2,0,L|107:154,1,35.999999080181,8|0,0:0|0:0,0:0:0:0:
322,216,80826,2,0,L|283:208,1,35.999999080181,10|0,0:0|0:0,0:0:0:0:
89,295,80995,6,0,P|112:321|233:328,1,143.999996320724,2|8,0:0|0:0,0:0:0:0:
239,70,81669,5,2,0:0:0:0:
453,192,81838,1,2,0:0:0:0:
90,194,82006,1,8,0:0:0:0:
469,71,82175,1,0,0:0:0:0:
315,251,82343,2,0,P|258:288|228:295,1,71.999998160362,4|0,0:0|0:0,0:0:0:0:
155,86,82680,2,0,P|105:100|84:117,1,71.999998160362,8|0,0:0|0:0,0:0:0:0:
402,177,83018,2,0,P|423:227|416:262,1,71.999998160362,4|0,0:0|0:0,0:0:0:0:
88,220,83355,2,0,P|112:263|146:284,1,71.999998160362,8|0,0:0|0:0,0:0:0:0:
283,52,83692,5,4,0:0:0:0:
423,298,84029,5,8,0:0:0:0:
113,175,84197,1,2,0:0:0:0:
268,342,84366,1,4,0:0:0:0:
230,126,84534,1,4,0:0:0:0:
90,330,84703,1,8,0:0:0:0:
360,170,84871,1,4,0:0:0:0:
53,98,85040,1,4,0:0:0:0:
265,245,85209,1,8,0:0:0:0:
265,245,85293,1,8,0:0:0:0:
265,245,85377,1,8,0:0:0:0:
265,245,85461,1,8,0:0:0:0:
265,257,85546,1,2,0:0:0:0:
258,273,85630,1,2,0:0:0:0:
245,287,85714,1,2,0:0:0:0:
48,142,85883,1,4,0:0:0:0:
344,86,86051,1,8,0:0:0:0:
88,59,86388,5,2,0:0:0:0:
86,81,86472,1,0,0:0:0:0:
87,103,86556,1,0,0:0:0:0:
89,126,86640,1,0,0:0:0:0:
91,148,86725,1,8,0:0:0:0:
96,170,86809,1,0,0:0:0:0:
103,192,86893,1,0,0:0:0:0:
113,212,86977,1,0,0:0:0:0:
127,229,87062,5,2,0:0:0:0:
144,244,87146,1,0,0:0:0:0:
162,257,87230,1,4,0:0:0:0:
182,268,87314,1,0,0:0:0:0:
203,277,87399,1,8,0:0:0:0:
224,283,87483,1,0,0:0:0:0:
247,286,87567,1,4,0:0:0:0:
269,288,87652,1,0,0:0:0:0:
291,288,87736,1,2,0:0:0:0:
299,214,87821,5,0,0:0:0:0:
283,214,87905,1,0,0:0:0:0:
267,213,87990,1,0,0:0:0:0:
251,210,88074,1,8,0:0:0:0:
235,206,88158,1,0,0:0:0:0:
221,200,88243,1,4,0:0:0:0:
207,192,88327,1,0,0:0:0:0:
194,183,88411,1,2,0:0:0:0:
182,172,88495,5,0,0:0:0:0:
172,160,88580,1,2,0:0:0:0:
165,145,88664,1,0,0:0:0:0:
160,130,88748,1,8,0:0:0:0:
156,114,88832,1,0,0:0:0:0:
154,98,88917,1,4,0:0:0:0:
153,83,89001,1,0,0:0:0:0:
221,86,89085,5,0,0:0:0:0:
223,93,89169,1,0,0:0:0:0:
225,101,89253,1,2,0:0:0:0:
227,107,89338,1,0,0:0:0:0:
232,113,89422,1,8,0:0:0:0:
237,119,89506,1,0,0:0:0:0:
243,124,89590,1,4,0:0:0:0:
248,129,89675,1,0,0:0:0:0:
256,131,89759,1,8,0:0:0:0:
263,135,89843,1,0,0:0:0:0:
270,137,89928,1,4,0:0:0:0:
277,139,90012,1,0,0:0:0:0:
137,263,90096,5,0,0:0:0:0:
408,229,90265,1,0,0:0:0:0:
117,161,90433,1,0,0:0:0:0:
384,108,90602,1,0,0:0:0:0:
212,299,90770,1,0,0:0:0:0:
286,120,90939,1,0,0:0:0:0:
150,253,91107,1,0,0:0:0:0:
389,191,91276,1,0,0:0:0:0:
220,108,91444,5,8,0:0:0:0:
208,112,91529,1,0,0:0:0:0:
196,116,91613,1,0,0:0:0:0:
184,124,91697,1,0,0:0:0:0:
172,132,91781,1,2,0:0:0:0:
148,172,91866,5,0,0:0:0:0:
140,220,91950,1,0,0:0:0:0:
152,264,92034,1,0,0:0:0:0:
180,300,92118,1,8,0:0:0:0:
224,320,92203,1,0,0:0:0:0:
268,312,92287,1,0,0:0:0:0:
308,288,92371,1,0,0:0:0:0:
340,256,92456,1,2,0:0:0:0:
348,208,92540,5,0,0:0:0:0:
336,164,92624,1,2,0:0:0:0:
300,136,92708,1,0,0:0:0:0:
256,124,92793,1,8,0:0:0:0:
212,116,92877,1,0,0:0:0:0:
168,128,92961,1,2,0:0:0:0:
124,144,93045,1,0,0:0:0:0:
84,168,93130,1,2,0:0:0:0:
120,200,93214,5,0,0:0:0:0:
156,228,93298,1,0,0:0:0:0:
196,252,93382,1,0,0:0:0:0:
240,272,93467,1,8,0:0:0:0:
280,292,93551,1,0,0:0:0:0:
324,300,93635,1,0,0:0:0:0:
372,296,93720,1,0,0:0:0:0:
416,280,93804,1,4,0:0:0:0:
452,252,93888,5,0,0:0:0:0:
476,212,93972,1,2,0:0:0:0:
484,164,94057,1,0,0:0:0:0:
460,124,94141,1,8,0:0:0:0:
420,100,94225,1,0,0:0:0:0:
376,112,94309,1,2,0:0:0:0:
340,144,94394,1,0,0:0:0:0:
328,188,94478,1,4,0:0:0:0:
312,232,94562,5,0,0:0:0:0:
288,192,94646,1,0,0:0:0:0:
264,152,94731,1,0,0:0:0:0:
228,120,94815,1,8,0:0:0:0:
180,120,94899,1,0,0:0:0:0:
140,140,94984,1,0,0:0:0:0:
124,180,95068,1,0,0:0:0:0:
128,224,95152,1,2,0:0:0:0:
144,264,95236,5,0,0:0:0:0:
168,228,95321,1,2,0:0:0:0:
192,192,95405,1,0,0:0:0:0:
224,164,95489,1,8,0:0:0:0:
264,152,95573,1,0,0:0:0:0:
308,160,95658,1,2,0:0:0:0:
344,188,95742,1,0,0:0:0:0:
356,228,95826,5,12,0:0:0:0:
312,220,95911,1,0,0:0:0:0:
268,224,95995,1,0,0:0:0:0:
240,256,96079,1,0,0:0:0:0:
240,300,96163,1,8,0:0:0:0:
268,332,96248,1,0,0:0:0:0:
308,344,96332,1,0,0:0:0:0:
352,336,96416,1,0,0:0:0:0:
384,308,96500,1,10,0:0:0:0:
400,268,96585,5,0,0:0:0:0:
356,268,96669,1,2,0:0:0:0:
316,256,96753,1,0,0:0:0:0:
280,232,96837,1,8,0:0:0:0:
252,200,96922,1,0,0:0:0:0:
232,164,97006,1,2,0:0:0:0:
236,120,97090,1,2,0:0:0:0:
256,84,97175,2,0,P|304:68|348:72,1,71.999998160362,4|0,0:0|0:0,0:0:0:0:
140,299,97512,5,2,0:0:0:0:
185,105,97680,1,0,0:0:0:0:
343,248,97849,5,4,0:0:0:0:
100,246,98017,1,4,0:0:0:0:
330,102,98186,5,12,0:0:0:0:
269,259,98354,1,0,0:0:0:0:
133,80,98523,1,4,0:0:0:0:
92,203,98691,5,0,0:0:0:0:
385,156,98860,1,8,0:0:0:0:
92,203,99029,1,0,0:0:0:0:
385,156,99197,1,2,0:0:0:0:
222,96,99366,1,4,0:0:0:0:
232,308,99534,1,8,0:0:0:0:
222,96,99703,1,0,0:0:0:0:
229,304,99871,5,2,0:0:0:0:
392,123,100208,1,8,0:0:0:0:
91,77,100545,5,4,0:0:0:0:
142,293,100714,1,0,0:0:0:0:
290,102,101051,2,0,P|318:146|322:193,1,71.999998160362,0|4,0:0|0:0,0:0:0:0:
279,340,101388,2,0,P|330:343|354:321,1,71.999998160362,0|8,0:0|0:0,0:0:0:0:
407,113,101725,2,0,L|392:40,2,71.999998160362,0|2|4,0:0|0:0|0:0,0:0:0:0:
121,261,102231,5,8,0:0:0:0:
412,328,102568,2,0,P|422:277|413:232,1,71.999998160362,4|0,0:0|0:0,0:0:0:0:
261,75,102905,5,8,0:0:0:0:
217,286,103073,1,0,0:0:0:0:
401,121,103242,5,4,0:0:0:0:
114,186,103410,1,2,0:0:0:0:
380,263,103579,5,8,0:0:0:0:
155,143,103748,1,0,0:0:0:0:
332,152,103916,2,0,P|323:208|271:294,1,150.000000745057
84,187,104253,1,8,0:0:0:0:
325,90,104422,1,0,0:0:0:0:
138,245,104590,2,0,P|197:292|271:322,1,150.000000745057
414,139,104927,1,8,0:0:0:0:
224,273,105096,1,0,0:0:0:0:
344,87,105264,2,0,P|300:77|248:93,1,71.999998160362,4|0,0:0|0:0,0:0:0:0:
100,178,105601,2,0,P|112:215|141:245,1,71.999998160362,8|0,0:0|0:0,0:0:0:0:
301,280,105939,5,2,0:0:0:0:
321,280,106024,1,0,0:0:0:0:
337,276,106108,1,0,0:0:0:0:
353,268,106192,1,0,0:0:0:0:
369,260,106277,1,8,0:0:0:0:
385,252,106361,1,0,0:0:0:0:
401,240,106445,1,0,0:0:0:0:
417,224,106529,1,0,0:0:0:0:
429,208,106614,5,4,0:0:0:0:
445,188,106698,1,0,0:0:0:0:
457,160,106782,1,8,0:0:0:0:
457,132,106866,1,0,0:0:0:0:
445,104,106951,1,8,0:0:0:0:
421,84,107035,1,0,0:0:0:0:
393,68,107119,1,2,0:0:0:0:
365,56,107203,1,0,0:0:0:0:
333,52,107288,1,4,0:0:0:0:
301,52,107372,5,0,0:0:0:0:
269,60,107456,1,4,0:0:0:0:
237,80,107541,1,0,0:0:0:0:
213,104,107625,1,2,0:0:0:0:
193,140,107709,1,0,0:0:0:0:
185,180,107793,1,0,0:0:0:0:
197,220,107878,1,0,0:0:0:0:
219,243,107961,6,0,P|249:260|362:250,1,150.000000745057,8|2,0:0|0:0,0:0:0:0:
381,131,108298,2,0,P|354:104|236:91,1,150.000000745057,8|4,0:0|0:0,0:0:0:0:
132,196,108635,2,0,P|124:224|207:308,1,150.000000745057,8|4,0:0|0:0,0:0:0:0:
344,292,108972,2,0,P|374:276|436:168,1,150.000000745057,8|4,0:0|0:0,0:0:0:0:
273,87,109309,2,0,P|219:86|143:153,2,150.000000745057,8|2|8,0:0|0:0|0:0,0:0:0:0:
418,108,109815,1,4,0:0:0:0:
211,282,109983,2,0,P|164:251|202:226,2,90.0000038802622,8|4|0,0:0|0:0|0:0,0:0:0:0:
371,49,110658,5,4,0:0:0:0:
59,118,110826,1,0,0:0:0:0:
365,168,110995,1,8,0:0:0:0:
85,231,111163,1,4,0:0:0:0:
85,231,111247,1,8,0:0:0:0:
85,231,111332,1,2,0:0:0:0:
234,48,111500,2,0,P|273:61|286:92,1,71.999998160362,4|8,0:0|0:0,0:0:0:0:
267,258,111837,1,4,0:0:0:0:
267,258,111922,1,0,0:0:0:0:
267,263,112006,1,2,0:0:0:0:
370,187,112174,1,4,0:0:0:0:
370,187,112259,1,2,0:0:0:0:
370,187,112343,1,8,0:0:0:0:
365,61,112511,1,4,0:0:0:0:
365,61,112596,1,8,0:0:0:0:
365,61,112680,1,2,0:0:0:0:
110,89,113017,5,8,0:0:0:0:
94,121,113101,1,0,0:0:0:0:
84,155,113185,1,4,0:0:0:0:
80,191,113269,1,0,0:0:0:0:
83,226,113354,5,8,0:0:0:0:
225,58,113523,1,4,0:0:0:0:
371,254,113691,5,8,0:0:0:0:
124,282,113860,1,4,0:0:0:0:
356,96,114028,5,8,0:0:0:0:
209,326,114197,1,4,0:0:0:0:
99,93,114365,5,8,0:0:0:0:
395,166,114534,1,4,0:0:0:0:
122,255,114702,5,8,0:0:0:0:
269,73,114871,1,4,0:0:0:0:
351,272,115040,5,8,0:0:0:0:
88,139,115208,1,4,0:0:0:0:
383,114,115377,5,8,0:0:0:0:
110,297,115545,1,4,0:0:0:0:
265,88,115714,5,8,0:0:0:0:
413,285,115882,1,4,0:0:0:0:
110,124,116051,5,8,0:0:0:0:
120,237,116219,1,0,0:0:0:0:
212,307,116388,1,8,0:0:0:0:
315,307,116556,1,4,0:0:0:0:
365,290,116641,1,8,0:0:0:0:
395,245,116725,1,2,0:0:0:0:
381,132,116893,1,4,0:0:0:0:
293,86,117061,5,8,0:0:0:0:
293,86,117146,1,0,0:0:0:0:
293,86,117230,1,4,0:0:0:0:
164,108,117399,1,0,0:0:0:0:
100,209,117568,1,2,0:0:0:0:
100,209,117652,1,0,0:0:0:0:
100,209,117736,1,8,0:0:0:0:
249,263,117905,1,0,0:0:0:0:
388,180,118073,5,2,0:0:0:0:
388,180,118157,1,0,0:0:0:0:
388,180,118242,1,8,0:0:0:0:
388,180,118326,1,0,0:0:0:0:
388,180,118410,1,8,0:0:0:0:
388,180,118495,1,0,0:0:0:0:
388,180,118579,1,2,0:0:0:0:
388,180,118663,1,0,0:0:0:0:
388,180,118747,6,0,P|408:224|384:330,1,150.000000745057,8|0,0:0|0:0,0:0:0:0:
105,154,119084,5,8,0:0:0:0:
305,301,119253,1,2,0:0:0:0:
421,129,119421,2,0,P|367:102|271:97,1,150.000000745057,8|0,0:0|0:0,0:0:0:0:
120,251,119759,5,8,0:0:0:0:
357,161,119927,1,2,0:0:0:0:
174,83,120096,5,8,0:0:0:0:
339,301,120264,1,2,0:0:0:0:
308,84,120433,5,8,0:0:0:0:
170,290,120601,1,4,0:0:0:0:
413,165,120770,5,8,0:0:0:0:
133,139,120938,1,4,0:0:0:0:
360,279,121107,5,8,0:0:0:0:
269,77,121275,1,4,0:0:0:0:
95,257,121444,6,2,P|161:296|247:311,1,150.000000745057,10|2,0:0|0:0,0:0:0:0:
377,171,121781,5,10,0:0:0:0:
110,182,121950,1,2,0:0:0:0:
293,102,122118,6,0,P|308:184|259:247,1,150.000000745057,8|0,0:0|0:0,0:0:0:0:
197,305,122455,5,8,0:0:0:0:
367,81,122624,1,2,0:0:0:0:
101,250,122792,5,8,0:0:0:0:
390,276,122961,1,4,0:0:0:0:
101,312,123129,5,8,0:0:0:0:
337,211,123298,1,4,0:0:0:0:
113,117,123466,5,8,0:0:0:0:
336,88,123635,1,4,0:0:0:0:
132,251,123803,5,8,0:0:0:0:
242,75,123972,1,4,0:0:0:0:
193,293,124140,6,0,P|259:306|357:286,1,150.000000745057,10|0,0:0|0:0,0:0:0:0:
419,213,124478,5,8,0:0:0:0:
99,283,124646,1,2,0:0:0:0:
328,79,124815,2,0,P|359:149|344:241,1,150.000000745057,8|0,0:0|0:0,0:0:0:0:
151,80,125152,5,8,0:0:0:0:
411,266,125320,1,2,0:0:0:0:
226,116,125489,2,0,P|157:151|116:217,1,150.000000745057,8|0,0:0|0:0,0:0:0:0:
175,294,125826,5,8,0:0:0:0:
297,77,125994,1,4,0:0:0:0:
327,296,126163,5,8,0:0:0:0:
120,87,126331,1,0,0:0:0:0:
413,197,126500,5,0,0:0:0:0:
109,292,126669,1,0,0:0:0:0:
310,43,126837,5,8,0:0:0:0:
314,56,126921,1,0,0:0:0:0:
310,70,127006,1,8,0:0:0:0:
316,82,127090,1,0,0:0:0:0:
312,95,127174,1,0,0:0:0:0:
321,106,127258,1,0,0:0:0:0:
270,192,127343,5,8,0:0:0:0:
279,182,127427,1,0,0:0:0:0:
275,169,127511,1,8,0:0:0:0:
284,159,127595,1,0,0:0:0:0:
277,146,127680,1,0,0:0:0:0:
287,136,127764,1,0,0:0:0:0:
238,64,127848,5,8,0:0:0:0:
247,75,127932,1,0,0:0:0:0:
242,84,128017,1,8,0:0:0:0:
248,92,128101,1,0,0:0:0:0:
246,102,128185,1,0,0:0:0:0:
253,108,128270,1,0,0:0:0:0:
222,174,128354,5,8,0:0:0:0:
228,165,128438,1,0,0:0:0:0:
222,157,128522,1,8,0:0:0:0:
201,145,128607,1,0,0:0:0:0:
177,141,128691,1,0,0:0:0:0:
154,152,128775,1,0,0:0:0:0:
139,167,128859,1,0,0:0:0:0:
132,188,128944,1,0,0:0:0:0:
131,210,129028,1,0,0:0:0:0:
138,231,129112,1,0,0:0:0:0:
151,249,129197,6,0,P|164:282|187:309,1,71.999998160362,8|0,0:0|0:0,0:0:0:0:
334,64,129534,6,0,P|404:101|422:171,1,143.999996320724,4|8,0:0|0:0,0:0:0:0:
357,251,130208,1,2,0:0:0:0:
113,287,130376,1,4,0:0:0:0:
264,79,130545,1,8,0:0:0:0:
240,274,130713,1,4,0:0:0:0:
374,109,130882,1,2,0:0:0:0:
372,285,131051,2,0,P|333:228|196:156,1,215.999994481086,0|4,0:0|0:0,0:0:0:0:
75,127,131725,1,2,0:0:0:0:
77,271,131893,2,0,P|108:330|131:348,1,71.999998160362,8|0,0:0|0:0,0:0:0:0:
294,295,132230,1,4,0:0:0:0:
256,192,132567,12,0,135938,0:0:0:0:
