osu file format v14

[General]
AudioFilename: audio.mp3
AudioLeadIn: 0
PreviewTime: 63529
Countdown: 0
SampleSet: Drum
StackLeniency: 0.4
Mode: 0
LetterboxInBreaks: 0
WidescreenStoryboard: 0

[Editor]
Bookmarks: 6644,11977,13310,13755,20866,21310,21755,22420,22531,22642,23753,23865,23976,24420,25976,26087,26198,27309,27420,27531,27642,27753,27865,27977,29309,29753,30198,31087,31532,31976,32865,33087,33309,33753,34198,34642,35088,38643,40421,40865,41753,42199,43977,44421,44866,45755,46643,47532,47977,48421,49310,50862,50973,51084,52195,52307,52418,52862,54418,54529,54640,55751,55862,55973,56195,56306,56421,59977,63532,64862,65310,67088,68866,70643,71084,71306,71529,71973,72862,73751,73973,74199,75084,75529,75973,76195,76418,77306,77529,77755,78195,78418,78640,78862,79084,79532,79973,80195,80418,80640,80862,81310,81751,81973,82199,82418,82640,83088,83532,83977,84195,84421,84866
DistanceSpacing: 1.2
BeatDivisor: 4
GridSize: 4
TimelineZoom: 2.5

[Metadata]
Title:SotN - Lost Painting 8-Bit
TitleUnicode:SotN - Lost Painting 8-Bit
Artist:Joseph-Collins
ArtistUnicode:Joseph-Collins
Creator:Starz15
Version:xd
Source:Castlevania: Symphony of the Night
Tags:
BeatmapID:1749227
BeatmapSetID:835153

[Difficulty]
HPDrainRate:4
CircleSize:5
OverallDifficulty:10
ApproachRate:9.3
SliderMultiplier:1.4
SliderTickRate:1

[Events]
//Background and Video events
0,0,"1441062.jpg",0,0
//Break Periods
//Storyboard Layer 0 (Background)
//Storyboard Layer 1 (Fail)
//Storyboard Layer 2 (Pass)
//Storyboard Layer 3 (Foreground)
//Storyboard Layer 4 (Overlay)
//Storyboard Sound Samples

[TimingPoints]
6644,444.444444444444,4,3,0,40,1,0
13032,-100,4,3,0,5,0,0
13143,-100,4,3,0,45,0,0
13310,222.222222222222,4,3,0,45,1,0
13754,444.444444444444,4,3,0,45,1,0
13754,-60.9756097560976,4,3,0,45,0,0
41753,222.222222222222,4,3,0,45,1,0
42197,444.444444444444,4,3,0,45,1,0
42197,-60.9756097560976,4,3,0,45,0,0
48863,222.222222222222,4,3,0,45,1,0
49307,444.444444444444,4,3,0,45,1,0
49307,-60.9756097560976,4,3,0,45,0,0
77306,444.444444444444,4,3,0,55,1,0
77306,-60.9756097560976,4,3,0,55,0,0
84418,222.222222222222,4,3,0,45,1,0
84862,444.444444444444,4,3,0,45,1,0

[Colours]
Combo1 : 147,0,0
Combo2 : 128,128,64
Combo3 : 128,128,0
Combo4 : 128,64,0

[HitObjects]
369,57,6643,5,0,0:0:0:0:
438,274,6866,2,0,L|417:209,1,35
377,294,7088,2,0,L|366:260,1,35
316,314,7310,2,0,L|305:280,1,35
294,163,7532,2,0,L|304:196,1,35
233,183,7754,2,0,L|243:216,1,35
152,87,7977,2,0,L|163:121,1,35
91,107,8199,2,0,L|102:141,1,35
41,161,8421,2,0,L|30:127,1,35
65,238,8643,6,0,L|98:227,1,35
85,299,8865,2,0,L|118:288,1,35
105,360,9087,2,0,L|138:349,1,35
296,314,9310,2,0,L|262:324,1,35
276,253,9532,2,0,L|242:263,1,35
245,158,9755,2,0,L|255:191,1,35
306,138,9977,2,0,L|316:171,1,35
377,151,10199,2,0,L|367:118,1,35
428,307,10421,6,0,L|418:274,1,35
367,327,10643,2,0,L|357:294,1,35
306,347,10865,2,0,L|296:314,1,35
174,301,11088,2,0,L|207:290,1,35
154,240,11310,2,0,L|187:229,1,35
173,154,11532,2,0,L|162:120,1,35
112,174,11754,2,0,L|101:140,1,35
51,194,11976,1,0,0:0:0:0:
256,192,12088,12,0,13088,0:0:0:0:
256,192,13310,6,0,L|221:192,7,35
256,192,13754,6,0,L|304:344,1,114.800001751709,4|0,0:0|0:0,0:0:0:0:
404,166,14198,2,0,L|356:14,1,114.800001751709
221,345,14642,1,0,0:0:0:0:
186,236,14865,1,0,0:0:0:0:
151,127,15087,1,0,0:0:0:0:
151,127,15309,5,0,0:0:0:0:
186,236,15420,1,0,0:0:0:0:
221,345,15531,1,0,0:0:0:0:
295,201,15753,1,0,0:0:0:0:
77,271,15976,1,0,0:0:0:0:
186,236,16198,1,0,0:0:0:0:
295,201,16420,6,0,L|447:153,1,114.800001751709
260,92,16753,1,0,0:0:0:0:
151,127,16865,2,0,L|-1:175,1,114.800001751709
329,310,17309,6,0,L|294:200,1,114.800001751709
260,92,17753,1,0,0:0:0:0:
112,380,17976,1,0,0:0:0:0:
41,161,18198,2,0,L|6:51,1,114.800001751709
186,236,18642,2,0,L|151:126,1,114.800001751709
260,92,18976,1,0,0:0:0:0:
294,200,19087,6,0,L|329:310,1,114.800001751709
402,164,19531,2,0,L|367:54,1,114.800001751709
151,126,19976,2,0,L|186:236,1,114.800001751709
329,309,20309,5,0,0:0:0:0:
294,200,20420,1,0,0:0:0:0:
41,161,20642,5,0,0:0:0:0:
77,271,20753,1,0,0:0:0:0:
112,380,20865,1,0,0:0:0:0:
221,345,21087,5,0,0:0:0:0:
294,200,21309,2,0,L|259:90,1,114.800001751709
77,271,21753,2,0,L|112:381,1,114.800001751709
151,127,22198,2,0,L|-1:175,1,114.800001751709
186,236,22531,1,0,0:0:0:0:
295,201,22642,6,0,L|447:153,1,114.800001751709
368,56,23087,5,0,0:0:0:0:
41,161,23309,1,0,0:0:0:0:
329,310,23531,2,0,L|294:200,1,114.800001751709
260,92,23865,1,0,0:0:0:0:
116,17,23976,6,0,L|151:127,1,114.800001751709
110,379,24420,2,0,L|37:152,1,229.600003503418
186,236,25087,1,0,0:0:0:0:
329,310,25309,2,0,L|438:275,1,114.800001751709
260,92,25753,2,0,L|369:57,1,114.800001751709
404,166,26087,1,0,0:0:0:0:
295,201,26198,6,0,L|185:235,1,114.800001751709
40,160,26642,2,0,L|149:125,1,114.800001751709
219,344,27087,2,0,L|109:378,1,114.800001751709
134,329,27421,1,0,0:0:0:0:
160,280,27532,1,0,0:0:0:0:
185,231,27643,1,0,0:0:0:0:
211,182,27754,1,0,0:0:0:0:
236,134,27865,1,0,0:0:0:0:
260,92,27976,6,0,L|329:310,1,229.600003503418,4|0,0:0|0:0,0:0:0:0:
77,271,28642,1,0,0:0:0:0:
369,57,28865,1,0,0:0:0:0:
151,127,29087,1,0,0:0:0:0:
438,275,29309,2,0,L|403:165,1,114.800001751709
77,271,29753,6,0,L|295:202,1,229.600003503418
260,92,30420,1,0,0:0:0:0:
221,345,30642,1,0,0:0:0:0:
116,17,30865,1,0,0:0:0:0:
109,377,31087,2,0,L|41:162,1,172.200002627564
41,160,31531,6,0,L|259:91,1,229.600003503418,4|0,0:0|0:0,0:0:0:0:
403,165,32198,1,0,0:0:0:0:
186,236,32420,1,0,0:0:0:0:
438,274,32642,1,0,0:0:0:0:
259,90,32865,2,0,L|294:199,1,114.800001751709
110,379,33309,2,0,L|37:152,2,229.600003503418
329,309,34420,5,0,0:0:0:0:
260,92,34642,1,0,0:0:0:0:
41,161,34865,1,0,0:0:0:0:
185,235,35087,6,0,L|295:201,1,114.800001751709
403,165,35420,1,0,0:0:0:0:
512,129,35531,1,0,0:0:0:0:
260,92,35753,5,0,0:0:0:0:
151,128,35864,1,0,0:0:0:0:
39,160,35976,1,0,0:0:0:0:
110,378,36198,5,0,0:0:0:0:
219,342,36309,1,0,0:0:0:0:
329,309,36421,1,0,0:0:0:0:
39,160,36642,5,0,0:0:0:0:
57,215,36753,1,0,0:0:0:0:
74,269,36864,1,0,0:0:0:0:
92,324,36975,1,0,0:0:0:0:
110,379,37086,1,0,0:0:0:0:
164,361,37198,1,0,0:0:0:0:
219,343,37309,5,0,0:0:0:0:
273,326,37420,1,0,0:0:0:0:
328,308,37531,1,0,0:0:0:0:
310,253,37642,1,0,0:0:0:0:
292,198,37753,1,0,0:0:0:0:
275,144,37864,1,0,0:0:0:0:
260,92,37975,1,0,0:0:0:0:
315,74,38086,1,0,0:0:0:0:
369,57,38197,5,0,0:0:0:0:
385,111,38309,1,0,0:0:0:0:
403,166,38420,1,0,0:0:0:0:
420,220,38531,1,0,0:0:0:0:
438,275,38642,6,0,L|329:310,1,114.800001751709
219,343,38976,1,0,0:0:0:0:
110,379,39087,1,0,0:0:0:0:
39,160,39309,5,0,0:0:0:0:
151,128,39421,1,0,0:0:0:0:
260,92,39532,1,0,0:0:0:0:
403,165,39753,5,0,0:0:0:0:
294,201,39864,1,0,0:0:0:0:
182,233,39976,1,0,0:0:0:0:
369,57,40198,5,0,0:0:0:0:
385,111,40310,1,0,0:0:0:0:
403,166,40421,1,0,0:0:0:0:
420,220,40532,1,0,0:0:0:0:
438,275,40642,1,0,0:0:0:0:
383,292,40753,1,0,0:0:0:0:
328,310,40864,5,0,0:0:0:0:
310,253,40976,1,0,0:0:0:0:
292,198,41087,1,0,0:0:0:0:
275,144,41198,1,0,0:0:0:0:
260,92,41309,1,0,0:0:0:0:
205,108,41420,1,0,0:0:0:0:
150,125,41531,1,0,0:0:0:0:
95,142,41642,1,0,0:0:0:0:
40,159,41753,2,0,L|60:222,7,35
75,270,42197,6,0,L|293:201,1,229.600003503418,4|0,0:0|0:0,0:0:0:0:
403,165,42863,1,0,0:0:0:0:
151,128,43085,1,0,0:0:0:0:
369,57,43308,1,0,0:0:0:0:
328,308,43530,1,0,0:0:0:0:
74,269,43752,1,0,0:0:0:0:
295,201,43974,6,0,L|185:235,1,114.800001751709,4|0,0:0|0:0,0:0:0:0:
260,92,44419,2,0,L|329:310,2,229.600003503418
403,165,45530,1,0,0:0:0:0:
110,379,45752,6,0,L|37:152,1,229.600003503418,4|0,0:0|0:0,0:0:0:0:
260,92,46419,1,0,0:0:0:0:
328,309,46641,2,0,L|110:378,1,229.600003503418,4|0,0:0|0:0,0:0:0:0:
369,57,47530,6,0,L|439:275,2,229.600003503418,4|0|0,0:0|0:0|0:0,0:0:0:0:
182,233,48641,1,0,0:0:0:0:
328,309,48863,2,0,L|317:275,7,35
293,199,49307,6,0,L|258:90,1,114.800001751709,4|0,0:0|0:0,0:0:0:0:
112,381,49751,2,0,L|77:271,1,114.800001751709
294,200,50195,2,0,L|329:310,1,114.800001751709
77,271,50640,2,0,L|42:161,1,114.800001751709
6,51,50973,1,0,0:0:0:0:
116,17,51084,6,0,L|151:127,1,114.800001751709
219,343,51529,1,0,0:0:0:0:
369,57,51751,1,0,0:0:0:0:
438,275,51973,2,0,L|403:165,1,114.800001751709
292,198,52307,1,0,0:0:0:0:
219,343,52418,6,0,L|371:295,1,114.800001751709
259,91,52862,2,0,L|41:160,1,229.600003503418
110,379,53529,1,0,0:0:0:0:
295,201,53751,2,0,L|185:235,1,114.800001751709
368,57,54195,2,0,L|258:91,1,114.800001751709
295,201,54529,1,0,0:0:0:0:
438,275,54640,6,0,L|403:165,1,114.800001751709
150,125,55084,2,0,L|185:235,1,114.800001751709
368,57,55529,2,0,L|258:91,1,114.800001751709
150,125,55862,1,0,0:0:0:0:
39,160,55973,1,0,0:0:0:0:
110,378,56195,1,0,0:0:0:0:
219,342,56306,1,0,0:0:0:0:
329,310,56418,6,0,L|260:92,1,229.600003503418,4|0,0:0|0:0,0:0:0:0:
74,269,57084,1,0,0:0:0:0:
295,201,57306,2,0,L|185:235,1,114.800001751709
41,160,57751,2,0,L|259:91,1,229.600003503418
403,165,58418,1,0,0:0:0:0:
329,310,58640,2,0,L|111:379,2,229.600003503418
512,129,59751,1,0,0:0:0:0:
260,92,59973,6,0,L|329:310,1,229.600003503418,4|0,0:0|0:0,0:0:0:0:
182,233,60640,1,0,0:0:0:0:
110,379,60862,2,0,L|41:161,1,229.600003503418
116,17,61529,1,0,0:0:0:0:
259,92,61751,2,0,L|150:127,1,114.800001751709
73,268,62195,2,0,L|182:233,1,114.800001751709
368,56,62640,2,0,L|259:91,1,114.800001751709
149,127,63084,1,0,0:0:0:0:
438,275,63306,1,0,0:0:0:0:
73,268,63529,6,0,L|291:199,1,229.600003503418,4|0,0:0|0:0,0:0:0:0:
512,129,64195,1,0,0:0:0:0:
149,127,64418,1,0,0:0:0:0:
328,310,64640,1,0,0:0:0:0:
369,57,64862,1,0,0:0:0:0:
369,57,65306,6,0,L|404:167,1,114.800001751709,4|0,0:0|0:0,0:0:0:0:
438,275,65751,1,0,0:0:0:0:
182,233,65973,1,0,0:0:0:0:
295,201,66195,1,0,0:0:0:0:
110,378,66418,1,0,0:0:0:0:
39,160,66640,1,0,0:0:0:0:
39,160,67084,6,0,L|4:50,1,114.800001751709,4|0,0:0|0:0,0:0:0:0:
149,127,67529,2,0,L|218:345,1,229.600003503418
74,269,68195,1,0,0:0:0:0:
295,201,68418,1,0,0:0:0:0:
39,160,68640,1,0,0:0:0:0:
259,91,68862,6,0,L|368:56,1,114.800001751709,4|0,0:0|0:0,0:0:0:0:
438,275,69306,2,0,L|329:310,1,114.800001751709
149,126,69751,2,0,L|258:91,1,114.800001751709
328,310,70195,2,0,L|219:345,1,114.800001751709
368,55,70640,6,0,L|437:273,1,229.600003503418,4|0,0:0|0:0,0:0:0:0:
295,201,71306,1,0,0:0:0:0:
149,126,71529,2,0,L|218:344,2,229.600003503418
116,17,72640,1,0,0:0:0:0:
39,160,72862,2,0,L|74:270,1,114.800001751709
329,310,73306,2,0,L|294:200,1,114.800001751709
260,92,73751,1,0,0:0:0:0:
438,275,73973,1,0,0:0:0:0:
75,269,74195,6,0,L|293:200,1,229.600003503418,4|0,0:0|0:0,0:0:0:0:
149,127,74862,1,0,0:0:0:0:
110,378,75084,2,0,L|328:309,1,229.600003503418
403,165,75751,1,0,0:0:0:0:
259,91,75973,2,0,L|368:56,1,114.800001751709
293,199,76418,2,0,L|184:234,1,114.800001751709
39,162,76862,2,0,L|148:127,1,114.800001751709
328,308,77306,5,0,0:0:0:0:
75,269,77529,1,0,0:0:0:0:
258,89,77751,2,0,L|327:307,1,229.600003503418,4|0,0:0|0:0,0:0:0:0:
403,165,78418,1,0,0:0:0:0:
149,127,78640,1,0,0:0:0:0:
438,275,78862,1,0,0:0:0:0:
219,342,79084,1,0,0:0:0:0:
219,342,79529,6,0,L|110:377,1,114.800001751709,4|0,0:0|0:0,0:0:0:0:
39,160,79973,1,0,0:0:0:0:
260,92,80195,1,0,0:0:0:0:
182,233,80418,1,0,0:0:0:0:
116,17,80640,1,0,0:0:0:0:
328,310,80862,1,0,0:0:0:0:
328,310,81306,6,0,L|293:201,1,114.800001751709,4|0,0:0|0:0,0:0:0:0:
260,92,81750,1,0,0:0:0:0:
182,233,81973,1,0,0:0:0:0:
6,52,82194,2,0,L|115:17,1,114.800001751709,4|0,0:0|0:0,0:0:0:0:
109,377,82639,2,0,L|41:162,1,172.200002627564
41,160,83083,5,8,0:0:0:0:
368,55,83528,1,8,0:0:0:0:
182,233,83972,1,8,0:0:0:0:
438,275,84194,1,8,0:0:0:0:
292,200,84418,2,0,L|306:246,8,35
