osu file format v14

[General]
AudioFilename: audio.ogg
AudioLeadIn: 0
PreviewTime: 12273
Countdown: 0
SampleSet: Normal
StackLeniency: 0.7
Mode: 1
LetterboxInBreaks: 0
WidescreenStoryboard: 1

[Editor]
Bookmarks: 52405
DistanceSpacing: 1
BeatDivisor: 4
GridSize: 8
TimelineZoom: 1.326722

[Metadata]
Title:Feliz Navidad
TitleUnicode:Feliz Navidad
Artist:Jose Feliciano
ArtistUnicode:José Feliciano
Creator:Jonarwhal
Version:I wanna wish you a Merry Christmas
Source:
Tags:español espanol pop english spanish folk merry christmas holiday guitar
BeatmapID:4361580
BeatmapSetID:1990381

[Difficulty]
HPDrainRate:5.5
CircleSize:5
OverallDifficulty:5.5
ApproachRate:5
SliderMultiplier:1.4
SliderTickRate:1

[Events]
//Background and Video events
0,0,"pexels-su-la-pyae-18834444.jpg",0,0
//Break Periods
//Storyboard Layer 0 (Background)
//Storyboard Layer 1 (Fail)
//Storyboard Layer 2 (Pass)
//Storyboard Layer 3 (Foreground)
//Storyboard Layer 4 (Overlay)
//Storyboard Sound Samples

[TimingPoints]
440,413.793103448275,4,1,0,70,1,0
440,-100,4,1,0,70,0,0
2095,402.684563758389,4,1,0,70,1,0
2095,-102.75862030949,4,1,0,70,0,0
3705,405.405405405405,4,1,0,70,1,0
3705,-102.068967363355,4,1,0,70,0,0
8569,409.556313993174,4,1,0,70,1,0
8569,-101.034480515898,4,1,0,70,0,0
10207,406.779661016949,4,1,0,70,1,0
10207,-101.724140439958,4,1,0,70,0,0
11834,436.363636363637,4,1,0,70,1,0
11834,-94.8275908845502,4,1,0,70,0,0
11943,-94.4827556689487,4,1,0,30,0,0
12270,437.956204379562,4,1,0,30,1,8
12270,-94.4827556689487,4,1,0,30,0,8
13115,408.163265306122,4,1,0,30,1,8
13115,-101.379307636041,4,1,0,30,0,8
13472,-101.379307636041,4,1,0,70,0,8
13523,408.163265306122,4,1,0,70,1,0
13523,-101.379307636041,4,1,0,70,0,8
15155,405.405405405405,4,1,0,70,1,0
15155,-102.068967363355,4,1,0,70,0,8
18398,395.387149917627,4,1,0,70,1,0
18398,-104.655170736004,4,1,0,70,0,0
19979,402.684563758389,4,1,0,70,1,0
19979,-102.75862030949,4,1,0,70,0,0
23200,396.039603960396,4,1,0,70,1,0
23200,-104.482761562721,4,1,0,70,0,0
24784,413.507925568573,4,1,0,70,1,0
24784,-100.068968384351,4,1,0,70,0,0
24887,-100.068968384351,4,1,0,30,0,0
26024,397.350993377483,4,1,0,30,1,8
26024,-104.137928808487,4,1,0,30,0,8
26369,-100.689652523444,4,1,0,70,0,8
26421,410.958904109589,4,1,0,70,1,0
26421,-100.689652523444,4,1,0,70,0,0
28064,401.33779264214,4,1,0,70,1,0
28064,-103.103449462569,4,1,0,70,0,0
31274,398.671096345515,4,1,0,70,1,0
31274,-103.793104408258,4,1,0,70,0,0
32868,405.405405405405,4,1,0,70,1,0
32868,-102.068967363355,4,1,0,70,0,0
34489,400,4,1,0,70,1,0
34489,-103.448278838758,4,1,0,70,0,0
36089,405.405405405405,4,1,0,70,1,0
36089,-102.068967363355,4,1,0,70,0,0
37710,416.666666666666,4,1,0,70,1,0
37710,-99.3103474402683,4,1,0,70,0,0
37814,-99.3103474402683,4,1,0,60,0,0
38545,406.779661016949,4,1,0,60,1,8
38545,-101.724140439958,4,1,0,60,0,0
39304,-100.862068913691,4,1,0,80,0,8
39356,410.25641025641,4,1,0,80,1,1
39356,-100.862068913691,4,1,0,80,0,9
47561,408.163265306122,4,1,0,80,1,1
47561,-101.379307636041,4,1,0,80,0,9
50009,382.165605095541,4,1,0,80,1,9
50009,-108.275862202491,4,1,0,80,0,9
50773,408.163265306122,4,1,0,80,1,0
50773,-101.379307636041,4,1,0,80,0,8
50875,-101.379307636041,4,1,0,60,0,0
52353,-100.862068913691,4,1,0,80,0,0
52405,410.25641025641,4,1,0,80,1,1
52405,-100.862068913691,4,1,0,80,0,1
58969,407.470288624787,4,1,0,80,1,1
58969,-101.551723282168,4,1,0,80,0,1
63858,444.444444444444,4,1,0,70,1,0
63858,-93.1034521030332,4,1,0,70,0,0
63969,-103.793104408258,4,1,0,30,0,0
64302,398.671096345515,4,1,0,30,1,8
64302,-103.793104408258,4,1,0,30,0,8
65446,-101.034480515898,4,1,0,70,0,8
65498,409.556313993174,4,1,0,70,1,0
65498,-101.034480515898,4,1,0,70,0,8
67136,398.671096345515,4,1,0,70,1,0
67136,-103.793104408258,4,1,0,70,0,0
68730,402.684563758389,4,1,0,70,1,0
68730,-102.75862030949,4,1,0,70,0,0
70340,398.671096345515,4,1,0,70,1,0
70340,-103.793104408258,4,1,0,70,0,0
73529,401.33779264214,4,1,0,70,1,0
73529,-103.103449462569,4,1,0,70,0,0
76739,394.736842105263,4,1,0,70,1,0
76739,-104.827586551625,4,1,0,70,0,0
76837,-96.5517257254983,4,1,0,30,0,0
77133,428.571428571429,4,1,0,30,1,8
77133,-96.5517257254983,4,1,0,30,0,0
77981,397.350993377483,4,1,0,30,1,8
77981,-104.137928808487,4,1,0,30,0,8
78326,-101.379307636041,4,1,0,70,0,8
78378,408.163265306122,4,1,0,70,1,0
78378,-101.379307636041,4,1,0,70,0,8
80010,400,4,1,0,70,1,0
80010,-103.448278838758,4,1,0,70,0,8
81610,396.694214876033,4,1,0,70,1,0
81610,-104.310342308475,4,1,0,70,0,0
84783,400.667779632721,4,1,0,70,1,0
84783,-103.275859213985,4,1,0,70,0,0
86385,398.009950248756,4,1,0,70,1,0
86385,-103.965517380274,4,1,0,70,0,0
89569,416.666666666667,4,1,0,70,1,0
89569,-99.3103474402683,4,1,0,70,0,0
89673,-116.551722365242,4,1,0,60,0,0
90402,355.029585798817,4,1,0,60,1,8
90402,-116.551722365242,4,1,0,60,0,8
90579,395.387149917628,4,1,0,60,1,8
90579,-104.655170736004,4,1,0,60,0,8
91121,-102.241377345535,4,1,0,80,0,8
91172,404.721753794266,4,1,0,80,1,1
91172,-102.241377345535,4,1,0,80,0,9
102504,410.25641025641,4,1,0,80,1,0
102504,-100.862068913691,4,1,0,80,0,0
102606,-102.241377345535,4,1,0,60,0,0
104094,-102.241377345535,4,1,0,80,0,0
104145,404.721753794266,4,1,0,80,1,1
104145,-102.241377345535,4,1,0,80,0,1
115477,413.793103448275,4,1,0,80,1,0
115477,-100,4,1,0,80,0,0
115580,-101.379307636041,4,1,0,30,0,0
117080,-101.379307636041,4,1,0,70,0,0
117132,408.163265306122,4,1,0,70,1,0
117132,-101.379307636041,4,1,0,70,0,0
118764,404.721753794266,4,1,0,70,1,0
118764,-102.241377345535,4,1,0,70,0,0
120382,400,4,1,0,70,1,0
120382,-103.448278838758,4,1,0,70,0,0
121982,394.736842105263,4,1,0,70,1,0
121982,-104.827586551625,4,1,0,70,0,0
123560,396.694214876033,4,1,0,70,1,0
123560,-104.310342308475,4,1,0,70,0,0
128320,415.944540727903,4,1,0,70,1,0
128320,-99.4827579868322,4,1,0,70,0,0
128423,-104.827586551625,4,1,0,30,0,0
129567,394.736842105263,4,1,0,30,1,8
129567,-104.827586551625,4,1,0,30,0,8
129910,-102.068967363355,4,1,0,70,0,8
129961,405.405405405405,4,1,0,70,1,0
129961,-102.068967363355,4,1,0,70,0,8
131582,397.350993377483,4,1,0,70,1,0
131582,-104.137928808487,4,1,0,70,0,0
133171,392.798690671031,4,1,0,70,1,0
133171,-105.34482640618,4,1,0,70,0,0
137884,395.387149917627,4,1,0,70,1,0
137884,-104.655170736004,4,1,0,70,0,0
139465,394.736842105263,4,1,0,70,1,0
139465,-104.827586551625,4,1,0,70,0,0
141043,407.470288624788,4,1,0,70,1,0
141043,-101.551723282168,4,1,0,70,0,0
141144,-101.551723282168,4,1,0,60,0,0
142265,391.517128874388,4,1,0,60,1,8
142265,-105.689655020355,4,1,0,60,0,8
142607,-102.241377345535,4,1,0,80,0,8
142656,404.721753794266,4,1,0,80,1,1
142656,-102.241377345535,4,1,0,80,0,9
147512,402.684563758389,4,1,0,80,1,1
147512,-102.75862030949,4,1,0,80,0,9
153954,394.736842105263,4,1,0,80,1,0
153954,-104.827586551625,4,1,0,80,0,0
154052,-113.103449391695,4,1,0,60,0,0
154743,365.853658536585,4,1,0,60,1,8
154743,-113.103449391695,4,1,0,60,0,8
154925,387.096774193548,4,1,0,60,1,8
154925,-106.89655150443,4,1,0,60,0,8
155454,-102.413795608332,4,1,0,80,0,8
155505,404.040404040404,4,1,0,80,1,1
155505,-102.413795608332,4,1,0,80,0,9
166818,441.176470588235,4,1,0,80,1,0
166818,-93.7931083833423,4,1,0,80,0,0
166928,-100.344829607379,4,1,0,30,0,0
167259,412.371134020619,4,1,0,30,1,8
167259,-100.344829607379,4,1,0,30,0,8
168083,397.350993377483,4,1,0,30,1,8
168083,-104.137928808487,4,1,0,30,0,8
168429,-101.551723282168,4,1,0,70,0,8
168480,407.470288624788,4,1,0,70,1,0
168480,-101.551723282168,4,1,0,70,0,8
170109,397.350993377483,4,1,0,70,1,0
170109,-104.137928808487,4,1,0,70,0,0
178056,392.156862745098,4,1,0,70,1,0
178056,-105.517241032314,4,1,0,70,0,0
179624,400,4,1,0,70,1,0
179624,-103.448278838758,4,1,0,70,0,0

[HitObjects]
256,192,440,5,0,0:0:0:0:
256,192,853,1,0,0:0:0:0:
256,192,1060,1,8,0:0:0:0:
256,192,1267,1,8,0:0:0:0:
256,192,1474,1,0,0:0:0:0:
256,192,1681,1,8,0:0:0:0:
256,192,1888,1,8,0:0:0:0:
256,192,2095,1,0,0:0:0:0:
256,192,2497,1,0,0:0:0:0:
256,192,2699,1,8,0:0:0:0:
256,192,2900,1,8,0:0:0:0:
256,192,3001,1,8,0:0:0:0:
256,192,3101,1,0,0:0:0:0:
256,192,3303,1,0,0:0:0:0:
256,192,3504,1,8,0:0:0:0:
256,192,3705,1,0,0:0:0:0:
256,192,4110,1,0,0:0:0:0:
256,192,4313,1,8,0:0:0:0:
256,192,4515,1,8,0:0:0:0:
256,192,4718,1,0,0:0:0:0:
256,192,4921,1,8,0:0:0:0:
256,192,5123,1,8,0:0:0:0:
256,192,5326,1,0,0:0:0:0:
256,192,5732,1,8,0:0:0:0:
256,192,5934,1,8,0:0:0:0:
256,192,6137,1,0,0:0:0:0:
256,192,6238,1,0,0:0:0:0:
256,192,6340,1,8,0:0:0:0:
256,192,6542,1,0,0:0:0:0:
256,192,6745,1,8,0:0:0:0:
256,192,6948,1,0,0:0:0:0:
256,192,7353,1,0,0:0:0:0:
256,192,7556,1,8,0:0:0:0:
256,192,7759,1,8,0:0:0:0:
256,192,7961,1,0,0:0:0:0:
256,192,8164,1,8,0:0:0:0:
256,192,8367,1,8,0:0:0:0:
256,192,8569,1,0,0:0:0:0:
256,192,8978,1,0,0:0:0:0:
256,192,9183,1,0,0:0:0:0:
256,192,9388,1,8,0:0:0:0:
256,192,9490,1,8,0:0:0:0:
256,192,9592,1,0,0:0:0:0:
256,192,9797,1,8,0:0:0:0:
256,192,10002,1,0,0:0:0:0:
256,192,10410,1,8,0:0:0:0:
256,192,10613,1,8,0:0:0:0:
256,192,10817,1,0,0:0:0:0:
256,192,11020,1,8,0:0:0:0:
256,192,11427,1,8,0:0:0:0:
256,192,11834,1,4,0:0:0:0:
256,192,12488,1,8,0:0:0:0:
256,192,12707,1,8,0:0:0:0:
256,192,13115,1,8,0:0:0:0:
256,192,13523,1,0,0:0:0:0:
256,192,13931,1,8,0:0:0:0:
256,192,14135,1,8,0:0:0:0:
256,192,14339,1,0,0:0:0:0:
256,192,14543,1,0,0:0:0:0:
256,192,14951,1,0,0:0:0:0:
256,192,15763,1,0,0:0:0:0:
256,192,15965,1,8,0:0:0:0:
256,192,16371,1,0,0:0:0:0:
256,192,16573,1,8,0:0:0:0:
256,192,16776,1,0,0:0:0:0:
256,192,17182,1,8,0:0:0:0:
256,192,17384,1,8,0:0:0:0:
256,192,17587,1,0,0:0:0:0:
256,192,17790,1,8,0:0:0:0:
256,192,18195,1,0,0:0:0:0:
256,192,18991,1,0,0:0:0:0:
256,192,19188,1,8,0:0:0:0:
256,192,19584,1,0,0:0:0:0:
256,192,19781,1,8,0:0:0:0:
256,192,19979,1,0,0:0:0:0:
256,192,20583,1,0,0:0:0:0:
256,192,20985,1,8,0:0:0:0:
256,192,21187,1,8,0:0:0:0:
256,192,21388,1,0,0:0:0:0:
256,192,21791,1,0,0:0:0:0:
256,192,21992,1,8,0:0:0:0:
256,192,22193,1,8,0:0:0:0:
256,192,22395,1,0,0:0:0:0:
256,192,22797,1,8,0:0:0:0:
256,192,22999,1,0,0:0:0:0:
256,192,23596,1,0,0:0:0:0:
256,192,23794,1,8,0:0:0:0:
256,192,24190,1,0,0:0:0:0:
256,192,24388,1,8,0:0:0:0:
256,192,24586,1,8,0:0:0:0:
256,192,24784,1,4,0:0:0:0:
256,192,25404,1,8,0:0:0:0:
256,192,25611,1,8,0:0:0:0:
256,192,26024,1,8,0:0:0:0:
256,192,26421,1,0,0:0:0:0:
256,192,26831,1,8,0:0:0:0:
256,192,27037,1,0,0:0:0:0:
256,192,27242,1,8,0:0:0:0:
256,192,27448,1,8,0:0:0:0:
256,192,27859,1,0,0:0:0:0:
256,192,28264,1,8,0:0:0:0:
256,192,28465,1,8,0:0:0:0:
256,192,28666,1,0,0:0:0:0:
256,192,28866,1,8,0:0:0:0:
256,192,29268,1,0,0:0:0:0:
256,192,29468,1,8,0:0:0:0:
256,192,29669,1,0,0:0:0:0:
256,192,30070,1,8,0:0:0:0:
256,192,30271,1,0,0:0:0:0:
256,192,30472,1,8,0:0:0:0:
256,192,30672,1,8,0:0:0:0:
256,192,31074,1,0,0:0:0:0:
256,192,31473,1,8,0:0:0:0:
256,192,31672,1,8,0:0:0:0:
256,192,31872,1,0,0:0:0:0:
256,192,32071,1,8,0:0:0:0:
256,192,32270,1,0,0:0:0:0:
256,192,32470,1,8,0:0:0:0:
256,192,32669,1,8,0:0:0:0:
256,192,32868,1,0,0:0:0:0:
256,192,33273,1,0,0:0:0:0:
256,192,33476,1,8,0:0:0:0:
256,192,33678,1,8,0:0:0:0:
256,192,33881,1,0,0:0:0:0:
256,192,33982,1,0,0:0:0:0:
256,192,34084,1,8,0:0:0:0:
256,192,34286,1,0,0:0:0:0:
256,192,34689,1,8,0:0:0:0:
256,192,34889,1,8,0:0:0:0:
256,192,35089,1,0,0:0:0:0:
256,192,35289,1,8,0:0:0:0:
256,192,35689,1,8,0:0:0:0:
256,192,35889,1,8,0:0:0:0:
256,192,36089,1,0,0:0:0:0:
256,192,36494,1,8,0:0:0:0:
256,192,36697,1,0,0:0:0:0:
256,192,37102,1,8,0:0:0:0:
256,192,37507,1,0,0:0:0:0:
256,192,37710,1,12,0:0:0:0:
256,192,38545,1,8,0:0:0:0:
256,192,38646,1,8,0:0:0:0:
256,192,38748,1,8,0:0:0:0:
256,192,38850,1,8,0:0:0:0:
256,192,38951,1,0,0:0:0:0:
256,192,39155,1,0,0:0:0:0:
256,192,39356,1,8,0:0:0:0:
256,192,39458,1,8,0:0:0:0:
256,192,39561,1,0,0:0:0:0:
256,192,39766,1,8,0:0:0:0:
256,192,39971,1,8,0:0:0:0:
256,192,40176,1,0,0:0:0:0:
256,192,40381,1,8,0:0:0:0:
256,192,40586,1,0,0:0:0:0:
256,192,40791,1,8,0:0:0:0:
256,192,40997,1,0,0:0:0:0:
256,192,41202,1,8,0:0:0:0:
256,192,41407,1,8,0:0:0:0:
256,192,41612,1,0,0:0:0:0:
256,192,41817,1,8,0:0:0:0:
256,192,41920,1,8,0:0:0:0:
256,192,42022,1,0,0:0:0:0:
256,192,42227,1,8,0:0:0:0:
256,192,42432,1,8,0:0:0:0:
256,192,42638,1,0,0:0:0:0:
256,192,42740,1,0,0:0:0:0:
256,192,42843,1,0,0:0:0:0:
256,192,43048,1,8,0:0:0:0:
256,192,43253,1,0,0:0:0:0:
256,192,43458,1,8,0:0:0:0:
256,192,43663,1,8,0:0:0:0:
256,192,43868,1,0,0:0:0:0:
256,192,44073,1,8,0:0:0:0:
256,192,44279,1,0,0:0:0:0:
256,192,44484,1,8,0:0:0:0:
256,192,44689,1,8,0:0:0:0:
256,192,44894,1,0,0:0:0:0:
256,192,45099,1,8,0:0:0:0:
256,192,45202,1,8,0:0:0:0:
256,192,45304,1,0,0:0:0:0:
256,192,45407,1,0,0:0:0:0:
256,192,45509,1,8,0:0:0:0:
256,192,45714,1,8,0:0:0:0:
256,192,45920,1,8,0:0:0:0:
256,192,46022,1,8,0:0:0:0:
256,192,46125,1,0,0:0:0:0:
256,192,46330,1,8,0:0:0:0:
256,192,46535,1,8,0:0:0:0:
256,192,46740,1,0,0:0:0:0:
256,192,46945,1,8,0:0:0:0:
256,192,47150,1,0,0:0:0:0:
256,192,47355,1,0,0:0:0:0:
256,192,47561,1,8,0:0:0:0:
256,192,47663,1,8,0:0:0:0:
256,192,47765,1,8,0:0:0:0:
256,192,48377,1,0,0:0:0:0:
256,192,48581,1,8,0:0:0:0:
256,192,48785,1,0,0:0:0:0:
256,192,48989,1,8,0:0:0:0:
256,192,49397,1,0,0:0:0:0:
256,192,49499,1,0,0:0:0:0:
256,192,49601,1,8,0:0:0:0:
256,192,49805,1,8,0:0:0:0:
256,192,50009,1,0,0:0:0:0:
256,192,50200,1,8,0:0:0:0:
256,192,50295,1,8,0:0:0:0:
256,192,50391,1,8,0:0:0:0:
256,192,50582,1,0,0:0:0:0:
256,192,50773,1,12,0:0:0:0:
256,192,51589,1,8,0:0:0:0:
256,192,51895,1,8,0:0:0:0:
256,192,51997,1,0,0:0:0:0:
256,192,52201,1,0,0:0:0:0:
256,192,52405,1,8,0:0:0:0:
256,192,52507,1,8,0:0:0:0:
256,192,52610,1,0,0:0:0:0:
256,192,52815,1,8,0:0:0:0:
256,192,53020,1,8,0:0:0:0:
256,192,53225,1,0,0:0:0:0:
256,192,53430,1,8,0:0:0:0:
256,192,53635,1,0,0:0:0:0:
256,192,53840,1,8,0:0:0:0:
256,192,54046,1,0,0:0:0:0:
256,192,54251,1,8,0:0:0:0:
256,192,54456,1,8,0:0:0:0:
256,192,54661,1,0,0:0:0:0:
256,192,54866,1,8,0:0:0:0:
256,192,54969,1,8,0:0:0:0:
256,192,55071,1,0,0:0:0:0:
256,192,55276,1,8,0:0:0:0:
256,192,55481,1,8,0:0:0:0:
256,192,55687,1,0,0:0:0:0:
256,192,55789,1,0,0:0:0:0:
256,192,55892,1,0,0:0:0:0:
256,192,56097,1,8,0:0:0:0:
256,192,56302,1,8,0:0:0:0:
256,192,56507,1,0,0:0:0:0:
256,192,56712,1,8,0:0:0:0:
256,192,56917,1,0,0:0:0:0:
256,192,57122,1,8,0:0:0:0:
256,192,57328,1,0,0:0:0:0:
256,192,57533,1,8,0:0:0:0:
256,192,57738,1,8,0:0:0:0:
256,192,57943,1,0,0:0:0:0:
256,192,58148,1,8,0:0:0:0:
256,192,58251,1,8,0:0:0:0:
256,192,58353,1,0,0:0:0:0:
256,192,58456,1,0,0:0:0:0:
256,192,58558,1,0,0:0:0:0:
256,192,58763,1,0,0:0:0:0:
256,192,58969,1,8,0:0:0:0:
256,192,59070,1,8,0:0:0:0:
256,192,59172,1,0,0:0:0:0:
256,192,59376,1,8,0:0:0:0:
256,192,59580,1,8,0:0:0:0:
256,192,59783,1,0,0:0:0:0:
256,192,59987,1,8,0:0:0:0:
256,192,60191,1,0,0:0:0:0:
256,192,60395,1,0,0:0:0:0:
256,192,60598,1,8,0:0:0:0:
256,192,60700,1,0,0:0:0:0:
256,192,60802,1,8,0:0:0:0:
256,192,61413,1,0,0:0:0:0:
256,192,61617,1,8,0:0:0:0:
256,192,61821,1,8,0:0:0:0:
256,192,62025,1,0,0:0:0:0:
256,192,62432,1,8,0:0:0:0:
256,192,62534,1,8,0:0:0:0:
256,192,62636,1,8,0:0:0:0:
256,192,62839,1,8,0:0:0:0:
256,192,63247,1,0,0:0:0:0:
256,192,63451,1,8,0:0:0:0:
256,192,63654,1,8,0:0:0:0:
256,192,63858,1,4,0:0:0:0:
256,192,64501,1,8,0:0:0:0:
256,192,64700,1,8,0:0:0:0:
256,192,65099,1,8,0:0:0:0:
256,192,65498,1,0,0:0:0:0:
256,192,65907,1,8,0:0:0:0:
256,192,66112,1,0,0:0:0:0:
256,192,66317,1,8,0:0:0:0:
256,192,66521,1,8,0:0:0:0:
256,192,66931,1,0,0:0:0:0:
256,192,67335,1,0,0:0:0:0:
256,192,67534,1,0,0:0:0:0:
256,192,67734,1,8,0:0:0:0:
256,192,67933,1,8,0:0:0:0:
256,192,68332,1,0,0:0:0:0:
256,192,68531,1,8,0:0:0:0:
256,192,68730,1,0,0:0:0:0:
256,192,69132,1,0,0:0:0:0:
256,192,69334,1,0,0:0:0:0:
256,192,69535,1,8,0:0:0:0:
256,192,69736,1,8,0:0:0:0:
256,192,70139,1,0,0:0:0:0:
256,192,70539,1,0,0:0:0:0:
256,192,70738,1,8,0:0:0:0:
256,192,70938,1,0,0:0:0:0:
256,192,71137,1,8,0:0:0:0:
256,192,71536,1,8,0:0:0:0:
256,192,71735,1,8,0:0:0:0:
256,192,71934,1,0,0:0:0:0:
256,192,72333,1,0,0:0:0:0:
256,192,72532,1,0,0:0:0:0:
256,192,72732,1,8,0:0:0:0:
256,192,72831,1,8,0:0:0:0:
256,192,72931,1,0,0:0:0:0:
256,192,73130,1,8,0:0:0:0:
256,192,73330,1,0,0:0:0:0:
256,192,73729,1,8,0:0:0:0:
256,192,73930,1,8,0:0:0:0:
256,192,74131,1,0,0:0:0:0:
256,192,74331,1,8,0:0:0:0:
256,192,74733,1,0,0:0:0:0:
256,192,74933,1,8,0:0:0:0:
256,192,75134,1,0,0:0:0:0:
256,192,75535,1,0,0:0:0:0:
256,192,75736,1,8,0:0:0:0:
256,192,76137,1,8,0:0:0:0:
256,192,76338,1,8,0:0:0:0:
256,192,76539,1,8,0:0:0:0:
256,192,76739,1,4,0:0:0:0:
256,192,77347,1,8,0:0:0:0:
256,192,77561,1,8,0:0:0:0:
256,192,77981,1,8,0:0:0:0:
256,192,78378,1,0,0:0:0:0:
256,192,78786,1,8,0:0:0:0:
256,192,78990,1,0,0:0:0:0:
256,192,79194,1,8,0:0:0:0:
256,192,79398,1,8,0:0:0:0:
256,192,79806,1,0,0:0:0:0:
256,192,80210,1,8,0:0:0:0:
256,192,80410,1,8,0:0:0:0:
256,192,80610,1,0,0:0:0:0:
256,192,80810,1,8,0:0:0:0:
256,192,81210,1,0,0:0:0:0:
256,192,81410,1,8,0:0:0:0:
256,192,81610,1,0,0:0:0:0:
256,192,82006,1,0,0:0:0:0:
256,192,82205,1,0,0:0:0:0:
256,192,82403,1,8,0:0:0:0:
256,192,82601,1,0,0:0:0:0:
256,192,82998,1,8,0:0:0:0:
256,192,83395,1,8,0:0:0:0:
256,192,83593,1,8,0:0:0:0:
256,192,83791,1,0,0:0:0:0:
256,192,83990,1,8,0:0:0:0:
256,192,84386,1,0,0:0:0:0:
256,192,84585,1,8,0:0:0:0:
256,192,84783,1,0,0:0:0:0:
256,192,85183,1,0,0:0:0:0:
256,192,85384,1,0,0:0:0:0:
256,192,85584,1,8,0:0:0:0:
256,192,85684,1,8,0:0:0:0:
256,192,85784,1,0,0:0:0:0:
256,192,85985,1,8,0:0:0:0:
256,192,86185,1,0,0:0:0:0:
256,192,86584,1,8,0:0:0:0:
256,192,86783,1,8,0:0:0:0:
256,192,86982,1,0,0:0:0:0:
256,192,87181,1,8,0:0:0:0:
256,192,87579,1,8,0:0:0:0:
256,192,87778,1,8,0:0:0:0:
256,192,87977,1,0,0:0:0:0:
256,192,88076,1,0,0:0:0:0:
256,192,88176,1,8,0:0:0:0:
256,192,88375,1,8,0:0:0:0:
256,192,88574,1,0,0:0:0:0:
256,192,88972,1,8,0:0:0:0:
256,192,89171,1,8,0:0:0:0:
256,192,89370,1,8,0:0:0:0:
256,192,89569,1,4,0:0:0:0:
256,192,90402,1,8,0:0:0:0:
256,192,90490,1,8,0:0:0:0:
256,192,90579,1,8,0:0:0:0:
256,192,90677,1,8,0:0:0:0:
256,192,90776,1,8,0:0:0:0:
256,192,90974,1,0,0:0:0:0:
256,192,91172,1,8,0:0:0:0:
256,192,91273,1,8,0:0:0:0:
256,192,91374,1,0,0:0:0:0:
256,192,91576,1,8,0:0:0:0:
256,192,91779,1,0,0:0:0:0:
256,192,91880,1,0,0:0:0:0:
256,192,91981,1,8,0:0:0:0:
256,192,92183,1,0,0:0:0:0:
256,192,92386,1,8,0:0:0:0:
256,192,92588,1,8,0:0:0:0:
256,192,92993,1,8,0:0:0:0:
256,192,93195,1,8,0:0:0:0:
256,192,93397,1,0,0:0:0:0:
256,192,93600,1,8,0:0:0:0:
256,192,93701,1,8,0:0:0:0:
256,192,93802,1,0,0:0:0:0:
256,192,93903,1,0,0:0:0:0:
256,192,94005,1,0,0:0:0:0:
256,192,94207,1,8,0:0:0:0:
256,192,94409,1,8,0:0:0:0:
256,192,94510,1,8,0:0:0:0:
256,192,94612,1,0,0:0:0:0:
256,192,94814,1,8,0:0:0:0:
256,192,95016,1,0,0:0:0:0:
256,192,95118,1,8,0:0:0:0:
256,192,95219,1,8,0:0:0:0:
256,192,95421,1,0,0:0:0:0:
256,192,95522,1,0,0:0:0:0:
256,192,95623,1,8,0:0:0:0:
256,192,95826,1,0,0:0:0:0:
256,192,96028,1,0,0:0:0:0:
256,192,96231,1,8,0:0:0:0:
256,192,96433,1,8,0:0:0:0:
256,192,96635,1,0,0:0:0:0:
256,192,96838,1,8,0:0:0:0:
256,192,96939,1,8,0:0:0:0:
256,192,97040,1,0,0:0:0:0:
256,192,97141,1,0,0:0:0:0:
256,192,97242,1,0,0:0:0:0:
256,192,97445,1,8,0:0:0:0:
256,192,97647,1,8,0:0:0:0:
256,192,97748,1,8,0:0:0:0:
256,192,97849,1,0,0:0:0:0:
256,192,98052,1,0,0:0:0:0:
256,192,98254,1,8,0:0:0:0:
256,192,98355,1,8,0:0:0:0:
256,192,98456,1,8,0:0:0:0:
256,192,98659,1,0,0:0:0:0:
256,192,98861,1,8,0:0:0:0:
256,192,99064,1,8,0:0:0:0:
256,192,99266,1,0,0:0:0:0:
256,192,99367,1,8,0:0:0:0:
256,192,99468,1,0,0:0:0:0:
256,192,100075,1,0,0:0:0:0:
256,192,100278,1,8,0:0:0:0:
256,192,100480,1,8,0:0:0:0:
256,192,100682,1,0,0:0:0:0:
256,192,101087,1,0,0:0:0:0:
256,192,101188,1,0,0:0:0:0:
256,192,101290,1,8,0:0:0:0:
256,192,101492,1,8,0:0:0:0:
256,192,101897,1,8,0:0:0:0:
256,192,102099,1,0,0:0:0:0:
256,192,102301,1,0,0:0:0:0:
256,192,102504,1,12,0:0:0:0:
256,192,104145,1,8,0:0:0:0:
256,192,104246,1,8,0:0:0:0:
256,192,104347,1,0,0:0:0:0:
256,192,104549,1,8,0:0:0:0:
256,192,104752,1,8,0:0:0:0:
256,192,104853,1,8,0:0:0:0:
256,192,104954,1,8,0:0:0:0:
256,192,105156,1,0,0:0:0:0:
256,192,105257,1,0,0:0:0:0:
256,192,105359,1,8,0:0:0:0:
256,192,105561,1,0,0:0:0:0:
256,192,105763,1,0,0:0:0:0:
256,192,105966,1,8,0:0:0:0:
256,192,106168,1,8,0:0:0:0:
256,192,106370,1,0,0:0:0:0:
256,192,106573,1,8,0:0:0:0:
256,192,106674,1,8,0:0:0:0:
256,192,106775,1,0,0:0:0:0:
256,192,106876,1,8,0:0:0:0:
256,192,106978,1,0,0:0:0:0:
256,192,107180,1,8,0:0:0:0:
256,192,107382,1,8,0:0:0:0:
256,192,107483,1,8,0:0:0:0:
256,192,107585,1,0,0:0:0:0:
256,192,107787,1,8,0:0:0:0:
256,192,107989,1,0,0:0:0:0:
256,192,108091,1,0,0:0:0:0:
256,192,108192,1,8,0:0:0:0:
256,192,108394,1,0,0:0:0:0:
256,192,108495,1,0,0:0:0:0:
256,192,108596,1,8,0:0:0:0:
256,192,108698,1,8,0:0:0:0:
256,192,108799,1,0,0:0:0:0:
256,192,109001,1,0,0:0:0:0:
256,192,109204,1,8,0:0:0:0:
256,192,109406,1,8,0:0:0:0:
256,192,109608,1,0,0:0:0:0:
256,192,109811,1,8,0:0:0:0:
256,192,109912,1,8,0:0:0:0:
256,192,110013,1,0,0:0:0:0:
256,192,110215,1,8,0:0:0:0:
256,192,110418,1,8,0:0:0:0:
256,192,110620,1,0,0:0:0:0:
256,192,110721,1,8,0:0:0:0:
256,192,110822,1,0,0:0:0:0:
256,192,111025,1,8,0:0:0:0:
256,192,111227,1,8,0:0:0:0:
256,192,111328,1,8,0:0:0:0:
256,192,111429,1,0,0:0:0:0:
256,192,111531,1,0,0:0:0:0:
256,192,111632,1,0,0:0:0:0:
256,192,111834,1,8,0:0:0:0:
256,192,112037,1,8,0:0:0:0:
256,192,112239,1,0,0:0:0:0:
256,192,112340,1,0,0:0:0:0:
256,192,112441,1,0,0:0:0:0:
256,192,113048,1,0,0:0:0:0:
256,192,113251,1,8,0:0:0:0:
256,192,113453,1,8,0:0:0:0:
256,192,113655,1,0,0:0:0:0:
256,192,114060,1,0,0:0:0:0:
256,192,114161,1,0,0:0:0:0:
256,192,114263,1,8,0:0:0:0:
256,192,114465,1,8,0:0:0:0:
256,192,114870,1,8,0:0:0:0:
256,192,114971,1,0,0:0:0:0:
256,192,115072,1,8,0:0:0:0:
256,192,115274,1,8,0:0:0:0:
256,192,115477,1,4,0:0:0:0:
256,192,117132,1,0,0:0:0:0:
256,192,117540,1,8,0:0:0:0:
256,192,117744,1,0,0:0:0:0:
256,192,117948,1,8,0:0:0:0:
256,192,118152,1,8,0:0:0:0:
256,192,118560,1,0,0:0:0:0:
256,192,118966,1,0,0:0:0:0:
256,192,119168,1,8,0:0:0:0:
256,192,119371,1,0,0:0:0:0:
256,192,119573,1,8,0:0:0:0:
256,192,119978,1,8,0:0:0:0:
256,192,120180,1,8,0:0:0:0:
256,192,120382,1,0,0:0:0:0:
256,192,120782,1,0,0:0:0:0:
256,192,120982,1,0,0:0:0:0:
256,192,121182,1,8,0:0:0:0:
256,192,121382,1,8,0:0:0:0:
256,192,121782,1,0,0:0:0:0:
256,192,122179,1,8,0:0:0:0:
256,192,122376,1,0,0:0:0:0:
256,192,122574,1,8,0:0:0:0:
256,192,122771,1,8,0:0:0:0:
256,192,123166,1,0,0:0:0:0:
256,192,123363,1,8,0:0:0:0:
256,192,123560,1,0,0:0:0:0:
256,192,123956,1,0,0:0:0:0:
256,192,124155,1,0,0:0:0:0:
256,192,124353,1,8,0:0:0:0:
256,192,124452,1,8,0:0:0:0:
256,192,124551,1,0,0:0:0:0:
256,192,124750,1,8,0:0:0:0:
256,192,124948,1,0,0:0:0:0:
256,192,125345,1,8,0:0:0:0:
256,192,125543,1,8,0:0:0:0:
256,192,125741,1,0,0:0:0:0:
256,192,125940,1,8,0:0:0:0:
256,192,126039,1,8,0:0:0:0:
256,192,126138,1,8,0:0:0:0:
256,192,126336,1,0,0:0:0:0:
256,192,126535,1,8,0:0:0:0:
256,192,126733,1,0,0:0:0:0:
256,192,127130,1,8,0:0:0:0:
256,192,127328,1,8,0:0:0:0:
256,192,127725,1,0,0:0:0:0:
256,192,127923,1,8,0:0:0:0:
256,192,128121,1,8,0:0:0:0:
256,192,128320,1,4,0:0:0:0:
256,192,129567,1,8,0:0:0:0:
256,192,129961,1,0,0:0:0:0:
256,192,130366,1,8,0:0:0:0:
256,192,130569,1,0,0:0:0:0:
256,192,130771,1,8,0:0:0:0:
256,192,130974,1,8,0:0:0:0:
256,192,131379,1,0,0:0:0:0:
256,192,131780,1,8,0:0:0:0:
256,192,131979,1,8,0:0:0:0:
256,192,132178,1,0,0:0:0:0:
256,192,132376,1,8,0:0:0:0:
256,192,132774,1,8,0:0:0:0:
256,192,132972,1,8,0:0:0:0:
256,192,133171,1,0,0:0:0:0:
256,192,133563,1,0,0:0:0:0:
256,192,133760,1,0,0:0:0:0:
256,192,133956,1,8,0:0:0:0:
256,192,134152,1,8,0:0:0:0:
256,192,134545,1,0,0:0:0:0:
256,192,134938,1,0,0:0:0:0:
256,192,135134,1,8,0:0:0:0:
256,192,135331,1,0,0:0:0:0:
256,192,135527,1,8,0:0:0:0:
256,192,135920,1,8,0:0:0:0:
256,192,136116,1,8,0:0:0:0:
256,192,136313,1,0,0:0:0:0:
256,192,136706,1,0,0:0:0:0:
256,192,136902,1,0,0:0:0:0:
256,192,137098,1,8,0:0:0:0:
256,192,137197,1,8,0:0:0:0:
256,192,137295,1,8,0:0:0:0:
256,192,137491,1,0,0:0:0:0:
256,192,137688,1,8,0:0:0:0:
256,192,138081,1,8,0:0:0:0:
256,192,138279,1,8,0:0:0:0:
256,192,138477,1,0,0:0:0:0:
256,192,138674,1,8,0:0:0:0:
256,192,139070,1,0,0:0:0:0:
256,192,139267,1,8,0:0:0:0:
256,192,139465,1,0,0:0:0:0:
256,192,139859,1,8,0:0:0:0:
256,192,140057,1,0,0:0:0:0:
256,192,140451,1,8,0:0:0:0:
256,192,140649,1,0,0:0:0:0:
256,192,140846,1,8,0:0:0:0:
256,192,141043,1,4,0:0:0:0:
256,192,141654,5,8,0:0:0:0:
256,192,141857,1,8,0:0:0:0:
256,192,142265,1,8,0:0:0:0:
256,192,142656,1,0,0:0:0:0:
256,192,142858,1,0,0:0:0:0:
256,192,143060,1,8,0:0:0:0:
256,192,143263,1,0,0:0:0:0:
256,192,143465,1,8,0:0:0:0:
256,192,143566,1,8,0:0:0:0:
256,192,143667,1,0,0:0:0:0:
256,192,143870,1,8,0:0:0:0:
256,192,144072,1,0,0:0:0:0:
256,192,144173,1,8,0:0:0:0:
256,192,144274,1,0,0:0:0:0:
256,192,144477,1,8,0:0:0:0:
256,192,144679,1,8,0:0:0:0:
256,192,144881,1,0,0:0:0:0:
256,192,145084,1,8,0:0:0:0:
256,192,145185,1,8,0:0:0:0:
256,192,145286,1,0,0:0:0:0:
256,192,145387,1,0,0:0:0:0:
256,192,145489,1,0,0:0:0:0:
256,192,145691,1,8,0:0:0:0:
256,192,145893,1,0,0:0:0:0:
256,192,145994,1,0,0:0:0:0:
256,192,146096,1,0,0:0:0:0:
256,192,146298,1,8,0:0:0:0:
256,192,146500,1,0,0:0:0:0:
256,192,146602,1,0,0:0:0:0:
256,192,146703,1,8,0:0:0:0:
256,192,146905,1,8,0:0:0:0:
256,192,147006,1,8,0:0:0:0:
256,192,147107,1,8,0:0:0:0:
256,192,147310,1,0,0:0:0:0:
256,192,147512,1,0,0:0:0:0:
256,192,147713,1,8,0:0:0:0:
256,192,147814,1,0,0:0:0:0:
256,192,147914,1,8,0:0:0:0:
256,192,148116,1,0,0:0:0:0:
256,192,148317,1,8,0:0:0:0:
256,192,148418,1,8,0:0:0:0:
256,192,148518,1,0,0:0:0:0:
256,192,148619,1,0,0:0:0:0:
256,192,148720,1,0,0:0:0:0:
256,192,148921,1,8,0:0:0:0:
256,192,149122,1,8,0:0:0:0:
256,192,149223,1,0,0:0:0:0:
256,192,149324,1,0,0:0:0:0:
256,192,149525,1,8,0:0:0:0:
256,192,149726,1,8,0:0:0:0:
256,192,149827,1,8,0:0:0:0:
256,192,149928,1,0,0:0:0:0:
256,192,150129,1,0,0:0:0:0:
256,192,150330,1,8,0:0:0:0:
256,192,150532,1,8,0:0:0:0:
256,192,150733,1,0,0:0:0:0:
256,192,150834,1,8,0:0:0:0:
256,192,150934,1,0,0:0:0:0:
256,192,151538,1,0,0:0:0:0:
256,192,151740,1,8,0:0:0:0:
256,192,151840,1,8,0:0:0:0:
256,192,151941,1,0,0:0:0:0:
256,192,152142,1,8,0:0:0:0:
256,192,152545,1,8,0:0:0:0:
256,192,152646,1,8,0:0:0:0:
256,192,152746,1,0,0:0:0:0:
256,192,152948,1,0,0:0:0:0:
256,192,153149,1,8,0:0:0:0:
256,192,153250,1,8,0:0:0:0:
256,192,153350,1,8,0:0:0:0:
256,192,153552,1,0,0:0:0:0:
256,192,153753,1,8,0:0:0:0:
256,192,153954,1,4,0:0:0:0:
256,192,154743,1,8,0:0:0:0:
256,192,154834,1,8,0:0:0:0:
256,192,154925,1,8,0:0:0:0:
256,192,155021,1,8,0:0:0:0:
256,192,155118,1,0,0:0:0:0:
256,192,155312,1,0,0:0:0:0:
256,192,155408,1,0,0:0:0:0:
256,192,155505,1,8,0:0:0:0:
256,192,155707,1,0,0:0:0:0:
256,192,155909,1,8,0:0:0:0:
256,192,156111,1,0,0:0:0:0:
256,192,156313,1,8,0:0:0:0:
256,192,156414,1,8,0:0:0:0:
256,192,156515,1,0,0:0:0:0:
256,192,156717,1,8,0:0:0:0:
256,192,156919,1,0,0:0:0:0:
256,192,157020,1,0,0:0:0:0:
256,192,157121,1,0,0:0:0:0:
256,192,157323,1,8,0:0:0:0:
256,192,157525,1,8,0:0:0:0:
256,192,157727,1,0,0:0:0:0:
256,192,157929,1,8,0:0:0:0:
256,192,158030,1,8,0:0:0:0:
256,192,158131,1,0,0:0:0:0:
256,192,158232,1,0,0:0:0:0:
256,192,158333,1,0,0:0:0:0:
256,192,158535,1,8,0:0:0:0:
256,192,158737,1,8,0:0:0:0:
256,192,158838,1,8,0:0:0:0:
256,192,158939,1,8,0:0:0:0:
256,192,159141,1,0,0:0:0:0:
256,192,159343,1,0,0:0:0:0:
256,192,159444,1,0,0:0:0:0:
256,192,159545,1,8,0:0:0:0:
256,192,159747,1,8,0:0:0:0:
256,192,159848,1,0,0:0:0:0:
256,192,159949,1,8,0:0:0:0:
256,192,160151,1,0,0:0:0:0:
256,192,160353,1,0,0:0:0:0:
256,192,160555,1,8,0:0:0:0:
256,192,160656,1,8,0:0:0:0:
256,192,160757,1,8,0:0:0:0:
256,192,160959,1,0,0:0:0:0:
256,192,161161,1,8,0:0:0:0:
256,192,161262,1,0,0:0:0:0:
256,192,161363,1,8,0:0:0:0:
256,192,161464,1,8,0:0:0:0:
256,192,161565,1,0,0:0:0:0:
256,192,161767,1,8,0:0:0:0:
256,192,161969,1,8,0:0:0:0:
256,192,162070,1,8,0:0:0:0:
256,192,162171,1,0,0:0:0:0:
256,184,162373,1,8,0:0:0:0:
256,184,162575,1,0,0:0:0:0:
256,184,162676,1,0,0:0:0:0:
256,184,162777,1,0,0:0:0:0:
256,184,162979,1,0,0:0:0:0:
256,184,163181,1,8,0:0:0:0:
256,184,163383,1,8,0:0:0:0:
256,184,163585,1,0,0:0:0:0:
256,184,163686,1,8,0:0:0:0:
256,184,163787,1,0,0:0:0:0:
256,184,164393,1,0,0:0:0:0:
256,184,164595,1,8,0:0:0:0:
256,184,164696,1,8,0:0:0:0:
256,184,164797,1,0,0:0:0:0:
256,184,164999,1,8,0:0:0:0:
256,184,165403,1,0,0:0:0:0:
256,184,165505,1,0,0:0:0:0:
256,184,165606,1,8,0:0:0:0:
256,184,165808,1,8,0:0:0:0:
256,184,166212,1,0,0:0:0:0:
256,184,166414,1,8,0:0:0:0:
256,184,166616,1,8,0:0:0:0:
256,184,166818,1,4,0:0:0:0:
256,184,167465,1,8,0:0:0:0:
256,184,167671,1,8,0:0:0:0:
256,184,168083,1,8,0:0:0:0:
256,184,168480,1,0,0:0:0:0:
256,192,168887,1,8,0:0:0:0:
256,192,169091,1,0,0:0:0:0:
256,192,169294,1,8,0:0:0:0:
256,192,169498,1,8,0:0:0:0:
256,192,169906,1,0,0:0:0:0:
256,192,170307,1,8,0:0:0:0:
256,192,170506,1,8,0:0:0:0:
256,192,170705,1,0,0:0:0:0:
256,192,170903,1,8,0:0:0:0:
256,192,171301,1,8,0:0:0:0:
256,192,171499,1,8,0:0:0:0:
256,192,171698,1,0,0:0:0:0:
256,192,172095,1,8,0:0:0:0:
256,192,172294,1,0,0:0:0:0:
256,192,172493,1,8,0:0:0:0:
256,192,172691,1,8,0:0:0:0:
256,192,173089,1,0,0:0:0:0:
256,192,173486,1,8,0:0:0:0:
256,192,173685,1,8,0:0:0:0:
256,192,173883,1,0,0:0:0:0:
256,192,174082,1,8,0:0:0:0:
256,192,174479,1,0,0:0:0:0:
256,192,174678,1,8,0:0:0:0:
256,192,174877,1,0,0:0:0:0:
256,192,175274,1,0,0:0:0:0:
256,192,175473,1,0,0:0:0:0:
256,192,175671,1,8,0:0:0:0:
256,192,175771,1,8,0:0:0:0:
256,192,175870,1,8,0:0:0:0:
256,192,176069,1,0,0:0:0:0:
256,192,176267,1,8,0:0:0:0:
256,192,176665,1,8,0:0:0:0:
256,192,176764,1,0,0:0:0:0:
256,192,176863,1,8,0:0:0:0:
256,192,177062,1,8,0:0:0:0:
256,192,177261,1,0,0:0:0:0:
256,192,177658,1,8,0:0:0:0:
256,192,177857,1,8,0:0:0:0:
256,192,178056,1,0,0:0:0:0:
256,192,178448,1,8,0:0:0:0:
256,192,178644,1,8,0:0:0:0:
256,192,179036,1,0,0:0:0:0:
256,192,179232,1,8,0:0:0:0:
256,192,179428,1,8,0:0:0:0:
256,192,179624,1,4,0:0:0:0:
