osu file format v14

[General]
AudioFilename: audio.ogg
AudioLeadIn: 0
PreviewTime: 12273
Countdown: 0
SampleSet: Normal
StackLeniency: 0.7
Mode: 1
LetterboxInBreaks: 0
WidescreenStoryboard: 1

[Editor]
Bookmarks: 11834,24990,37710,50773,63858,76739,89569,102709,115477,128320,141246,154151,166818
DistanceSpacing: 1
BeatDivisor: 4
GridSize: 16
TimelineZoom: 0.7267219

[Metadata]
Title:Feliz Navidad
TitleUnicode:Feliz Navidad
Artist:Jose Feliciano
ArtistUnicode:José Feliciano
Creator:Jonarwhal
Version:Facil
Source:
Tags:español espanol pop english spanish folk merry christmas holiday guitar
BeatmapID:4135026
BeatmapSetID:1990381

[Difficulty]
HPDrainRate:8
CircleSize:5
OverallDifficulty:3
ApproachRate:5
SliderMultiplier:1.4
SliderTickRate:1

[Events]
//Background and Video events
0,0,"pexels-su-la-pyae-18834444.jpg",0,0
//Break Periods
//Storyboard Layer 0 (Background)
//Storyboard Layer 1 (Fail)
//Storyboard Layer 2 (Pass)
//Storyboard Layer 3 (Foreground)
//Storyboard Layer 4 (Overlay)
//Storyboard Sound Samples

[TimingPoints]
440,413.793103448275,4,1,0,70,1,0
440,-100,4,1,0,70,0,0
2095,402.684563758389,4,1,0,70,1,0
2095,-102.75862030949,4,1,0,70,0,0
3705,405.405405405405,4,1,0,70,1,0
3705,-102.068967363355,4,1,0,70,0,0
8569,409.556313993174,4,1,0,70,1,0
8569,-101.034480515898,4,1,0,70,0,0
10207,406.779661016949,4,1,0,70,1,0
10207,-101.724140439958,4,1,0,70,0,0
11834,436.363636363637,4,1,0,70,1,0
11834,-94.8275908845502,4,1,0,70,0,0
11943,-94.4827556689487,4,1,0,30,0,0
12270,437.956204379562,4,1,0,30,1,8
12270,-94.4827556689487,4,1,0,30,0,8
13115,408.163265306122,4,1,0,30,1,8
13115,-101.379307636041,4,1,0,30,0,8
13472,-101.379307636041,4,1,0,70,0,8
13523,408.163265306122,4,1,0,70,1,0
13523,-101.379307636041,4,1,0,70,0,8
15155,405.405405405405,4,1,0,70,1,0
15155,-102.068967363355,4,1,0,70,0,8
18398,395.387149917627,4,1,0,70,1,0
18398,-104.655170736004,4,1,0,70,0,0
19979,402.684563758389,4,1,0,70,1,0
19979,-102.75862030949,4,1,0,70,0,0
23200,396.039603960396,4,1,0,70,1,0
23200,-104.482761562721,4,1,0,70,0,0
24784,413.507925568573,4,1,0,70,1,0
24784,-100.068968384351,4,1,0,70,0,0
24887,-100.068968384351,4,1,0,30,0,0
26024,397.350993377483,4,1,0,30,1,8
26024,-104.137928808487,4,1,0,30,0,8
26369,-100.689652523444,4,1,0,70,0,8
26421,410.958904109589,4,1,0,70,1,0
26421,-100.689652523444,4,1,0,70,0,0
28064,401.33779264214,4,1,0,70,1,0
28064,-103.103449462569,4,1,0,70,0,0
31274,398.671096345515,4,1,0,70,1,0
31274,-103.793104408258,4,1,0,70,0,0
32868,405.405405405405,4,1,0,70,1,0
32868,-102.068967363355,4,1,0,70,0,0
34489,400,4,1,0,70,1,0
34489,-103.448278838758,4,1,0,70,0,0
36089,405.405405405405,4,1,0,70,1,0
36089,-102.068967363355,4,1,0,70,0,0
37710,416.666666666666,4,1,0,70,1,0
37710,-99.3103474402683,4,1,0,70,0,0
37814,-99.3103474402683,4,1,0,60,0,0
38545,406.779661016949,4,1,0,60,1,8
38545,-101.724140439958,4,1,0,60,0,0
39304,-100.862068913691,4,1,0,80,0,8
39356,410.25641025641,4,1,0,80,1,1
39356,-100.862068913691,4,1,0,80,0,9
47561,408.163265306122,4,1,0,80,1,1
47561,-101.379307636041,4,1,0,80,0,9
50009,382.165605095541,4,1,0,80,1,9
50009,-108.275862202491,4,1,0,80,0,9
50773,408.163265306122,4,1,0,80,1,0
50773,-101.379307636041,4,1,0,80,0,8
50875,-101.379307636041,4,1,0,60,0,0
52353,-100.862068913691,4,1,0,80,0,0
52405,410.25641025641,4,1,0,80,1,1
52405,-100.862068913691,4,1,0,80,0,1
58969,407.470288624787,4,1,0,80,1,1
58969,-101.551723282168,4,1,0,80,0,1
63858,444.444444444444,4,1,0,70,1,0
63858,-93.1034521030332,4,1,0,70,0,0
63969,-103.793104408258,4,1,0,30,0,0
64302,398.671096345515,4,1,0,30,1,8
64302,-103.793104408258,4,1,0,30,0,8
65446,-101.034480515898,4,1,0,70,0,8
65498,409.556313993174,4,1,0,70,1,0
65498,-101.034480515898,4,1,0,70,0,8
67136,398.671096345515,4,1,0,70,1,0
67136,-103.793104408258,4,1,0,70,0,0
68730,402.684563758389,4,1,0,70,1,0
68730,-102.75862030949,4,1,0,70,0,0
70340,398.671096345515,4,1,0,70,1,0
70340,-103.793104408258,4,1,0,70,0,0
73529,401.33779264214,4,1,0,70,1,0
73529,-103.103449462569,4,1,0,70,0,0
76739,394.736842105263,4,1,0,70,1,0
76739,-104.827586551625,4,1,0,70,0,0
76837,-96.5517257254983,4,1,0,30,0,0
77133,428.571428571429,4,1,0,30,1,8
77133,-96.5517257254983,4,1,0,30,0,0
77981,397.350993377483,4,1,0,30,1,8
77981,-104.137928808487,4,1,0,30,0,8
78326,-101.379307636041,4,1,0,70,0,8
78378,408.163265306122,4,1,0,70,1,0
78378,-101.379307636041,4,1,0,70,0,8
80010,400,4,1,0,70,1,0
80010,-103.448278838758,4,1,0,70,0,8
81610,396.694214876033,4,1,0,70,1,0
81610,-104.310342308475,4,1,0,70,0,0
84783,400.667779632721,4,1,0,70,1,0
84783,-103.275859213985,4,1,0,70,0,0
86385,398.009950248756,4,1,0,70,1,0
86385,-103.965517380274,4,1,0,70,0,0
89569,416.666666666667,4,1,0,70,1,0
89569,-99.3103474402683,4,1,0,70,0,0
89673,-116.551722365242,4,1,0,60,0,0
90402,355.029585798817,4,1,0,60,1,8
90402,-116.551722365242,4,1,0,60,0,8
90579,395.387149917628,4,1,0,60,1,8
90579,-104.655170736004,4,1,0,60,0,8
91121,-102.241377345535,4,1,0,80,0,8
91172,404.721753794266,4,1,0,80,1,1
91172,-102.241377345535,4,1,0,80,0,9
102504,410.25641025641,4,1,0,80,1,0
102504,-100.862068913691,4,1,0,80,0,0
102606,-102.241377345535,4,1,0,60,0,0
104094,-102.241377345535,4,1,0,80,0,0
104145,404.721753794266,4,1,0,80,1,1
104145,-102.241377345535,4,1,0,80,0,1
115477,413.793103448275,4,1,0,80,1,0
115477,-100,4,1,0,80,0,0
115580,-101.379307636041,4,1,0,30,0,0
117080,-101.379307636041,4,1,0,70,0,0
117132,408.163265306122,4,1,0,70,1,0
117132,-101.379307636041,4,1,0,70,0,0
118764,404.721753794266,4,1,0,70,1,0
118764,-102.241377345535,4,1,0,70,0,0
120382,400,4,1,0,70,1,0
120382,-103.448278838758,4,1,0,70,0,0
121982,394.736842105263,4,1,0,70,1,0
121982,-104.827586551625,4,1,0,70,0,0
123560,396.694214876033,4,1,0,70,1,0
123560,-104.310342308475,4,1,0,70,0,0
128320,415.944540727903,4,1,0,70,1,0
128320,-99.4827579868322,4,1,0,70,0,0
128423,-104.827586551625,4,1,0,30,0,0
129567,394.736842105263,4,1,0,30,1,8
129567,-104.827586551625,4,1,0,30,0,8
129910,-102.068967363355,4,1,0,70,0,8
129961,405.405405405405,4,1,0,70,1,0
129961,-102.068967363355,4,1,0,70,0,8
131582,397.350993377483,4,1,0,70,1,0
131582,-104.137928808487,4,1,0,70,0,0
133171,392.798690671031,4,1,0,70,1,0
133171,-105.34482640618,4,1,0,70,0,0
137884,395.387149917627,4,1,0,70,1,0
137884,-104.655170736004,4,1,0,70,0,0
139465,394.736842105263,4,1,0,70,1,0
139465,-104.827586551625,4,1,0,70,0,0
141043,407.470288624788,4,1,0,70,1,0
141043,-101.551723282168,4,1,0,70,0,0
141144,-101.551723282168,4,1,0,60,0,0
142265,391.517128874388,4,1,0,60,1,8
142265,-105.689655020355,4,1,0,60,0,8
142607,-102.241377345535,4,1,0,80,0,8
142656,404.721753794266,4,1,0,80,1,1
142656,-102.241377345535,4,1,0,80,0,9
147512,402.684563758389,4,1,0,80,1,1
147512,-102.75862030949,4,1,0,80,0,9
153954,394.736842105263,4,1,0,80,1,0
153954,-104.827586551625,4,1,0,80,0,0
154052,-113.103449391695,4,1,0,60,0,0
154743,365.853658536585,4,1,0,60,1,8
154743,-113.103449391695,4,1,0,60,0,8
154925,387.096774193548,4,1,0,60,1,8
154925,-106.89655150443,4,1,0,60,0,8
155454,-102.413795608332,4,1,0,80,0,8
155505,404.040404040404,4,1,0,80,1,1
155505,-102.413795608332,4,1,0,80,0,9
166818,441.176470588235,4,1,0,80,1,0
166818,-93.7931083833423,4,1,0,80,0,0
166928,-100.344829607379,4,1,0,30,0,0
167259,412.371134020619,4,1,0,30,1,8
167259,-100.344829607379,4,1,0,30,0,8
168083,397.350993377483,4,1,0,30,1,8
168083,-104.137928808487,4,1,0,30,0,8
168429,-101.551723282168,4,1,0,70,0,8
168480,407.470288624788,4,1,0,70,1,0
168480,-101.551723282168,4,1,0,70,0,8
170109,397.350993377483,4,1,0,70,1,0
170109,-104.137928808487,4,1,0,70,0,0
178056,392.156862745098,4,1,0,70,1,0
178056,-105.517241032314,4,1,0,70,0,0
179624,400,4,1,0,70,1,0
179624,-103.448278838758,4,1,0,70,0,0

[HitObjects]
256,192,440,5,0,0:0:0:0:
256,192,1267,1,8,0:0:0:0:
256,192,1681,1,8,0:0:0:0:
256,192,2095,1,0,0:0:0:0:
256,192,3504,1,8,0:0:0:0:
256,192,4515,1,8,0:0:0:0:
256,192,4921,1,0,0:0:0:0:
256,192,5326,1,0,0:0:0:0:
256,192,6745,1,0,0:0:0:0:
256,192,7759,1,8,0:0:0:0:
256,192,8164,1,8,0:0:0:0:
256,192,8569,1,0,0:0:0:0:
256,192,9388,1,8,0:0:0:0:
256,192,10613,1,0,0:0:0:0:
256,192,11020,1,8,0:0:0:0:
256,192,11427,1,8,0:0:0:0:
256,192,11834,1,4,0:0:0:0:
256,192,13523,1,0,0:0:0:0:
256,192,14339,1,8,0:0:0:0:
256,192,14951,1,0,0:0:0:0:
256,192,15965,1,8,0:0:0:0:
256,192,16371,1,0,0:0:0:0:
256,192,16776,1,0,0:0:0:0:
256,192,17587,1,8,0:0:0:0:
256,192,18195,1,0,0:0:0:0:
256,192,19188,1,8,0:0:0:0:
256,192,19584,1,8,0:0:0:0:
256,192,19979,1,0,0:0:0:0:
256,192,20784,1,8,0:0:0:0:
256,192,21388,1,0,0:0:0:0:
256,192,21992,1,8,0:0:0:0:
256,192,22395,1,8,0:0:0:0:
256,192,22999,1,0,0:0:0:0:
256,192,24784,1,12,0:0:0:0:
256,192,26421,1,0,0:0:0:0:
256,192,27242,1,8,0:0:0:0:
256,192,27859,1,8,0:0:0:0:
256,192,28866,1,8,0:0:0:0:
256,192,29268,1,0,0:0:0:0:
256,192,29669,1,0,0:0:0:0:
256,192,30472,1,8,0:0:0:0:
256,192,31074,1,0,0:0:0:0:
256,192,32071,1,8,0:0:0:0:
256,192,32470,1,8,0:0:0:0:
256,192,32868,1,0,0:0:0:0:
256,192,33678,1,8,0:0:0:0:
256,192,34286,1,0,0:0:0:0:
256,192,34889,1,0,0:0:0:0:
256,192,35289,1,8,0:0:0:0:
256,192,35889,1,0,0:0:0:0:
256,192,36494,1,8,0:0:0:0:
256,192,37102,1,8,0:0:0:0:
256,192,37710,1,12,0:0:0:0:
256,192,39356,1,8,0:0:0:0:
256,192,39971,1,0,0:0:0:0:
256,192,40381,1,0,0:0:0:0:
256,192,41407,1,8,0:0:0:0:
256,192,41817,1,8,0:0:0:0:
256,192,42227,1,0,0:0:0:0:
256,192,42638,1,8,0:0:0:0:
256,192,43253,1,0,0:0:0:0:
256,192,43663,1,0,0:0:0:0:
256,192,44689,1,8,0:0:0:0:
256,192,45099,1,8,0:0:0:0:
256,192,45509,1,0,0:0:0:0:
256,192,45920,1,0,0:0:0:0:
256,192,46535,1,0,0:0:0:0:
256,192,47150,1,8,0:0:0:0:
256,192,47561,1,0,0:0:0:0:
256,192,48377,1,8,0:0:0:0:
256,192,48989,1,8,0:0:0:0:
256,192,49601,1,0,0:0:0:0:
256,192,50391,1,0,0:0:0:0:
256,192,50773,1,12,0:0:0:0:
256,192,52405,1,8,0:0:0:0:
256,192,53020,1,0,0:0:0:0:
256,192,53430,1,0,0:0:0:0:
256,192,54456,1,8,0:0:0:0:
256,192,54866,1,8,0:0:0:0:
256,192,55276,1,0,0:0:0:0:
256,192,55687,1,8,0:0:0:0:
256,192,56302,1,0,0:0:0:0:
256,192,56712,1,0,0:0:0:0:
256,192,57738,1,0,0:0:0:0:
256,192,58148,1,8,0:0:0:0:
256,192,58558,1,8,0:0:0:0:
256,192,58969,1,0,0:0:0:0:
256,192,59580,1,0,0:0:0:0:
256,192,60191,1,8,0:0:0:0:
256,192,60598,1,0,0:0:0:0:
256,192,61413,1,8,0:0:0:0:
256,192,62025,1,8,0:0:0:0:
256,192,62636,1,0,0:0:0:0:
256,192,63451,1,8,0:0:0:0:
256,192,63858,1,4,0:0:0:0:
256,192,65498,1,0,0:0:0:0:
256,192,66317,1,8,0:0:0:0:
256,192,66931,1,0,0:0:0:0:
256,192,67933,1,8,0:0:0:0:
256,192,68332,1,8,0:0:0:0:
256,192,68730,1,0,0:0:0:0:
256,192,69535,1,8,0:0:0:0:
256,192,70139,1,0,0:0:0:0:
256,192,71137,1,8,0:0:0:0:
256,192,71536,1,8,0:0:0:0:
256,192,71934,1,0,0:0:0:0:
256,192,72732,1,8,0:0:0:0:
256,192,73330,1,0,0:0:0:0:
256,192,73930,1,0,0:0:0:0:
256,192,74331,1,8,0:0:0:0:
256,192,74933,1,0,0:0:0:0:
256,192,76739,1,12,0:0:0:0:
256,192,78378,1,0,0:0:0:0:
256,192,79194,1,0,0:0:0:0:
256,192,79806,1,0,0:0:0:0:
256,192,80810,1,8,0:0:0:0:
256,192,81210,1,0,0:0:0:0:
256,192,81610,1,0,0:0:0:0:
256,192,82403,1,8,0:0:0:0:
256,192,82998,1,0,0:0:0:0:
256,192,83990,1,8,0:0:0:0:
256,192,84386,1,8,0:0:0:0:
256,192,84783,1,0,0:0:0:0:
256,192,85584,1,8,0:0:0:0:
256,192,86185,1,8,0:0:0:0:
256,192,86783,1,0,0:0:0:0:
256,192,87181,1,8,0:0:0:0:
256,192,87778,1,0,0:0:0:0:
256,192,89569,1,4,0:0:0:0:
256,192,91172,1,8,0:0:0:0:
256,192,91779,1,0,0:0:0:0:
256,192,92183,1,0,0:0:0:0:
256,192,93195,1,8,0:0:0:0:
256,192,93600,1,8,0:0:0:0:
256,192,94005,1,0,0:0:0:0:
256,192,94409,1,8,0:0:0:0:
256,192,95016,1,0,0:0:0:0:
256,192,95421,1,0,0:0:0:0:
256,192,96433,1,0,0:0:0:0:
256,192,96838,1,8,0:0:0:0:
256,192,97242,1,8,0:0:0:0:
256,192,97647,1,0,0:0:0:0:
256,192,98254,1,0,0:0:0:0:
256,192,98861,1,8,0:0:0:0:
256,192,99266,1,0,0:0:0:0:
256,192,100075,1,0,0:0:0:0:
256,192,100682,1,8,0:0:0:0:
256,192,101290,1,0,0:0:0:0:
256,192,102099,1,0,0:0:0:0:
256,192,102504,1,12,0:0:0:0:
256,192,104145,1,0,0:0:0:0:
256,192,104752,1,8,0:0:0:0:
256,192,105156,1,8,0:0:0:0:
256,192,106168,1,8,0:0:0:0:
256,192,106573,1,8,0:0:0:0:
256,192,106978,1,0,0:0:0:0:
256,192,107382,1,0,0:0:0:0:
256,192,107989,1,8,0:0:0:0:
256,192,108394,1,0,0:0:0:0:
256,192,109406,1,0,0:0:0:0:
256,192,109811,1,8,0:0:0:0:
256,192,110215,1,8,0:0:0:0:
256,192,110620,1,0,0:0:0:0:
256,192,111227,1,0,0:0:0:0:
256,192,111834,1,8,0:0:0:0:
256,192,112239,1,0,0:0:0:0:
256,192,113048,1,8,0:0:0:0:
256,192,113655,1,8,0:0:0:0:
256,192,114263,1,0,0:0:0:0:
256,192,115072,1,8,0:0:0:0:
256,192,115477,1,4,0:0:0:0:
256,192,117132,1,0,0:0:0:0:
256,192,117948,1,8,0:0:0:0:
256,192,118560,1,0,0:0:0:0:
256,192,119573,1,8,0:0:0:0:
256,192,119978,1,8,0:0:0:0:
256,192,120382,1,0,0:0:0:0:
256,192,121182,1,8,0:0:0:0:
256,192,121782,1,0,0:0:0:0:
256,192,122771,1,8,0:0:0:0:
256,192,123166,1,8,0:0:0:0:
256,192,123560,1,0,0:0:0:0:
256,192,124353,1,8,0:0:0:0:
256,192,124948,1,0,0:0:0:0:
256,192,125543,1,0,0:0:0:0:
256,192,125940,1,8,0:0:0:0:
256,192,126535,1,0,0:0:0:0:
256,192,128320,1,4,0:0:0:0:
256,192,129961,1,0,0:0:0:0:
256,192,130366,1,8,0:0:0:0:
256,192,130771,1,8,0:0:0:0:
256,192,131379,1,0,0:0:0:0:
256,192,132376,1,8,0:0:0:0:
256,192,132774,1,0,0:0:0:0:
256,192,133171,1,0,0:0:0:0:
256,192,133956,1,8,0:0:0:0:
256,192,134545,1,0,0:0:0:0:
256,192,135527,1,8,0:0:0:0:
256,192,135920,1,8,0:0:0:0:
256,192,136313,1,0,0:0:0:0:
256,192,137098,1,8,0:0:0:0:
256,192,137688,1,0,0:0:0:0:
256,192,138279,1,0,0:0:0:0:
256,192,138674,1,8,0:0:0:0:
256,192,139267,1,0,0:0:0:0:
256,192,141043,1,12,0:0:0:0:
256,192,142656,1,8,0:0:0:0:
256,192,143263,1,0,0:0:0:0:
256,192,143667,1,0,0:0:0:0:
256,192,144679,1,8,0:0:0:0:
256,192,145084,1,8,0:0:0:0:
256,192,145489,1,0,0:0:0:0:
256,192,145893,1,8,0:0:0:0:
256,192,146500,1,0,0:0:0:0:
256,192,146905,1,0,0:0:0:0:
256,192,147914,1,0,0:0:0:0:
256,192,148317,1,8,0:0:0:0:
256,192,148720,1,8,0:0:0:0:
256,192,149122,1,0,0:0:0:0:
256,192,149726,1,0,0:0:0:0:
256,192,150330,1,8,0:0:0:0:
256,192,150733,1,0,0:0:0:0:
256,192,151538,1,0,0:0:0:0:
256,192,152142,1,8,0:0:0:0:
256,192,152746,1,0,0:0:0:0:
256,192,153149,1,8,0:0:0:0:
256,192,153552,1,8,0:0:0:0:
256,192,153954,1,4,0:0:0:0:
256,192,155505,1,8,0:0:0:0:
256,192,156111,1,0,0:0:0:0:
256,192,156515,1,0,0:0:0:0:
256,192,157525,1,8,0:0:0:0:
256,192,157929,1,8,0:0:0:0:
256,192,158333,1,0,0:0:0:0:
256,192,158737,1,8,0:0:0:0:
256,192,159343,1,0,0:0:0:0:
256,192,159747,1,0,0:0:0:0:
256,192,160757,1,8,0:0:0:0:
256,192,161161,1,8,0:0:0:0:
256,192,161565,1,0,0:0:0:0:
256,192,161969,1,8,0:0:0:0:
256,192,162575,1,0,0:0:0:0:
256,192,163181,1,8,0:0:0:0:
256,192,163585,1,0,0:0:0:0:
256,192,164393,1,8,0:0:0:0:
256,192,164999,1,8,0:0:0:0:
256,192,165606,1,0,0:0:0:0:
256,192,166414,1,8,0:0:0:0:
256,192,166818,1,4,0:0:0:0:
256,192,168480,1,0,0:0:0:0:
256,192,169294,1,8,0:0:0:0:
256,192,169906,1,0,0:0:0:0:
256,192,170903,1,8,0:0:0:0:
256,192,171301,1,0,0:0:0:0:
256,192,171698,1,0,0:0:0:0:
256,192,172493,1,8,0:0:0:0:
256,192,173089,1,0,0:0:0:0:
256,192,174082,1,8,0:0:0:0:
256,192,174479,1,8,0:0:0:0:
256,192,174877,1,0,0:0:0:0:
256,192,175671,1,8,0:0:0:0:
256,192,176267,1,0,0:0:0:0:
256,192,176863,1,0,0:0:0:0:
256,192,177261,1,8,0:0:0:0:
256,192,177857,1,0,0:0:0:0:
256,192,179624,1,12,0:0:0:0:
