osu file format v14

[General]
AudioFilename: musica.mp3
AudioLeadIn: 0
PreviewTime:45472
Countdown: 0
SampleSet: Soft
StackLeniency: 0.5
Mode: 0
LetterboxInBreaks: 0
WidescreenStoryboard: 1

[Editor]
Bookmarks:12695,23858,46184,68509,90835,113160
DistanceSpacing: 0.9
BeatDivisor: 4
GridSize: 32
TimelineZoom: 1.7

[Metadata]
Title:Arco Iris
TitleUnicode:Arco Íris
Artist:Jorge Vercillo
ArtistUnicode:Jorge Vercillo
Creator:Net0
Version:Normal
Source:
Tags:Enerugi K4L1 mpb bossa nova pop lounge soft rock jazz fusion DNA Sony Music Paulo Calasans portuguese português música popular brasileira
BeatmapID:2153941
BeatmapSetID:844390

[Difficulty]
HPDrainRate:4
CircleSize:3
OverallDifficulty:5
ApproachRate:5
SliderMultiplier:1.92
SliderTickRate:1

[Events]
//Background and Video events
0,0,"coelho.jpg"
//Break Periods
//Storyboard Layer 0 (Background)
//Storyboard Layer 1 (Fail)
//Storyboard Layer 2 (Pass)
//Storyboard Layer 3 (Foreground)
//Storyboard Layer 4 (Overlay)
//Storyboard Sound Samples

[TimingPoints]
1578,697.674418604651,4,2,1,50,1,0
12740,-100,4,2,1,50,0,0
23903,-100,4,2,1,50,0,0
37159,-100,4,2,1,50,0,0
37857,-100,4,2,1,50,0,0
46229,-100,4,2,1,50,0,0
51461,-100,4,2,1,50,0,0
51810,-100,4,2,1,50,0,0
68554,-100,4,2,1,50,0,0
90531,-100,4,2,1,50,0,0
90793,-100,4,2,1,5,0,0
90880,-100,4,2,1,50,0,0
91316,-100,4,2,1,5,0,0
91403,-100,4,2,1,50,0,0
92101,-100,4,2,2,50,0,0
92275,-100,4,2,1,50,0,0
94891,-100,4,2,2,50,0,0
95065,-100,4,2,1,50,0,0
97682,-100,4,2,2,50,0,0
97856,-100,4,2,1,50,0,0
100473,-100,4,2,2,50,0,0
100647,-100,4,2,1,50,0,0
102479,-100,4,2,1,5,0,0
102566,-100,4,2,1,50,0,0
103264,-100,4,2,2,50,0,0
103438,-100,4,2,1,50,0,0
105269,-100,4,2,1,5,0,0
105357,-100,4,2,1,50,0,0
106054,-100,4,2,2,50,0,0
106228,-100,4,2,1,50,0,0
108845,-100,4,2,2,50,0,0
109019,-100,4,2,1,50,0,0
111636,-100,4,2,2,50,0,0
111810,-100,4,2,1,50,0,0
113205,-100,4,2,1,50,0,0

[Colours]
Combo1 : 255,43,19
Combo2 : 143,46,209
Combo3 : 97,81,238
Combo4 : 99,171,219
Combo5 : 63,191,169
Combo6 : 97,191,108
Combo7 : 255,210,62
Combo8 : 249,163,63

[HitObjects]
16,44,1578,6,0,P|64:39|112:44,1,96,6|0,0:0|3:0,0:0:0:0:
163,113,2275,2,0,B|148:208|148:208|156:255,2,144,10|2|0,0:0|3:2|3:0,0:0:0:0:
216,45,3671,1,10,0:0:0:0:
269,113,4019,1,2,0:3:0:0:
324,179,4368,6,0,P|372:184|420:179,1,96,0|2,3:0|0:0,0:0:0:0:
497,142,5066,2,0,B|505:95|505:95|490:0,2,144,10|2|2,0:0|3:2|3:0,0:0:0:0:
419,179,6461,1,10,0:0:0:0:
464,252,6810,1,2,0:3:0:0:
387,291,7159,6,0,P|358:330|339:374,1,96,0|2,3:0|0:0,0:0:0:0:
253,357,7857,2,0,L|101:368,1,144,10|2,0:0|3:2,0:0:0:0:
127,284,8729,2,0,L|270:273,1,144,0|10,0:0|0:0,0:0:0:0:
328,209,9601,1,2,0:3:0:0:
413,223,9950,6,0,P|457:203|496:175,1,96,0|2,3:0|0:0,0:0:0:0:
483,89,10647,2,0,L|476:14,1,48,10|0,0:0|0:0,0:0:0:0:
392,32,11171,2,0,L|387:79,1,48,2|0,3:2|0:0,0:0:0:0:
322,136,11694,1,0,3:0:0:0:
264,71,12043,1,10,0:0:0:0:
181,96,12391,2,0,L|134:91,1,48,2|2,0:3|0:0,0:0:0:0:
90,87,12740,6,0,P|85:135|90:182,1,96,6|2,0:0|0:0,0:0:0:0:
143,250,13438,2,0,B|48:235|48:235|1:243,2,144,10|2|2,0:0|3:2|3:0,0:0:0:0:
216,294,14833,1,10,0:0:0:0:
154,354,15182,1,2,0:3:0:0:
72,384,15531,6,0,P|67:336|72:288,1,96,0|2,3:0|0:0,0:0:0:0:
76,202,16229,2,0,B|84:155|84:155|69:60,2,144,10|2|2,0:0|3:2|3:0,0:0:0:0:
0,244,17624,1,10,0:0:0:0:
72,288,17973,1,2,0:3:0:0:
143,336,18322,6,0,P|172:297|191:253,1,96,0|0,3:0|0:0,0:0:0:0:
218,171,19019,2,0,L|361:160,2,144,10|2|0,0:0|3:2|3:0,0:0:0:0:
132,184,20415,2,0,P|103:145|84:101,1,96,10|2,0:0|0:3,0:0:0:0:
80,15,21112,6,0,P|127:9|175:14,1,96,6|0,0:0|0:0,0:0:0:0:
256,45,21810,2,0,L|303:47,1,48,10|0,0:0|0:0,0:0:0:0:
351,119,22333,2,0,L|399:117,1,48,2|0,3:2|0:0,0:0:0:0:
461,177,22857,2,0,L|461:228,1,48,0|0,3:0|0:0,0:0:0:0:
462,268,23205,1,10,0:0:0:0:
324,372,23903,5,0,3:0:0:0:
272,206,24601,2,0,L|269:130,1,48,8|0,0:1|0:0,0:0:0:0:
188,128,25124,2,0,L|180:307,1,144,2|0,0:0|3:0,0:0:0:0:
140,347,25996,1,8,0:1:0:0:
28,214,26694,5,0,3:0:0:0:
140,83,27391,2,0,L|216:80,1,48,8|0,0:1|0:0,0:0:0:0:
274,75,27915,2,0,L|268:218,1,144,2|0,0:0|3:0,0:0:0:0:
268,305,28787,1,8,0:1:0:0:
342,260,29136,2,0,L|385:234,1,48,2|0,0:3|0:0,0:0:0:0:
422,217,29484,6,0,P|463:131|445:39,1,192,0|8,3:0|0:1,0:0:0:0:
358,33,30531,1,0,0:0:0:0:
358,33,30705,2,0,B|268:51|268:51|216:40,1,144,2|0,0:0|3:0,0:0:0:0:
133,18,31577,1,8,0:1:0:0:
208,173,32275,6,0,P|225:265|184:350,1,192,0|8,3:0|0:1,0:0:0:0:
28,272,33671,2,0,L|15:155,1,96,0|0,0:0|3:0,0:0:0:0:
4,91,34368,2,0,L|99:101,1,96,8|2,0:1|0:3,0:0:0:0:
184,116,35066,5,0,3:0:0:0:
353,151,35764,2,0,L|429:148,1,48,8|0,0:1|0:0,0:0:0:0:
431,67,36287,2,0,L|252:59,1,144,2|0,0:0|3:0,0:0:0:0:
266,144,37159,1,8,0:1:0:0:
296,314,37857,5,0,3:0:0:0:
464,352,38554,2,0,L|467:276,1,48,8|0,0:1|0:0,0:0:0:0:
472,218,39078,2,0,L|329:224,1,144,2|0,0:0|3:0,0:0:0:0:
242,238,39950,1,8,0:1:0:0:
185,303,40298,2,0,L|183:350,1,48,2|0,0:3|0:0,0:0:0:0:
144,370,40647,6,0,L|27:357,1,96,0|0,3:0|0:0,0:0:0:0:
37,273,41345,2,0,L|24:156,1,96,8|0,0:1|0:0,0:0:0:0:
14,91,42043,1,0,0:0:0:0:
94,122,42391,1,0,3:0:0:0:
174,91,42740,2,0,L|179:43,2,48,8|0|2,0:1|0:0|0:3,0:0:0:0:
165,177,43438,6,0,P|257:194|342:153,1,192,0|8,3:0|0:1,0:0:0:0:
484,53,44833,2,0,L|494:173,1,96,0|0,0:0|3:0,0:0:0:0:
419,197,45531,2,0,L|409:317,1,96,10|2,0:0|0:3,0:0:0:0:
330,323,46229,6,0,P|288:300|240:299,1,96,6|0,0:0|0:0,0:0:0:0:
168,346,46926,2,0,P|126:368|78:369,1,96,10|0,0:0|1:1,0:0:0:0:
34,364,47450,2,0,L|37:197,1,144,0|8,1:0|0:1,0:0:0:0:
40,133,48322,1,10,0:0:0:0:
115,91,48671,1,0,1:0:0:0:
114,176,49019,6,0,P|161:174|203:152,1,96,8|8,0:1|0:1,0:0:0:0:
140,91,49717,2,0,P|117:48|115:1,1,96,10|0,0:0|1:1,0:0:0:0:
198,27,50415,1,8,0:1:0:0:
232,106,50764,1,0,3:1:0:0:
283,38,51112,2,0,L|392:31,1,96,10|0,0:0|1:1,0:0:0:0:
436,96,51810,6,0,P|461:53|461:6,2,96,6|0|10,0:0|0:0|0:0,0:0:0:0:
352,118,52857,1,0,1:1:0:0:
414,180,53205,2,0,P|414:229|390:270,1,96,8|8,0:1|0:1,0:0:0:0:
306,281,53903,2,0,P|305:330|329:371,1,96,10|0,0:0|1:1,0:0:0:0:
412,349,54601,5,8,0:1:0:0:
495,371,54950,1,8,0:1:0:0:
472,287,55298,2,0,L|465:178,1,96,10|0,0:0|1:1,0:0:0:0:
499,111,55996,2,0,P|407:128|322:87,1,192,8|10,0:1|0:0,0:0:0:0:
243,48,57043,1,0,1:1:0:0:
170,2,57391,6,0,P|147:44|146:92,1,96,6|8,0:0|0:1,0:0:0:0:
222,131,58089,2,0,P|244:173|244:224,1,96,10|0,0:0|1:1,0:0:0:0:
201,222,58612,2,0,L|77:147,1,144,0|8,0:0|0:1,0:0:0:0:
12,204,59484,1,10,0:0:0:0:
35,287,59833,1,0,1:1:0:0:
27,372,60182,6,0,P|68:349|115:346,1,96,8|8,0:1|0:1,0:0:0:0:
188,298,60880,2,0,P|221:333|235:378,1,96,10|0,0:0|1:1,0:0:0:0:
321,368,61577,2,0,L|523:356,1,192,0|10,0:0|0:0,0:0:0:0:
504,270,62624,1,0,1:1:0:0:
459,195,62973,6,0,P|426:233|418:279,2,96,6|8|10,0:0|0:1|0:0,0:0:0:0:
510,125,64019,1,0,1:1:0:0:
459,54,64368,2,0,P|410:53|369:77,1,96,0|8,0:0|0:1,0:0:0:0:
369,162,65066,2,0,P|320:162|279:138,1,96,10|0,0:0|1:1,0:0:0:0:
217,79,65764,5,8,0:1:0:0:
198,163,66112,1,0,0:0:0:0:
223,245,66461,2,0,L|230:357,1,96,10|0,0:0|1:1,0:0:0:0:
153,382,67159,1,0,0:0:0:0:
0,301,67857,1,10,0:0:0:0:
79,267,68205,1,0,1:1:0:0:
32,193,68554,6,0,P|-9:108|7:15,1,192,6|10,0:0|0:0,0:0:0:0:
91,40,69601,1,2,0:3:0:0:
91,40,69775,2,0,B|143:51|143:51|233:33,1,144,0|0,1:1|3:0,0:0:0:0:
314,5,70647,1,10,0:0:0:0:
303,90,70996,1,8,0:1:0:0:
292,175,71345,6,0,P|363:236|457:245,1,192,0|10,3:0|0:0,0:0:0:0:
504,173,72391,1,0,0:0:0:0:
504,173,72566,2,0,B|522:83|522:83|511:31,1,144,0|0,1:1|3:0,0:0:0:0:
428,6,73438,1,10,0:0:0:0:
370,70,73787,1,8,0:1:0:0:
398,152,74136,5,0,3:0:0:0:
227,126,74833,2,0,B|216:178|216:178|234:268,2,144,10|0|0,0:0|1:1|3:0,0:0:0:0:
250,42,76229,2,0,L|137:21,1,96,10|8,0:0|0:1,0:0:0:0:
127,106,76926,6,0,L|14:127,1,96,0|0,3:0|0:0,0:0:0:0:
45,209,77624,2,0,P|23:272|15:359,1,144,10|0,0:0|1:1,0:0:0:0:
100,353,78496,2,0,L|158:360,1,48,0|0,1:1|3:0,0:0:0:0:
197,288,79019,1,10,0:0:0:0:
238,365,79368,1,8,0:1:0:0:
324,372,79717,6,0,P|365:287|349:194,1,192,6|10,0:0|0:0,0:0:0:0:
272,233,80764,1,2,0:3:0:0:
272,233,80938,2,0,B|182:251|182:251|130:240,1,144,0|0,1:1|3:0,0:0:0:0:
45,226,81810,1,10,0:0:0:0:
57,141,82159,1,8,0:1:0:0:
68,56,82508,6,0,P|152:15|245:31,1,192,0|10,3:0|0:0,0:0:0:0:
222,116,83554,1,2,0:3:0:0:
222,116,83729,2,0,B|205:166|205:166|214:257,1,144,0|0,1:1|3:0,0:0:0:0:
249,335,84601,1,10,0:0:0:0:
300,264,84950,1,8,0:1:0:0:
337,186,85299,5,0,3:0:0:0:
243,40,85996,2,0,B|191:29|191:29|101:47,2,144,10|0|0,0:0|1:1|3:0,0:0:0:0:
224,124,87392,2,0,L|203:237,1,96,10|8,0:0|0:1,0:0:0:0:
121,232,88089,6,0,L|142:345,1,96,0|0,3:0|0:0,0:0:0:0:
206,380,88787,2,0,P|269:358|356:350,1,144,10|0,0:0|1:1,0:0:0:0:
431,358,89659,2,0,L|424:300,1,48,0|0,1:1|3:0,0:0:0:0:
416,224,90182,1,10,0:0:0:0:
330,237,90531,1,8,0:1:0:0:
270,299,90880,6,0,P|246:257|248:210,1,96,6|0,0:0|0:0,0:0:0:0:
310,151,91577,2,0,L|315:103,1,48,10|0,0:0|0:0,0:0:0:0:
329,17,92101,2,0,B|277:6|277:6|188:26,1,144,8|0,3:0|3:1,0:0:0:0:
105,51,92973,2,0,P|81:92|82:139,1,96,10|0,0:0|1:3,0:0:0:0:
127,213,93671,5,0,3:0:0:0:
68,275,94019,1,0,1:1:0:0:
103,353,94368,2,0,L|151:358,1,48,10|0,0:0|0:0,0:0:0:0:
236,370,94891,2,0,B|253:319|253:319|244:228,1,144,8|0,3:0|3:1,0:0:0:0:
209,149,95764,1,10,0:0:0:0:
244,70,96112,1,0,1:3:0:0:
301,5,96461,6,0,P|325:45|325:92,1,96,0|0,3:0|0:0,0:0:0:0:
316,179,97159,2,0,L|334:232,1,48,10|0,0:0|0:0,0:0:0:0:
333,310,97682,2,0,L|387:320,1,48,8|2,3:0|0:3,0:0:0:0:
464,336,98205,2,0,P|505:251|489:158,1,192,0|0,3:1|1:3,0:0:0:0:
455,77,99252,5,0,3:0:0:0:
455,77,99427,2,0,B|384:69|384:69|314:85,1,144,0|10,0:0|0:0,0:0:0:0:
266,157,100298,1,2,0:3:0:0:
266,157,100473,2,0,B|282:227|282:227|274:298,1,144,8|0,3:0|0:0,0:0:0:0:
221,367,101345,1,10,0:0:0:0:
149,317,101694,1,0,1:3:0:0:
89,380,102043,6,0,P|65:338|67:291,1,96,6|0,0:0|0:0,0:0:0:0:
131,234,102740,2,0,L|136:186,1,48,10|0,0:0|0:0,0:0:0:0:
216,154,103264,2,0,B|227:102|227:102|207:13,1,144,8|0,3:0|3:1,0:0:0:0:
120,18,104136,2,0,P|72:16|31:40,1,96,10|0,0:0|1:3,0:0:0:0:
5,123,104834,5,0,3:0:0:0:
47,197,105182,1,0,0:0:0:0:
135,186,105531,2,0,L|202:180,1,48,10|0,0:0|0:0,0:0:0:0:
243,243,106054,2,0,B|223:331|223:331|234:384,1,144,8|0,3:0|3:1,0:0:0:0:
320,378,106926,1,10,0:0:0:0:
393,332,107275,1,4,0:3:0:0:
475,359,107624,6,0,P|477:311|453:270,1,96,0|0,3:0|0:0,0:0:0:0:
370,244,108322,2,0,L|385:198,1,48,10|0,0:0|0:0,0:0:0:0:
453,144,108845,2,0,L|437:98,1,48,8|2,3:0|0:3,0:0:0:0:
412,15,109368,2,0,P|318:-1|233:39,1,192,0|0,3:1|1:3,0:0:0:0:
292,102,110415,5,0,3:0:0:0:
292,102,110590,2,0,B|300:173|300:173|284:243,1,144,0|10,0:0|0:0,0:0:0:0:
272,329,111461,1,2,0:3:0:0:
272,329,111636,2,0,B|201:321|201:321|131:337,1,144,8|0,3:0|3:1,0:0:0:0:
45,352,112508,2,0,L|55:256,1,96,10|0,0:0|0:0,0:0:0:0:
69,171,113205,1,0,3:0:0:0:
