osu file format v14

[General]
AudioFilename: audio.mp3
AudioLeadIn: 0
PreviewTime: -1
Countdown: 1
SampleSet: Soft
StackLeniency: 0.7
Mode: 0
LetterboxInBreaks: 0
WidescreenStoryboard: 0

[Editor]
Bookmarks: 65288
DistanceSpacing: 1.1
BeatDivisor: 4
GridSize: 8
TimelineZoom: 1.8

[Metadata]
Title:Caramelldansen (Speedcake Remix) 190BPM
TitleUnicode:Caramelldansen (Speedcake Remix) 190BPM
Artist:Jorge Vasconcelo & Juha Myllyia
ArtistUnicode:Jorge Vasconcelo & Juha Myllyia
Creator:Sandwich
Version:Caramel Is Not Healthy For Your Teeth
Source:
Tags:
BeatmapID:1547696
BeatmapSetID:733324

[Difficulty]
HPDrainRate:6
CircleSize:4.1
OverallDifficulty:8.6
ApproachRate:9.3
SliderMultiplier:1.8
SliderTickRate:1

[Events]
//Background and Video events
0,0,"caramell.jpg",0,0
//Break Periods
//Storyboard Layer 0 (Background)
//Storyboard Layer 1 (Fail)
//Storyboard Layer 2 (Pass)
//Storyboard Layer 3 (Foreground)
//Storyboard Sound Samples

[TimingPoints]
1578,315.789473684211,4,3,0,74,1,0
5358,-125,4,2,0,74,0,0
14200,-100,4,1,0,74,0,0
24314,-111.111111111111,4,3,0,74,0,0
44516,-90.9090909090909,4,1,0,74,0,1
54630,-100,4,3,0,74,0,1
64735,-100,4,3,0,74,0,0

[HitObjects]
256,192,1578,12,0,5051,0:0:0:0:
103,69,5367,5,0,0:0:0:0:
110,76,5446,1,0,0:0:0:0:
117,84,5525,1,0,0:0:0:0:
124,91,5604,1,0,0:0:0:0:
132,99,5683,1,0,0:0:0:0:
139,106,5762,1,0,0:0:0:0:
146,114,5841,1,0,0:0:0:0:
154,121,5920,1,0,0:0:0:0:
161,129,5999,1,0,0:0:0:0:
192,113,6078,1,0,0:0:0:0:
226,107,6156,1,0,0:0:0:0:
261,111,6235,1,0,0:0:0:0:
293,124,6314,2,0,L|341:166,1,36
512,249,6472,2,0,L|478:219,1,36
387,34,6630,5,0,0:0:0:0:
373,33,6709,1,4,0:0:0:0:
360,33,6788,1,0,0:0:0:0:
346,33,6867,1,0,0:0:0:0:
333,33,6946,1,0,0:0:0:0:
319,33,7025,1,0,0:0:0:0:
306,33,7104,1,0,0:0:0:0:
292,33,7183,1,0,0:0:0:0:
279,33,7262,1,0,0:0:0:0:
265,33,7341,1,0,0:0:0:0:
252,33,7420,1,0,0:0:0:0:
238,33,7499,1,0,0:0:0:0:
225,33,7578,1,0,0:0:0:0:
211,33,7656,1,0,0:0:0:0:
198,33,7735,1,0,0:0:0:0:
184,33,7814,1,0,0:0:0:0:
171,33,7893,5,4,0:0:0:0:
157,33,7972,1,0,0:0:0:0:
144,33,8051,1,0,0:0:0:0:
130,33,8130,1,0,0:0:0:0:
117,33,8209,1,0,0:0:0:0:
103,33,8288,1,0,0:0:0:0:
90,33,8367,1,0,0:0:0:0:
76,33,8446,1,0,0:0:0:0:
63,33,8525,2,0,L|52:79,1,36
124,133,8683,2,0,L|136:186,1,36
25,185,8841,2,0,L|12:238,1,36
87,286,8999,2,0,L|99:339,1,36
200,248,9156,5,4,0:0:0:0:
214,244,9235,1,0,0:0:0:0:
228,241,9314,1,0,0:0:0:0:
242,237,9393,1,0,0:0:0:0:
256,234,9472,1,0,0:0:0:0:
270,231,9551,1,0,0:0:0:0:
284,227,9630,1,0,0:0:0:0:
298,224,9709,1,0,0:0:0:0:
312,221,9788,1,0,0:0:0:0:
326,217,9867,1,0,0:0:0:0:
340,214,9946,1,0,0:0:0:0:
354,211,10025,1,0,0:0:0:0:
368,207,10104,1,0,0:0:0:0:
382,204,10183,1,0,0:0:0:0:
396,201,10262,1,0,0:0:0:0:
410,197,10341,1,0,0:0:0:0:
424,193,10420,5,4,0:0:0:0:
410,188,10499,1,0,0:0:0:0:
396,183,10578,1,0,0:0:0:0:
383,178,10656,1,0,0:0:0:0:
369,173,10735,1,0,0:0:0:0:
356,168,10814,1,0,0:0:0:0:
342,164,10893,1,0,0:0:0:0:
328,159,10972,1,0,0:0:0:0:
315,154,11051,1,0,0:0:0:0:
301,149,11130,1,0,0:0:0:0:
288,144,11209,1,0,0:0:0:0:
274,140,11288,1,0,0:0:0:0:
261,135,11367,2,0,L|205:117,1,36
114,92,11525,1,0,0:0:0:0:
211,281,11683,5,4,0:0:0:0:
256,192,11762,12,0,13264,0:0:0:0:
127,248,13499,6,0,L|127:307,2,36
177,356,13735,1,0,0:0:0:0:
75,138,13893,1,0,0:0:0:0:
419,330,14209,5,8,0:0:0:0:
422,285,14288,1,0,0:0:0:0:
414,240,14367,1,0,0:0:0:0:
397,199,14446,1,0,0:0:0:0:
369,164,14525,1,8,0:0:0:0:
334,135,14604,1,0,0:0:0:0:
294,116,14683,1,0,0:0:0:0:
250,108,14762,1,0,0:0:0:0:
205,110,14841,1,8,0:0:0:0:
207,155,14920,1,0,0:0:0:0:
220,198,14999,1,0,0:0:0:0:
244,236,15078,1,0,0:0:0:0:
277,266,15156,1,8,0:0:0:0:
317,287,15235,1,0,0:0:0:0:
360,297,15314,2,0,L|430:286,1,45
425,89,15472,5,12,0:0:0:0:
396,67,15551,1,0,0:0:0:0:
365,48,15630,1,0,0:0:0:0:
332,33,15709,1,0,0:0:0:0:
298,23,15788,1,8,0:0:0:0:
263,16,15867,1,0,0:0:0:0:
227,13,15946,1,0,0:0:0:0:
191,15,16025,1,0,0:0:0:0:
155,21,16104,2,0,L|143:88,1,45,8|0,0:0|0:0,0:0:0:0:
54,146,16262,2,0,L|41:212,1,45
225,106,16420,2,0,L|212:172,1,45
123,230,16578,2,0,L|110:296,1,45
208,320,16735,5,12,0:0:0:0:
229,281,16814,1,0,0:0:0:0:
260,246,16893,1,0,0:0:0:0:
294,219,16972,1,0,0:0:0:0:
334,199,17051,1,8,0:0:0:0:
378,187,17130,1,0,0:0:0:0:
423,184,17209,1,0,0:0:0:0:
468,190,17288,1,0,0:0:0:0:
510,204,17367,1,8,0:0:0:0:
482,168,17446,1,0,0:0:0:0:
449,137,17525,1,0,0:0:0:0:
412,112,17604,1,0,0:0:0:0:
371,93,17683,1,8,0:0:0:0:
328,80,17762,1,0,0:0:0:0:
284,74,17841,2,0,L|211:75,1,45
397,334,17999,5,12,0:0:0:0:
408,299,18078,1,0,0:0:0:0:
413,264,18156,1,0,0:0:0:0:
413,227,18235,1,0,0:0:0:0:
405,192,18314,1,8,0:0:0:0:
393,159,18393,1,0,0:0:0:0:
375,128,18472,1,0,0:0:0:0:
351,101,18551,1,0,0:0:0:0:
323,78,18630,2,0,L|276:43,1,45,8|0,0:0|0:0,0:0:0:0:
270,174,18788,2,0,L|307:201,1,45
466,131,18946,2,0,L|419:96,1,45,8|0,0:0|0:0,0:0:0:0:
413,227,19104,2,0,L|449:253,1,45
443,0,19262,5,12,0:0:0:0:
398,6,19341,1,0,0:0:0:0:
356,22,19420,1,0,0:0:0:0:
319,48,19499,1,0,0:0:0:0:
288,80,19578,1,8,0:0:0:0:
265,119,19656,1,0,0:0:0:0:
252,162,19735,1,0,0:0:0:0:
247,206,19814,1,0,0:0:0:0:
253,251,19893,1,8,0:0:0:0:
217,223,19972,1,0,0:0:0:0:
188,189,20051,1,0,0:0:0:0:
167,149,20130,1,0,0:0:0:0:
153,106,20209,1,8,0:0:0:0:
149,61,20288,1,0,0:0:0:0:
154,17,20367,2,0,L|167:-31,1,45
360,69,20525,5,12,0:0:0:0:
377,100,20604,1,0,0:0:0:0:
389,134,20683,1,0,0:0:0:0:
395,169,20762,1,0,0:0:0:0:
396,205,20841,1,8,0:0:0:0:
390,241,20920,1,0,0:0:0:0:
380,275,20999,1,0,0:0:0:0:
363,307,21078,1,0,0:0:0:0:
342,336,21156,2,0,L|278:348,1,45,8|0,0:0|0:0,0:0:0:0:
148,286,21314,2,0,L|192:278,1,45
396,205,21472,2,0,L|331:216,1,45,8|0,0:0|0:0,0:0:0:0:
201,154,21630,2,0,L|245:146,1,45
426,56,21788,5,12,0:0:0:0:
383,41,21867,1,0,0:0:0:0:
339,32,21946,1,0,0:0:0:0:
294,28,22025,1,0,0:0:0:0:
249,30,22104,1,8,0:0:0:0:
205,37,22183,1,0,0:0:0:0:
162,50,22262,1,0,0:0:0:0:
120,68,22341,1,0,0:0:0:0:
82,91,22420,1,8,0:0:0:0:
90,111,22499,1,0,0:0:0:0:
97,133,22578,1,0,0:0:0:0:
100,155,22656,1,0,0:0:0:0:
102,177,22735,1,8,0:0:0:0:
100,200,22814,1,0,0:0:0:0:
96,222,22893,1,0,0:0:0:0:
90,244,22972,1,0,0:0:0:0:
81,264,23051,5,12,0:0:0:0:
118,225,23130,1,0,0:0:0:0:
162,195,23209,1,0,0:0:0:0:
212,174,23288,1,0,0:0:0:0:
265,163,23367,1,8,0:0:0:0:
319,164,23446,1,0,0:0:0:0:
371,176,23525,1,0,0:0:0:0:
420,198,23604,1,0,0:0:0:0:
464,229,23683,1,8,0:0:0:0:
487,262,23762,1,0,0:0:0:0:
496,302,23841,2,0,L|481:355,1,45
263,281,23999,1,8,0:0:0:0:
384,30,24314,5,12,0:0:0:0:
403,65,24393,1,0,0:0:0:0:
413,104,24472,1,0,0:0:0:0:
415,144,24551,1,0,0:0:0:0:
407,184,24630,1,8,0:0:0:0:
399,224,24709,1,0,0:0:0:0:
401,264,24788,1,0,0:0:0:0:
411,303,24867,1,0,0:0:0:0:
431,339,24946,1,8,0:0:0:0:
426,298,25025,1,0,0:0:0:0:
413,260,25104,1,0,0:0:0:0:
391,226,25183,1,0,0:0:0:0:
362,198,25262,1,8,0:0:0:0:
327,177,25341,1,0,0:0:0:0:
289,165,25420,1,0,0:0:0:0:
248,162,25499,1,0,0:0:0:0:
208,169,25578,6,0,L|156:191,1,40.4999987640381,12|0,0:0|0:0,0:0:0:0:
125,337,25735,2,0,L|162:321,1,40.4999987640381
367,247,25893,2,0,L|314:268,1,40.4999987640381,8|0,0:0|0:0,0:0:0:0:
193,131,26051,5,0,0:0:0:0:
193,131,26130,1,0,0:0:0:0:
193,131,26209,2,0,L|208:168,1,40.4999987640381,8|0,0:0|0:0,0:0:0:0:
319,131,26367,2,0,L|303:168,1,40.4999987640381
104,28,26525,2,0,L|119:65,1,40.4999987640381,8|0,0:0|0:0,0:0:0:0:
408,28,26683,2,0,L|392:65,1,40.4999987640381
256,50,26841,5,12,0:0:0:0:
232,55,26920,1,0,0:0:0:0:
208,58,26999,1,0,0:0:0:0:
184,58,27078,1,0,0:0:0:0:
159,56,27156,1,8,0:0:0:0:
136,51,27235,1,0,0:0:0:0:
112,41,27314,2,0,L|68:7,1,40.4999987640381
35,179,27472,1,8,0:0:0:0:
47,221,27551,1,0,0:0:0:0:
71,259,27630,1,0,0:0:0:0:
104,288,27709,1,0,0:0:0:0:
145,306,27788,2,0,L|201:321,1,40.4999987640381,8|0,0:0|0:0,0:0:0:0:
296,210,27946,2,0,L|240:224,1,40.4999987640381
373,311,28104,5,12,0:0:0:0:
402,283,28183,1,0,0:0:0:0:
424,249,28262,1,0,0:0:0:0:
438,211,28341,1,0,0:0:0:0:
444,171,28420,2,0,L|440:120,1,40.4999987640381,8|0,0:0|0:0,0:0:0:0:
247,23,28578,1,0,0:0:0:0:
247,23,28656,1,0,0:0:0:0:
247,23,28735,2,0,L|250:63,1,40.4999987640381,8|0,0:0|0:0,0:0:0:0:
348,144,28893,2,0,L|344:103,1,40.4999987640381
101,56,29051,2,0,L|104:96,1,40.4999987640381,8|0,0:0|0:0,0:0:0:0:
202,177,29209,2,0,L|198:136,1,40.4999987640381
65,285,29367,5,12,0:0:0:0:
88,301,29445,1,0,0:0:0:0:
112,315,29524,1,0,0:0:0:0:
139,325,29603,1,0,0:0:0:0:
166,332,29682,1,8,0:0:0:0:
194,336,29761,1,0,0:0:0:0:
222,337,29840,1,0,0:0:0:0:
251,334,29919,1,0,0:0:0:0:
272,300,29999,1,8,0:0:0:0:
297,287,30077,1,0,0:0:0:0:
323,277,30156,1,0,0:0:0:0:
351,271,30235,1,0,0:0:0:0:
379,269,30314,1,8,0:0:0:0:
408,270,30393,1,0,0:0:0:0:
435,274,30472,1,0,0:0:0:0:
463,282,30551,1,0,0:0:0:0:
489,292,30630,6,0,L|494:344,1,40.4999987640381,12|0,0:0|0:0,0:0:0:0:
390,189,30788,2,0,L|395:241,1,40.4999987640381
491,104,30946,2,0,L|496:156,1,40.4999987640381,8|0,0:0|0:0,0:0:0:0:
392,1,31104,2,0,L|397:53,3,40.4999987640381,0|0|8|0,0:0|0:0|0:0|0:0,0:0:0:0:
343,112,31420,2,0,L|302:115,1,40.4999987640381
164,0,31578,2,0,L|167:40,1,40.4999987640381,8|0,0:0|0:0,0:0:0:0:
365,132,31735,2,0,L|324:135,1,40.4999987640381
99,173,31893,5,12,0:0:0:0:
124,204,31971,1,0,0:0:0:0:
154,231,32050,1,0,0:0:0:0:
189,251,32129,1,0,0:0:0:0:
227,266,32208,1,8,0:0:0:0:
267,273,32287,1,0,0:0:0:0:
307,274,32366,1,0,0:0:0:0:
347,268,32445,1,0,0:0:0:0:
385,254,32525,1,8,0:0:0:0:
360,286,32603,1,0,0:0:0:0:
329,312,32682,1,0,0:0:0:0:
294,331,32761,1,0,0:0:0:0:
255,344,32840,1,8,0:0:0:0:
215,349,32919,1,0,0:0:0:0:
175,346,32999,2,0,L|131:327,1,40.4999987640381
148,86,33156,5,12,0:0:0:0:
173,117,33234,1,0,0:0:0:0:
185,155,33314,2,0,L|183:214,1,40.4999987640381
288,276,33472,5,8,0:0:0:0:
313,245,33550,1,0,0:0:0:0:
325,207,33630,2,0,L|323:148,1,40.4999987640381
420,66,33788,5,8,0:0:0:0:
389,41,33866,1,0,0:0:0:0:
351,29,33946,2,0,L|292:31,4,40.4999987640381,0|0|8|0|0,0:0|0:0|0:0|0:0|0:0,0:0:0:0:
139,115,34420,5,12,0:0:0:0:
136,155,34498,1,0,0:0:0:0:
150,192,34578,2,0,L|181:241,1,40.4999987640381
366,288,34735,1,8,0:0:0:0:
368,247,34813,1,0,0:0:0:0:
354,210,34893,2,0,L|323:161,1,40.4999987640381
164,329,35051,1,8,0:0:0:0:
204,331,35129,1,0,0:0:0:0:
241,317,35209,2,0,L|289:286,1,40.4999987640381
337,65,35366,1,8,0:0:0:0:
296,63,35444,1,0,0:0:0:0:
259,77,35524,2,0,L|210:107,1,40.4999987640381
424,312,35683,5,12,0:0:0:0:
454,286,35761,1,0,0:0:0:0:
472,250,35840,1,0,0:0:0:0:
472,210,35919,1,0,0:0:0:0:
456,173,36000,1,8,0:0:0:0:
486,147,36078,1,0,0:0:0:0:
504,111,36157,1,0,0:0:0:0:
504,71,36236,1,0,0:0:0:0:
484,30,36314,1,8,0:0:0:0:
464,43,36392,1,0,0:0:0:0:
446,60,36471,1,0,0:0:0:0:
433,81,36550,1,0,0:0:0:0:
425,103,36629,1,8,0:0:0:0:
421,127,36708,1,0,0:0:0:0:
422,152,36787,1,0,0:0:0:0:
426,176,36866,1,0,0:0:0:0:
432,199,36946,6,0,L|454:261,1,40.4999987640381,12|0,0:0|0:0,0:0:0:0:
327,237,37104,2,0,L|348:298,1,40.4999987640381
221,274,37262,2,0,L|242:335,1,40.4999987640381,8|0,0:0|0:0,0:0:0:0:
115,311,37420,2,0,L|136:372,1,40.4999987640381
216,143,37578,2,0,L|177:156,1,40.4999987640381,8|0,0:0|0:0,0:0:0:0:
19,162,37735,2,0,L|57:148,1,40.4999987640381
197,126,37893,2,0,L|158:139,1,40.4999987640381,8|0,0:0|0:0,0:0:0:0:
0,145,38050,2,0,L|38:131,1,40.4999987640381
354,44,38209,5,12,0:0:0:0:
367,82,38287,1,0,0:0:0:0:
372,122,38366,1,0,0:0:0:0:
369,162,38445,1,0,0:0:0:0:
358,201,38524,1,8,0:0:0:0:
323,186,38604,5,0,0:0:0:0:
331,154,38683,1,0,0:0:0:0:
334,122,38762,1,0,0:0:0:0:
330,90,38841,1,8,0:0:0:0:
285,100,38920,5,0,0:0:0:0:
288,125,38999,1,0,0:0:0:0:
285,151,39078,1,0,0:0:0:0:
279,176,39156,2,0,L|256:230,1,40.4999987640381,8|0,0:0|0:0,0:0:0:0:
147,60,39314,2,0,L|124:6,1,40.4999987640381
62,224,39472,1,12,0:0:0:0:
78,246,39550,1,0,0:0:0:0:
97,267,39629,1,0,0:0:0:0:
119,285,39708,1,0,0:0:0:0:
143,301,39787,1,8,0:0:0:0:
168,313,39866,1,0,0:0:0:0:
195,322,39945,1,0,0:0:0:0:
223,328,40024,1,0,0:0:0:0:
251,330,40103,1,8,0:0:0:0:
280,329,40182,1,0,0:0:0:0:
307,324,40261,1,0,0:0:0:0:
335,316,40340,1,0,0:0:0:0:
360,304,40419,1,8,0:0:0:0:
385,289,40498,1,0,0:0:0:0:
407,272,40577,1,0,0:0:0:0:
427,252,40656,1,0,0:0:0:0:
444,229,40735,5,12,0:0:0:0:
417,220,40813,1,0,0:0:0:0:
391,208,40892,1,0,0:0:0:0:
366,195,40971,1,0,0:0:0:0:
342,180,41051,2,0,L|312:125,1,40.4999987640381,8|0,0:0|0:0,0:0:0:0:
433,4,41209,2,0,L|452:39,3,40.4999987640381,0|0|8|0,0:0|0:0|0:0|0:0,0:0:0:0:
471,203,41525,2,0,L|451:167,1,40.4999987640381
288,24,41683,2,0,L|268:59,1,40.4999987640381,8|0,0:0|0:0,0:0:0:0:
228,265,41841,2,0,L|208:229,1,40.4999987640381,8|0,0:0|0:0,0:0:0:0:
69,58,41999,5,12,0:0:0:0:
63,77,42077,1,0,0:0:0:0:
59,97,42156,1,0,0:0:0:0:
55,117,42235,1,0,0:0:0:0:
53,137,42314,1,8,0:0:0:0:
51,157,42393,1,0,0:0:0:0:
50,177,42472,1,0,0:0:0:0:
51,197,42551,1,0,0:0:0:0:
52,218,42630,1,8,0:0:0:0:
54,238,42709,1,0,0:0:0:0:
58,258,42788,1,0,0:0:0:0:
62,278,42867,1,0,0:0:0:0:
67,297,42946,1,8,0:0:0:0:
73,316,43025,1,0,0:0:0:0:
80,335,43104,2,0,L|118:363,1,40.4999987640381
336,279,43262,6,0,P|355:230|308:168,1,121.499996292114,12|0,0:0|0:0,0:0:0:0:
290,232,43578,2,0,L|440:211,1,121.499996292114
434,189,43893,2,0,B|445:121|445:121|405:54,1,121.499996292114
383,53,44209,2,0,P|418:86|415:58,1,121.499996292114
368,26,44525,5,4,0:0:0:0:
319,37,44603,1,0,0:0:0:0:
276,60,44682,1,0,0:0:0:0:
240,94,44761,1,0,0:0:0:0:
215,136,44842,1,0,0:0:0:0:
190,178,44921,1,0,0:0:0:0:
154,212,45000,1,0,0:0:0:0:
111,235,45079,1,0,0:0:0:0:
62,246,45156,2,0,L|-17:223,1,49.5000015106202
215,136,45314,2,0,L|294:113,1,49.5000015106202
59,14,45472,2,0,L|-20:-8,1,49.5000015106202
154,212,45630,5,0,0:0:0:0:
170,230,45708,1,0,0:0:0:0:
187,248,45788,1,12,0:0:0:0:
138,258,45866,1,0,0:0:0:0:
93,277,45945,1,0,0:0:0:0:
53,306,46024,1,0,0:0:0:0:
19,342,46104,2,0,L|-34:384,1,49.5000015106202,8|0,0:0|0:0,0:0:0:0:
114,144,46262,2,0,L|60:102,1,49.5000015106202
243,374,46420,1,8,0:0:0:0:
292,366,46498,1,0,0:0:0:0:
334,341,46577,1,0,0:0:0:0:
364,302,46656,1,0,0:0:0:0:
377,254,46735,1,8,0:0:0:0:
324,254,46813,1,0,0:0:0:0:
281,222,46892,1,0,0:0:0:0:
265,171,46971,1,0,0:0:0:0:
283,120,47051,6,0,L|333:47,1,49.5000015106202,12|0,0:0|0:0,0:0:0:0:
114,144,47209,2,0,L|63:216,1,49.5000015106202
193,40,47367,2,0,L|124:-7,1,49.5000015106202,8|0,0:0|0:0,0:0:0:0:
217,250,47525,2,0,L|283:295,1,49.5000015106202
396,239,47683,1,8,0:0:0:0:
413,215,47761,1,0,0:0:0:0:
428,189,47840,1,0,0:0:0:0:
437,161,47919,1,0,0:0:0:0:
442,132,47999,2,0,L|441:69,1,49.5000015106202,8|0,0:0|0:0,0:0:0:0:
193,40,48156,1,0,0:0:0:0:
193,40,48235,1,0,0:0:0:0:
193,40,48314,5,12,0:0:0:0:
170,83,48392,1,0,0:0:0:0:
165,132,48471,1,0,0:0:0:0:
178,179,48550,1,0,0:0:0:0:
209,218,48629,1,8,0:0:0:0:
156,204,48708,1,0,0:0:0:0:
102,203,48787,1,0,0:0:0:0:
49,216,48866,1,0,0:0:0:0:
2,241,48946,2,0,L|-40:282,1,49.5000015106202,8|0,0:0|0:0,0:0:0:0:
164,317,49104,2,0,L|206:358,1,49.5000015106202
82,66,49262,2,0,L|40:107,1,49.5000015106202,8|0,0:0|0:0,0:0:0:0:
244,142,49420,2,0,L|286:183,1,49.5000015106202
376,327,49578,5,12,0:0:0:0:
405,300,49656,1,0,0:0:0:0:
428,268,49735,1,0,0:0:0:0:
443,232,49814,1,0,0:0:0:0:
450,193,49893,2,0,L|417:114,1,49.5000015106202,8|0,0:0|0:0,0:0:0:0:
224,96,50051,2,0,L|243:141,1,49.5000015106202
403,14,50209,1,8,0:0:0:0:
353,17,50287,1,0,0:0:0:0:
307,34,50366,1,0,0:0:0:0:
265,61,50445,1,0,0:0:0:0:
228,93,50525,1,8,0:0:0:0:
182,71,50603,1,0,0:0:0:0:
134,63,50682,1,0,0:0:0:0:
84,65,50761,1,0,0:0:0:0:
36,74,50841,6,0,L|-20:92,1,49.5000015106202,12|0,0:0|0:0,0:0:0:0:
86,234,50999,2,0,L|30:252,1,49.5000015106202
219,148,51156,6,0,L|275:166,1,49.5000015106202,8|0,0:0|0:0,0:0:0:0:
169,308,51314,2,0,L|225:326,1,49.5000015106202
128,147,51472,1,8,0:0:0:0:
129,132,51550,1,0,0:0:0:0:
131,117,51629,1,0,0:0:0:0:
133,102,51708,1,0,0:0:0:0:
134,87,51787,1,8,0:0:0:0:
136,73,51866,1,0,0:0:0:0:
138,58,51945,1,0,0:0:0:0:
139,43,52024,1,0,0:0:0:0:
141,28,52104,5,12,0:0:0:0:
193,44,52182,1,0,0:0:0:0:
247,53,52261,1,0,0:0:0:0:
301,53,52340,1,0,0:0:0:0:
355,45,52420,2,0,L|434:23,1,49.5000015106202,8|0,0:0|0:0,0:0:0:0:
290,198,52578,2,0,L|242:211,1,49.5000015106202
421,233,52735,1,8,0:0:0:0:
397,276,52813,1,0,0:0:0:0:
362,311,52892,1,0,0:0:0:0:
320,336,52971,1,0,0:0:0:0:
272,349,53051,2,0,L|207:336,1,49.5000015106202,8|0,0:0|0:0,0:0:0:0:
367,138,53209,2,0,L|432:125,1,49.5000015106202
242,211,53367,5,12,0:0:0:0:
242,211,53683,5,8,0:0:0:0:
242,211,53999,5,8,0:0:0:0:
161,155,54156,1,0,0:0:0:0:
64,141,54314,2,0,L|58:274,1,99.0000030212403,8|0,0:0|0:0,0:0:0:0:
247,348,54630,5,12,0:0:0:0:
286,327,54708,1,0,0:0:0:0:
318,295,54787,1,0,0:0:0:0:
337,254,54866,1,0,0:0:0:0:
325,219,54947,1,8,0:0:0:0:
345,179,55025,1,0,0:0:0:0:
377,147,55104,1,0,0:0:0:0:
418,128,55183,1,0,0:0:0:0:
462,121,55262,2,0,L|511:133,1,45,8|0,0:0|0:0,0:0:0:0:
325,219,55420,2,0,L|276:231,1,45
438,293,55578,2,0,L|505:312,1,45,8|0,0:0|0:0,0:0:0:0:
339,77,55736,2,0,L|287:28,1,45
83,92,55893,5,12,0:0:0:0:
83,92,55972,1,0,0:0:0:0:
83,92,56051,2,0,L|156:95,1,45
226,192,56209,1,8,0:0:0:0:
46,185,56367,2,0,L|107:187,1,45
189,285,56525,1,8,0:0:0:0:
9,278,56683,2,0,L|69:280,1,45
226,192,56841,2,0,P|226:199|217:180,1,90,8|0,0:0|0:0,0:0:0:0:
254,35,57156,5,12,0:0:0:0:
294,56,57234,1,0,0:0:0:0:
326,88,57313,1,0,0:0:0:0:
345,129,57392,1,0,0:0:0:0:
332,164,57473,1,8,0:0:0:0:
352,204,57551,1,0,0:0:0:0:
384,236,57630,1,0,0:0:0:0:
425,255,57709,1,0,0:0:0:0:
469,262,57788,2,0,L|518:250,1,45,8|0,0:0|0:0,0:0:0:0:
332,164,57946,2,0,L|283:152,1,45
445,90,58104,2,0,L|512:70,1,45,8|0,0:0|0:0,0:0:0:0:
346,306,58262,2,0,L|294:354,1,45
174,209,58420,5,12,0:0:0:0:
159,191,58498,1,0,0:0:0:0:
148,172,58577,1,0,0:0:0:0:
140,151,58656,1,0,0:0:0:0:
117,132,58736,1,8,0:0:0:0:
99,146,58814,1,0,0:0:0:0:
80,157,58893,1,0,0:0:0:0:
60,165,58971,1,0,0:0:0:0:
40,189,59051,1,8,0:0:0:0:
54,207,59129,1,0,0:0:0:0:
65,226,59208,1,0,0:0:0:0:
73,247,59287,1,0,0:0:0:0:
78,269,59367,2,0,L|102:335,1,45,8|0,0:0|0:0,0:0:0:0:
215,133,59525,2,0,L|239:67,1,45
283,316,59683,5,12,0:0:0:0:
327,321,59761,1,0,0:0:0:0:
371,314,59840,1,0,0:0:0:0:
412,296,59919,1,0,0:0:0:0:
447,267,59999,1,8,0:0:0:0:
403,256,60077,1,0,0:0:0:0:
363,235,60156,1,0,0:0:0:0:
331,204,60235,1,0,0:0:0:0:
309,165,60314,2,0,L|325:108,1,45,8|0,0:0|0:0,0:0:0:0:
157,234,60472,2,0,L|141:291,1,45
327,156,60630,2,0,L|346:86,1,45,8|0,0:0|0:0,0:0:0:0:
138,242,60788,2,0,L|119:312,1,45
160,36,60946,5,12,0:0:0:0:
115,41,61024,1,0,0:0:0:0:
81,68,61103,1,0,0:0:0:0:
66,110,61182,1,0,0:0:0:0:
75,153,61262,1,8,0:0:0:0:
33,171,61340,1,0,0:0:0:0:
9,207,61419,1,0,0:0:0:0:
8,252,61498,1,0,0:0:0:0:
30,290,61578,2,0,L|56:342,1,45,8|0,0:0|0:0,0:0:0:0:
66,110,61735,2,0,L|40:58,1,45
218,261,61893,2,0,L|348:252,1,90,8|0,0:0|0:0,0:0:0:0:
418,72,62209,5,12,0:0:0:0:
376,55,62287,1,0,0:0:0:0:
331,49,62366,1,0,0:0:0:0:
287,54,62445,1,0,0:0:0:0:
244,69,62525,1,8,0:0:0:0:
288,76,62604,1,0,0:0:0:0:
329,94,62683,1,0,0:0:0:0:
364,122,62762,1,0,0:0:0:0:
392,157,62841,2,0,P|404:187|402:219,1,45,8|0,0:0|0:0,0:0:0:0:
303,330,62999,2,0,P|273:342|241:340,1,45
130,241,63156,2,0,P|118:211|120:179,1,45,8|0,0:0|0:0,0:0:0:0:
219,68,63314,2,0,P|249:56|281:58,1,45
256,190,63472,5,12,0:0:0:0:
256,199,63550,1,0,0:0:0:0:
256,208,63629,1,0,0:0:0:0:
256,217,63708,1,0,0:0:0:0:
256,226,63787,1,8,0:0:0:0:
256,235,63866,1,0,0:0:0:0:
256,244,63945,1,0,0:0:0:0:
256,253,64024,1,0,0:0:0:0:
256,262,64103,1,8,0:0:0:0:
256,271,64182,1,0,0:0:0:0:
256,280,64262,2,0,L|256:341,1,45
141,353,64420,1,8,0:0:0:0:
338,216,64578,1,0,0:0:0:0:
115,67,64735,5,12,0:0:0:0:
