osu file format v14

[General]
AudioFilename: audio.mp3
AudioLeadIn: 0
PreviewTime: -1
Countdown: 1
SampleSet: Normal
StackLeniency: 0.7
Mode: 0
LetterboxInBreaks: 0
WidescreenStoryboard: 0

[Editor]
DistanceSpacing: 1.3
BeatDivisor: 4
GridSize: 4
TimelineZoom: 1

[Metadata]
Title:Cosmic
TitleUnicode:Cosmic
Artist:Jordan Schor
ArtistUnicode:Jordan Schor
Creator:Fake Yeezys
Version:Panic
Source:
Tags:good map ncs nocopyrightsounds english electrionic
BeatmapID:1584275
BeatmapSetID:752571

[Difficulty]
HPDrainRate:3
CircleSize:4
OverallDifficulty:7
ApproachRate:9
SliderMultiplier:2.1
SliderTickRate:1

[Events]
//Background and Video events
0,0,"Anime-Wallpaper-Desktop-Background-89.jpg",0,0
//Break Periods
//Storyboard Layer 0 (Background)
//Storyboard Layer 1 (Fail)
//Storyboard Layer 2 (Pass)
//Storyboard Layer 3 (Foreground)
//Storyboard Sound Samples

[TimingPoints]
0,731.707317073171,4,1,0,100,1,0
24014,631.578947368421,4,1,0,100,1,0
48151,400,4,1,0,100,1,0
60142,352.941176470588,4,1,0,100,1,0
70730,612.244897959184,4,1,0,100,1,0
106852,571.428571428571,4,1,0,100,1,0
117709,400,4,1,0,100,1,0
129709,363.636363636364,4,1,0,100,1,0
152981,645.178947368421,4,1,0,100,1,0
176207,631.578947368421,4,1,0,100,1,0
211570,400,4,1,0,100,1,0

[HitObjects]
68,64,365,5,0,0:0:0:0:
144,60,731,2,0,L|196:148,1,52.5
204,148,1280,1,0,0:0:0:0:
204,216,1646,2,0,L|108:224,1,52.5
60,224,2012,1,0,0:0:0:0:
124,132,2378,2,0,L|192:128,1,52.5
268,88,2743,1,0,0:0:0:0:
392,152,3109,2,0,B|324:240|332:232,1,52.5
352,264,3658,1,0,0:0:0:0:
148,272,4024,2,0,B|280:288|292:260,1,105
176,196,4573,5,0,0:0:0:0:
256,144,4756,2,0,L|428:28,1,210
276,24,5670,1,0,0:0:0:0:
188,28,6036,1,0,0:0:0:0:
276,148,6585,2,0,B|56:152|56:152|220:56|216:52|216:48,1,412.5
196,66,8597,1,0,0:0:0:0:
192,176,9512,2,0,L|308:164,1,105
196,66,10243,1,0,0:0:0:0:
68,224,10975,1,0,0:0:0:0:
252,76,11707,5,0,0:0:0:0:
152,148,12439,2,0,B|396:152|392:152|392:152|236:256|240:256|128:256|292:260|112:244|124:220,1,525
220,216,14634,1,0,0:0:0:0:
128,180,15182,1,0,0:0:0:0:
308,152,15548,1,0,0:0:0:0:
116,164,16280,2,0,B|400:160|312:160,1,225
364,140,17378,1,0,0:0:0:0:
188,24,18109,5,0,0:0:0:0:
164,112,18475,1,0,0:0:0:0:
308,104,19024,1,0,0:0:0:0:
204,104,19756,1,0,0:0:0:0:
160,104,19939,1,0,0:0:0:0:
120,136,20121,1,0,0:0:0:0:
92,160,20304,1,0,0:0:0:0:
88,200,20670,1,0,0:0:0:0:
204,204,21036,1,0,0:0:0:0:
312,208,21585,1,0,0:0:0:0:
328,360,21951,1,0,0:0:0:0:
104,336,22134,1,0,0:0:0:0:
104,172,22500,1,0,0:0:0:0:
272,148,23048,1,0,0:0:0:0:
420,68,23231,1,0,0:0:0:0:
192,40,23414,1,0,0:0:0:0:
192,296,23963,1,0,0:0:0:0:
300,160,24803,5,0,0:0:0:0:
228,228,25277,1,0,0:0:0:0:
164,200,25592,5,0,0:0:0:0:
92,128,25750,1,0,0:0:0:0:
92,128,25908,1,0,0:0:0:0:
92,128,26066,1,0,0:0:0:0:
344,100,26382,1,0,0:0:0:0:
188,112,27171,1,0,0:0:0:0:
336,184,27645,1,0,0:0:0:0:
360,64,28119,1,0,0:0:0:0:
320,80,28277,1,0,0:0:0:0:
288,100,28592,1,0,0:0:0:0:
256,120,28908,1,0,0:0:0:0:
388,240,29382,5,0,0:0:0:0:
368,64,30014,1,0,0:0:0:0:
216,112,30645,1,0,0:0:0:0:
120,212,31119,1,0,0:0:0:0:
120,212,31277,1,0,0:0:0:0:
120,212,31435,1,0,0:0:0:0:
120,212,31592,1,0,0:0:0:0:
392,88,32066,1,0,0:0:0:0:
212,112,32856,1,0,0:0:0:0:
112,252,33487,5,0,0:0:0:0:
268,164,34119,1,0,0:0:0:0:
316,120,34277,1,0,0:0:0:0:
312,40,34592,1,0,0:0:0:0:
284,64,34750,1,0,0:0:0:0:
152,140,35224,1,0,0:0:0:0:
312,288,35698,2,0,P|312:220|312:228,1,52.5
236,288,36329,2,0,L|152:288,1,52.5
164,120,36803,2,0,B|168:244|168:244|168:240,1,105
252,120,37435,2,0,L|352:120,1,105
376,184,38066,2,0,L|208:184,1,157.5
160,184,38856,2,0,L|48:184,1,157.5
160,120,39645,2,0,B|-20:120|-4:116,1,157.5
8,48,40435,2,0,L|168:44,1,157.5
416,288,41224,1,0,0:0:0:0:
236,184,42014,1,0,0:0:0:0:
140,188,42329,5,0,0:0:0:0:
324,108,42961,1,0,0:0:0:0:
260,140,43435,2,0,L|100:136,1,105
372,96,44382,2,0,L|208:92,1,157.5
184,208,45171,1,0,0:0:0:0:
96,88,45645,1,0,0:0:0:0:
200,100,46119,1,0,0:0:0:0:
200,100,46277,1,0,0:0:0:0:
200,100,46435,1,0,0:0:0:0:
200,100,46592,1,0,0:0:0:0:
140,172,47224,2,0,B|240:160|236:160,3,52.5
460,120,48151,1,0,0:0:0:0:
60,96,48451,5,0,0:0:0:0:
108,108,48651,1,0,0:0:0:0:
148,124,48751,1,0,0:0:0:0:
184,148,48951,1,0,0:0:0:0:
216,176,49051,1,0,0:0:0:0:
248,208,49251,1,0,0:0:0:0:
264,244,49451,1,0,0:0:0:0:
284,284,49651,1,0,0:0:0:0:
236,196,49951,1,0,0:0:0:0:
148,80,50051,1,0,0:0:0:0:
252,72,50351,2,0,B|376:68|376:68|376:64,2,105
108,64,51151,1,0,0:0:0:0:
336,180,51951,1,0,0:0:0:0:
148,288,52751,1,0,0:0:0:0:
116,32,53551,1,0,0:0:0:0:
96,336,53851,1,0,0:0:0:0:
208,264,54051,1,0,0:0:0:0:
344,176,54251,1,0,0:0:0:0:
464,112,54451,1,0,0:0:0:0:
24,240,54651,1,0,0:0:0:0:
264,44,54951,1,0,0:0:0:0:
464,28,55151,1,0,0:0:0:0:
480,316,55351,1,0,0:0:0:0:
200,156,55551,1,0,0:0:0:0:
48,56,55751,1,0,0:0:0:0:
364,12,56051,6,0,B|180:48|172:52,1,157.5
248,60,56551,2,0,L|424:60,2,157.5
184,96,57651,2,0,L|316:96,3,105
268,32,58951,2,0,L|376:32,2,105
68,72,59851,1,0,0:0:0:0:
72,192,59951,1,0,0:0:0:0:
200,308,60142,1,0,0:0:0:0:
360,240,60230,1,0,0:0:0:0:
448,120,60406,1,0,0:0:0:0:
368,56,60583,1,0,0:0:0:0:
284,32,60759,1,0,0:0:0:0:
148,48,60936,1,0,0:0:0:0:
80,136,61024,1,0,0:0:0:0:
260,136,61200,5,0,0:0:0:0:
388,244,61377,1,0,0:0:0:0:
292,328,61553,1,0,0:0:0:0:
156,256,61994,2,0,B|272:156|264:160,2,140
124,156,62965,1,0,0:0:0:0:
280,120,63406,1,0,0:0:0:0:
208,220,63671,1,0,0:0:0:0:
80,128,64112,1,0,0:0:0:0:
308,120,64465,1,0,0:0:0:0:
148,228,64730,1,0,0:0:0:0:
408,184,65612,5,0,0:0:0:0:
368,184,65700,1,0,0:0:0:0:
336,184,65877,1,0,0:0:0:0:
300,192,65965,1,0,0:0:0:0:
268,204,66142,1,0,0:0:0:0:
240,216,66230,1,0,0:0:0:0:
208,236,66406,1,0,0:0:0:0:
168,248,66583,1,0,0:0:0:0:
124,268,66759,1,0,0:0:0:0:
100,240,66847,1,0,0:0:0:0:
88,208,67024,1,0,0:0:0:0:
88,184,67200,1,0,0:0:0:0:
96,160,67289,1,0,0:0:0:0:
112,132,67465,1,0,0:0:0:0:
164,116,68083,2,0,L|240:116,2,52.5
252,16,68612,5,0,0:0:0:0:
360,116,68877,1,0,0:0:0:0:
324,312,69142,1,0,0:0:0:0:
88,324,69318,1,0,0:0:0:0:
8,140,69494,1,0,0:0:0:0:
140,56,69671,1,0,0:0:0:0:
352,32,69847,1,0,0:0:0:0:
368,208,70024,1,0,0:0:0:0:
344,124,70200,1,0,0:0:0:0:
224,60,70377,1,0,0:0:0:0:
120,136,70553,1,0,0:0:0:0:
112,212,70883,2,0,L|412:208,1,262.5
236,180,72107,1,0,0:0:0:0:
96,168,72872,5,0,0:0:0:0:
96,168,73025,1,0,0:0:0:0:
256,116,73332,1,0,0:0:0:0:
180,112,73638,2,0,L|420:64,1,210
364,104,74403,1,0,0:0:0:0:
116,72,74862,2,0,L|288:60,1,157.5
244,232,75627,1,0,0:0:0:0:
244,232,75781,1,0,0:0:0:0:
244,232,75934,1,0,0:0:0:0:
108,128,76087,2,0,L|376:120,1,262.5
152,132,77311,5,0,0:0:0:0:
296,128,77923,1,0,0:0:0:0:
104,212,78536,1,0,0:0:0:0:
232,92,79148,1,0,0:0:0:0:
380,152,79607,1,0,0:0:0:0:
380,152,79760,1,0,0:0:0:0:
332,264,80219,1,0,0:0:0:0:
240,96,80525,1,0,0:0:0:0:
360,36,80832,1,0,0:0:0:0:
488,176,80985,1,0,0:0:0:0:
404,336,81291,1,0,0:0:0:0:
204,340,81444,1,0,0:0:0:0:
360,128,81750,1,0,0:0:0:0:
236,124,82209,1,0,0:0:0:0:
240,304,82974,1,0,0:0:0:0:
464,140,83434,1,0,0:0:0:0:
136,80,83893,1,0,0:0:0:0:
88,280,84046,1,0,0:0:0:0:
240,184,84352,1,0,0:0:0:0:
404,92,84505,1,0,0:0:0:0:
208,144,84811,1,0,0:0:0:0:
72,108,85270,1,0,0:0:0:0:
156,192,85730,2,0,L|432:184,1,262.5
408,112,86648,2,0,L|140:120,1,262.5
144,184,87566,2,0,B|148:364|148:356,1,157.5
136,256,88332,6,0,L|328:252,1,157.5
368,200,88944,2,0,B|364:128|364:144,1,52.5
292,196,89403,2,0,L|224:200,1,52.5
216,112,89862,2,0,L|280:68,1,52.5
276,156,90321,2,0,L|256:232,1,52.5
196,216,90781,2,0,L|132:176,1,52.5
168,100,91240,2,0,L|240:64,3,52.5
152,176,92158,2,0,L|240:172,3,52.5
228,128,92923,2,0,L|296:128,3,52.5
116,164,94148,2,0,L|396:152,1,262.5
208,88,95372,5,0,0:0:0:0:
240,184,95832,2,0,L|296:172,7,52.5
248,64,97209,1,0,0:0:0:0:
176,128,97821,5,0,0:0:0:0:
256,168,97974,1,0,0:0:0:0:
336,88,98587,1,0,0:0:0:0:
160,208,99199,1,0,0:0:0:0:
160,208,99352,1,0,0:0:0:0:
160,208,99505,1,0,0:0:0:0:
316,248,99964,1,0,0:0:0:0:
384,88,100576,1,0,0:0:0:0:
152,104,101189,1,0,0:0:0:0:
168,236,101648,1,0,0:0:0:0:
384,192,102260,1,0,0:0:0:0:
384,192,102413,1,0,0:0:0:0:
316,96,103025,1,0,0:0:0:0:
152,144,103485,1,0,0:0:0:0:
152,240,103944,5,0,0:0:0:0:
352,164,104250,1,0,0:0:0:0:
112,200,104556,2,0,L|496:204,1,367.5
156,72,106240,1,0,0:0:0:0:
256,60,106699,5,0,0:0:0:0:
164,208,107137,1,0,0:0:0:0:
392,76,107566,1,0,0:0:0:0:
268,232,107994,1,0,0:0:0:0:
136,108,108566,2,0,L|272:108,2,105
148,184,109566,1,0,0:0:0:0:
288,120,109994,1,0,0:0:0:0:
200,232,110423,1,0,0:0:0:0:
76,96,110852,1,0,0:0:0:0:
156,188,111280,2,0,L|336:176,1,157.5
160,68,112137,2,0,L|248:68,2,52.5
72,156,112852,6,0,L|260:156,1,157.5
140,192,113852,2,0,L|132:136,1,52.5
220,200,114423,2,0,L|212:112,1,52.5
300,196,114852,2,0,L|284:132,1,52.5
260,96,115137,2,0,L|168:104,1,52.5
140,136,115566,2,0,L|148:192,1,52.5
152,240,115852,2,0,L|268:228,1,105
304,212,116280,2,0,L|280:128,1,52.5
84,172,117709,2,0,L|192:172,2,105
368,304,118309,2,0,L|464:312,1,52.5
368,228,118509,2,0,L|460:232,1,52.5
364,168,118809,6,0,L|452:164,1,52.5
348,112,118909,6,0,L|412:76,1,52.5
292,76,119109,2,0,L|340:16,1,52.5
240,64,119309,2,0,L|272:8,1,52.5
184,64,119509,2,0,L|132:8,1,52.5
136,96,119709,2,0,L|80:40,1,52.5
96,136,119809,2,0,L|28:64,1,52.5
68,184,120009,2,0,L|0:144,1,52.5
64,248,120209,2,0,L|-20:216,1,52.5
392,140,120509,2,0,L|480:160,1,52.5
128,172,120809,2,0,L|232:172,2,105
248,88,121409,1,0,0:0:0:0:
76,188,121909,1,0,0:0:0:0:
440,116,122409,1,0,0:0:0:0:
232,256,122909,1,0,0:0:0:0:
104,108,123309,5,0,0:0:0:0:
56,176,123809,2,0,L|60:60,1,105
116,180,124209,2,0,L|116:124,1,52.5
172,184,124409,2,0,L|172:112,1,52.5
232,184,124709,2,0,L|229:119,1,52.5
284,192,125009,2,0,L|288:128,1,52.5
348,208,125209,2,0,L|344:124,1,52.5
416,216,125409,2,0,B|404:132|404:140,1,52.5
476,228,125609,2,0,L|472:164,1,52.5
468,120,125809,2,0,L|464:56,1,52.5
292,72,126609,2,0,L|236:84,1,52.5
194,108,126809,2,0,L|120:160,1,52.5
124,184,127009,2,0,L|184:264,1,52.5
220,272,127309,6,0,L|160:276,1,52.5
132,144,127609,2,0,L|160:84,1,52.5
188,52,127809,2,0,L|256:12,1,52.5
296,32,128009,2,0,L|368:88,1,52.5
376,112,128209,2,0,L|412:184,1,52.5
380,220,128509,2,0,L|328:252,1,52.5
296,272,128709,2,0,L|212:296,1,52.5
192,300,128909,2,0,L|96:272,1,52.5
132,216,129309,2,0,L|256:208,2,105
196,88,130163,5,0,0:0:0:0:
376,132,130345,1,0,0:0:0:0:
132,176,130709,1,0,0:0:0:0:
376,252,130890,1,0,0:0:0:0:
224,292,131072,1,0,0:0:0:0:
348,176,131345,1,0,0:0:0:0:
264,100,131527,1,0,0:0:0:0:
100,144,131799,1,0,0:0:0:0:
88,268,131981,1,0,0:0:0:0:
376,116,132163,5,0,0:0:0:0:
104,176,132618,1,0,0:0:0:0:
104,176,132709,1,0,0:0:0:0:
104,176,132890,1,0,0:0:0:0:
432,192,133436,1,0,0:0:0:0:
276,48,133890,1,0,0:0:0:0:
112,184,134163,1,0,0:0:0:0:
248,192,134436,5,0,0:0:0:0:
404,352,134618,1,0,0:0:0:0:
428,48,134799,1,0,0:0:0:0:
276,48,134981,1,0,0:0:0:0:
116,232,135254,2,0,L|200:232,2,52.5
224,100,135709,1,0,0:0:0:0:
416,260,135890,1,0,0:0:0:0:
452,44,136254,1,0,0:0:0:0:
240,20,136709,1,0,0:0:0:0:
64,136,137072,1,0,0:0:0:0:
284,320,137618,1,0,0:0:0:0:
416,56,137890,1,0,0:0:0:0:
72,240,138163,1,0,0:0:0:0:
176,52,138436,1,0,0:0:0:0:
400,248,138709,1,0,0:0:0:0:
412,44,138981,5,0,0:0:0:0:
72,348,139163,1,0,0:0:0:0:
116,48,139345,1,0,0:0:0:0:
452,328,139618,1,0,0:0:0:0:
440,40,139799,1,0,0:0:0:0:
268,172,139981,1,0,0:0:0:0:
112,180,140072,2,0,L|184:180,2,52.5
328,288,140527,1,0,0:0:0:0:
396,120,140799,1,0,0:0:0:0:
336,64,141709,1,0,0:0:0:0:
224,136,142163,1,0,0:0:0:0:
96,236,142618,1,0,0:0:0:0:
376,56,143254,1,0,0:0:0:0:
160,224,143890,1,0,0:0:0:0:
72,128,144345,6,0,L|192:128,2,105
100,244,145163,2,0,L|288:244,1,157.5
204,108,146072,1,0,0:0:0:0:
116,168,146345,2,0,L|212:160,3,52.5
408,84,146890,1,0,0:0:0:0:
36,240,147254,2,0,L|324:244,1,262.5
184,68,148254,1,0,0:0:0:0:
248,240,148709,1,0,0:0:0:0:
376,72,149072,1,0,0:0:0:0:
0,204,149436,1,0,0:0:0:0:
40,80,149890,2,0,P|372:344|348:60,1,945
140,160,151890,2,0,L|252:144,2,105
332,128,152799,1,0,0:0:0:0:
168,240,153464,1,0,0:0:0:0:
104,120,154110,5,0,0:0:0:0:
300,244,154755,1,0,0:0:0:0:
372,88,154916,1,0,0:0:0:0:
372,88,155077,1,0,0:0:0:0:
248,108,155561,1,0,0:0:0:0:
116,256,156206,5,0,0:0:0:0:
272,216,156852,1,0,0:0:0:0:
84,128,157013,1,0,0:0:0:0:
388,88,157497,1,0,0:0:0:0:
176,256,157819,5,0,0:0:0:0:
220,116,158142,1,0,0:0:0:0:
356,92,158465,1,0,0:0:0:0:
320,240,158787,1,0,0:0:0:0:
496,68,159271,1,0,0:0:0:0:
68,148,160077,1,0,0:0:0:0:
140,268,160723,1,0,0:0:0:0:
388,208,161368,1,0,0:0:0:0:
176,104,162013,1,0,0:0:0:0:
176,104,162174,1,0,0:0:0:0:
176,104,162336,1,0,0:0:0:0:
264,212,162658,1,0,0:0:0:0:
368,80,162981,1,0,0:0:0:0:
76,232,163303,1,0,0:0:0:0:
4,68,163626,1,0,0:0:0:0:
212,272,163949,1,0,0:0:0:0:
404,68,164271,5,0,0:0:0:0:
88,300,164755,1,0,0:0:0:0:
48,88,165078,1,0,0:0:0:0:
252,276,165561,1,0,0:0:0:0:
392,96,165884,1,0,0:0:0:0:
160,100,166207,1,0,0:0:0:0:
96,244,166691,1,0,0:0:0:0:
172,144,166852,1,0,0:0:0:0:
232,256,167336,1,0,0:0:0:0:
112,104,168142,1,0,0:0:0:0:
156,264,168465,1,0,0:0:0:0:
376,260,168949,1,0,0:0:0:0:
416,100,169271,5,0,0:0:0:0:
156,160,169594,1,0,0:0:0:0:
132,276,169916,1,0,0:0:0:0:
400,248,170239,1,0,0:0:0:0:
200,72,171046,1,0,0:0:0:0:
128,216,171368,1,0,0:0:0:0:
268,316,171691,1,0,0:0:0:0:
436,156,172013,1,0,0:0:0:0:
252,88,172497,1,0,0:0:0:0:
96,136,172820,1,0,0:0:0:0:
96,276,173142,1,0,0:0:0:0:
224,68,174271,1,0,0:0:0:0:
76,140,174594,5,0,0:0:0:0:
152,272,174917,1,0,0:0:0:0:
328,256,175239,1,0,0:0:0:0:
408,112,175562,1,0,0:0:0:0:
200,84,176046,1,0,0:0:0:0:
64,172,176680,1,0,0:0:0:0:
348,244,177154,1,0,0:0:0:0:
384,152,177312,1,0,0:0:0:0:
384,116,177470,1,0,0:0:0:0:
252,104,177785,5,0,0:0:0:0:
92,164,178259,1,0,0:0:0:0:
112,252,178575,1,0,0:0:0:0:
196,280,179207,1,0,0:0:0:0:
380,160,179838,5,0,0:0:0:0:
364,68,180154,1,0,0:0:0:0:
228,64,180312,1,0,0:0:0:0:
164,120,180470,1,0,0:0:0:0:
152,172,180628,1,0,0:0:0:0:
176,208,180785,1,0,0:0:0:0:
212,240,180943,1,0,0:0:0:0:
392,152,181259,1,0,0:0:0:0:
348,80,181575,1,0,0:0:0:0:
252,60,181891,1,0,0:0:0:0:
180,68,182364,5,0,0:0:0:0:
144,80,182680,1,0,0:0:0:0:
112,108,182996,1,0,0:0:0:0:
88,160,183154,1,0,0:0:0:0:
80,192,183312,1,0,0:0:0:0:
80,216,183470,1,0,0:0:0:0:
96,236,183628,1,0,0:0:0:0:
120,256,183785,1,0,0:0:0:0:
164,280,183943,1,0,0:0:0:0:
252,268,184575,1,0,0:0:0:0:
320,160,185207,1,0,0:0:0:0:
328,72,185522,1,0,0:0:0:0:
208,84,185838,1,0,0:0:0:0:
292,188,186154,1,0,0:0:0:0:
344,76,186470,1,0,0:0:0:0:
232,68,186628,1,0,0:0:0:0:
116,88,187101,1,0,0:0:0:0:
20,120,187733,1,0,0:0:0:0:
200,120,188364,5,0,0:0:0:0:
48,188,188838,1,0,0:0:0:0:
204,248,189312,1,0,0:0:0:0:
400,108,189785,1,0,0:0:0:0:
160,72,190101,1,0,0:0:0:0:
248,68,190259,1,0,0:0:0:0:
212,80,190417,1,0,0:0:0:0:
176,244,191049,1,0,0:0:0:0:
56,100,191680,1,0,0:0:0:0:
152,308,192154,1,0,0:0:0:0:
384,248,192628,1,0,0:0:0:0:
328,160,192785,1,0,0:0:0:0:
196,72,192943,1,0,0:0:0:0:
60,212,193101,1,0,0:0:0:0:
176,136,193575,1,0,0:0:0:0:
204,320,194049,1,0,0:0:0:0:
372,216,194522,1,0,0:0:0:0:
276,88,194996,1,0,0:0:0:0:
88,168,195154,1,0,0:0:0:0:
204,320,195470,1,0,0:0:0:0:
372,216,195628,1,0,0:0:0:0:
88,168,195785,1,0,0:0:0:0:
204,320,196259,1,0,0:0:0:0:
112,136,196891,5,0,0:0:0:0:
200,136,197522,1,0,0:0:0:0:
144,72,197996,1,0,0:0:0:0:
400,68,198154,1,0,0:0:0:0:
408,312,198312,1,0,0:0:0:0:
104,336,198470,1,0,0:0:0:0:
48,64,198785,1,0,0:0:0:0:
200,144,198943,1,0,0:0:0:0:
392,240,199101,1,0,0:0:0:0:
200,232,199417,1,0,0:0:0:0:
36,224,200049,1,0,0:0:0:0:
140,120,200522,1,0,0:0:0:0:
292,96,201154,5,0,0:0:0:0:
440,268,201785,1,0,0:0:0:0:
240,328,202575,1,0,0:0:0:0:
112,232,203049,1,0,0:0:0:0:
52,112,203364,1,0,0:0:0:0:
244,36,203838,1,0,0:0:0:0:
440,192,204154,1,0,0:0:0:0:
144,312,204312,1,0,0:0:0:0:
88,108,204628,1,0,0:0:0:0:
344,88,204785,1,0,0:0:0:0:
428,312,205101,1,0,0:0:0:0:
104,236,205417,1,0,0:0:0:0:
260,192,205891,5,0,0:0:0:0:
104,52,206207,1,0,0:0:0:0:
408,52,206522,1,0,0:0:0:0:
440,204,206680,1,0,0:0:0:0:
180,236,206838,1,0,0:0:0:0:
200,256,206996,1,0,0:0:0:0:
224,276,207154,1,0,0:0:0:0:
248,292,207312,1,0,0:0:0:0:
264,308,207470,1,0,0:0:0:0:
288,328,207628,1,0,0:0:0:0:
292,336,207785,1,0,0:0:0:0:
328,328,208101,1,0,0:0:0:0:
356,324,208259,1,0,0:0:0:0:
388,312,208417,1,0,0:0:0:0:
404,292,208575,1,0,0:0:0:0:
392,268,208733,1,0,0:0:0:0:
364,244,208891,1,0,0:0:0:0:
344,228,209049,1,0,0:0:0:0:
320,212,209207,1,0,0:0:0:0:
296,192,209364,1,0,0:0:0:0:
256,176,209680,1,0,0:0:0:0:
216,184,209838,1,0,0:0:0:0:
176,212,210312,5,0,0:0:0:0:
196,40,211101,1,0,0:0:0:0:
80,160,211417,1,0,0:0:0:0:
120,308,211770,5,0,0:0:0:0:
232,248,211970,1,0,0:0:0:0:
336,200,212170,1,0,0:0:0:0:
416,124,212370,1,0,0:0:0:0:
244,52,212470,1,0,0:0:0:0:
136,96,212670,1,0,0:0:0:0:
60,220,212770,1,0,0:0:0:0:
140,304,212970,1,0,0:0:0:0:
276,336,213170,1,0,0:0:0:0:
424,276,213270,1,0,0:0:0:0:
464,168,213470,1,0,0:0:0:0:
384,56,213670,1,0,0:0:0:0:
32,208,214270,6,0,L|144:208,2,105
36,304,215170,1,0,0:0:0:0:
212,280,215370,1,0,0:0:0:0:
420,172,215570,1,0,0:0:0:0:
324,64,215770,1,0,0:0:0:0:
200,136,216170,1,0,0:0:0:0:
272,216,216370,1,0,0:0:0:0:
348,304,216470,1,0,0:0:0:0:
168,340,216670,1,0,0:0:0:0:
72,188,216970,1,0,0:0:0:0:
176,56,217370,5,0,0:0:0:0:
276,52,217670,1,0,0:0:0:0:
368,52,217770,1,0,0:0:0:0:
464,120,217970,1,0,0:0:0:0:
456,312,218070,1,0,0:0:0:0:
460,212,218370,1,0,0:0:0:0:
328,336,218670,5,0,0:0:0:0:
168,344,218970,1,0,0:0:0:0:
296,196,219170,1,0,0:0:0:0:
164,184,219270,1,0,0:0:0:0:
260,40,219470,1,0,0:0:0:0:
448,184,219570,1,0,0:0:0:0:
464,352,219770,1,0,0:0:0:0:
272,356,219870,1,0,0:0:0:0:
128,360,220070,1,0,0:0:0:0:
36,244,220270,1,0,0:0:0:0:
48,104,220470,1,0,0:0:0:0:
156,28,220670,1,0,0:0:0:0:
280,32,220770,1,0,0:0:0:0:
384,52,221070,1,0,0:0:0:0:
132,268,221470,5,0,0:0:0:0:
96,136,221770,1,0,0:0:0:0:
208,92,222070,1,0,0:0:0:0:
296,112,222270,1,0,0:0:0:0:
320,180,222470,1,0,0:0:0:0:
272,260,222770,1,0,0:0:0:0:
176,272,223070,1,0,0:0:0:0:
272,36,223670,1,0,0:0:0:0:
60,96,223770,1,0,0:0:0:0:
64,328,223970,1,0,0:0:0:0:
276,328,224170,1,0,0:0:0:0:
424,240,224370,1,0,0:0:0:0:
388,96,224470,1,0,0:0:0:0:
204,152,224670,2,0,L|516:192,1,315
56,88,225770,5,0,0:0:0:0:
328,296,225970,1,0,0:0:0:0:
28,300,226170,1,0,0:0:0:0:
264,64,226370,1,0,0:0:0:0:
456,60,226570,1,0,0:0:0:0:
496,300,226670,1,0,0:0:0:0:
388,184,226870,1,0,0:0:0:0:
244,172,227070,1,0,0:0:0:0:
160,248,227370,1,0,0:0:0:0:
80,116,227470,1,0,0:0:0:0:
216,32,227670,1,0,0:0:0:0:
324,32,227870,1,0,0:0:0:0:
352,96,228070,1,0,0:0:0:0:
352,96,228270,1,0,0:0:0:0:
352,96,228470,1,0,0:0:0:0:
344,92,228670,1,0,0:0:0:0:
24,136,228870,2,0,L|80:136,1,52.5
52,48,229170,5,0,0:0:0:0:
196,104,229470,1,0,0:0:0:0:
316,188,229670,1,0,0:0:0:0:
424,300,229870,1,0,0:0:0:0:
180,340,229970,1,0,0:0:0:0:
40,236,230170,1,0,0:0:0:0:
288,80,230470,1,0,0:0:0:0:
72,80,230670,1,0,0:0:0:0:
180,208,230770,1,0,0:0:0:0:
312,192,230970,1,0,0:0:0:0:
436,84,231170,1,0,0:0:0:0:
188,80,231370,1,0,0:0:0:0:
24,204,231570,1,0,0:0:0:0:
172,328,231770,1,0,0:0:0:0:
280,348,232070,5,0,0:0:0:0:
388,328,232470,1,0,0:0:0:0:
440,240,232570,1,0,0:0:0:0:
512,144,232770,1,0,0:0:0:0:
512,56,232870,1,0,0:0:0:0:
288,60,233070,1,0,0:0:0:0:
384,40,233270,1,0,0:0:0:0:
136,92,233470,1,0,0:0:0:0:
140,96,233570,1,0,0:0:0:0:
256,192,233870,12,0,236570,0:0:0:0:
