osu file format v14

[General]
AudioFilename: audio.mp3
AudioLeadIn: 0
PreviewTime: 154152
Countdown: 0
SampleSet: Soft
StackLeniency: 0.7
Mode: 0
LetterboxInBreaks: 0
WidescreenStoryboard: 1

[Editor]
DistanceSpacing: 1
BeatDivisor: 4
GridSize: 16
TimelineZoom: 1.9

[Metadata]
Title:by my side (feat. bixby)
TitleUnicode:by my side (feat. bixby)
Artist:Joon
ArtistUnicode:Joon
Creator:Lurumic
Version:vastly's lovesick insane
Source:
Tags:english pop indie vastly we vibing Ajitani Hifumi peroro merlone Dialect moondoogy Li Syaoran Minnin
BeatmapID:4309523
BeatmapSetID:2060660

[Difficulty]
HPDrainRate:4.5
CircleSize:3.8
OverallDifficulty:7.8
ApproachRate:8
SliderMultiplier:0.899999999999999
SliderTickRate:1

[Events]
//Background and Video events
0,0,"1301632.jpg",0,0
Video,-75,"yuri.mp4"
//Break Periods
2,77708,86784
2,126869,138693
//Storyboard Layer 0 (Background)
//Storyboard Layer 1 (Fail)
//Storyboard Layer 2 (Pass)
//Storyboard Layer 3 (Foreground)
//Storyboard Layer 4 (Overlay)
//Storyboard Sound Samples

[TimingPoints]
89,387.096774193548,4,2,5,55,1,0
89,-76.9230769230769,4,2,5,55,0,0
3185,387.096774193548,4,2,5,55,1,0
3185,-58.8235294117647,4,2,5,55,0,0
4540,-500,4,2,5,55,0,0
5895,-76.9230769230769,4,2,5,55,0,0
7637,-500,4,2,5,55,0,0
8992,-76.9230769230769,4,2,5,55,0,0
9379,-66.6666666666667,4,2,5,55,0,0
21766,-58.8235294117647,4,2,5,55,0,0
27959,-55.5555555555556,4,2,5,65,0,0
52734,-50,4,2,5,85,0,0
88347,-50,4,2,5,55,0,0
89895,-58.8235294117647,4,2,5,65,0,0
102282,-50,4,2,5,85,0,0
125895,-62.5,4,2,5,85,0,0
139443,-100,4,2,5,60,0,0
154928,387.096774193548,4,2,5,85,1,0
154928,-50,4,2,5,85,0,0
156476,-50,4,2,5,85,0,0

[Colours]
Combo1 : 184,220,220
Combo2 : 231,222,175
Combo3 : 255,168,168
Combo4 : 228,208,177

[HitObjects]
470,106,89,6,0,P|485:81|496:47,1,58.4999973220826
489,183,476,2,0,P|474:208|463:242,1,58.4999973220826,8|0,0:0|0:0,0:0:0:0:
356,175,863,2,0,P|341:150|330:116,1,58.4999973220826
337,252,1250,2,0,P|352:277|363:311,1,58.4999973220826,8|0,0:0|0:0,0:0:0:0:
198,341,1637,6,0,P|254:364|325:367,2,116.999994644165,0|8|0,0:0|0:0|0:0,0:0:0:0:
18,311,2605,1,8,0:0:0:0:
188,238,2798,1,8,0:0:0:0:
124,321,2992,1,8,0:0:0:0:
78,234,3185,6,0,P|72:191|77:142,1,76.5000014591217,2|0,0:0|0:0,0:0:0:0:
158,57,3572,2,0,P|118:60|82:29,2,76.5000014591217,10|0|0,0:0|0:0|0:0,0:0:0:0:
305,0,4153,2,0,P|293:38|289:86,1,76.5000014591217,2|8,0:0|0:0,0:0:0:0:
300,151,4540,1,2,0:0:0:0:
301,166,5895,5,8,0:0:0:0:
476,238,6089,1,2,0:0:0:0:
358,365,6282,2,0,P|349:335|353:298,1,58.4999973220826,2|0,0:0|0:0,0:0:0:0:
496,229,6669,2,0,P|440:224|363:230,1,116.999994644165,10|0,0:0|0:0,0:0:0:0:
248,330,7250,1,2,0:0:0:0:
350,308,7443,1,8,0:0:0:0:
322,144,7637,1,2,0:0:0:0:
300,153,8992,5,8,0:0:0:0:
182,256,9185,1,0,3:0:0:0:
31,200,9379,2,0,P|27:167|38:121,1,67.5000025749208,2|2,0:0|0:0,0:0:0:0:
170,32,9766,2,0,B|201:93|201:93|172:158,1,135.000005149842,8|2,0:0|0:0,0:0:0:0:
20,56,10347,1,2,0:0:0:0:
95,85,10540,1,8,0:0:0:0:
277,11,10734,6,0,P|281:78|278:165,1,135.000005149842,2|2,0:0|0:0,0:0:0:0:
437,263,11314,1,8,0:0:0:0:
333,275,11508,1,2,0:0:0:0:
405,194,11701,1,2,0:0:0:0:
371,344,11895,1,2,0:0:0:0:
242,252,12089,2,0,P|234:213|235:181,1,67.5000025749208,8|2,0:0|0:0,0:0:0:0:
168,295,12476,6,0,B|90:301|121:343|52:371,1,135.000005149842,2|8,0:0|0:0,0:0:0:0:
21,160,13056,2,0,P|73:191|162:209,1,135.000005149842,2|2,0:0|0:0,0:0:0:0:
256,103,13637,1,8,0:0:0:0:
297,170,13830,6,0,P|300:238|294:323,1,135.000005149842,2|2,0:0|0:0,0:0:0:0:
500,367,14411,2,0,B|418:370|439:320|359:322,1,135.000005149842,8|2,0:0|0:0,0:0:0:0:
296,304,14992,1,8,0:0:0:0:
408,232,15185,1,8,0:0:0:0:
297,168,15379,1,10,0:0:0:0:
189,241,15572,6,0,P|117:255|45:254,1,135.000005149842,2|10,0:0|0:0,0:0:0:0:
193,49,16347,1,0,0:0:0:0:
270,67,16540,2,0,P|306:72|345:75,2,67.5000025749208,2|8|2,0:0|0:0|0:0,0:0:0:0:
187,66,18282,5,8,0:0:0:0:
100,214,18476,1,2,0:0:0:0:
0,130,18669,2,0,B|71:156|63:98|149:130,1,135.000005149842,2|10,0:0|0:0,0:0:0:0:
264,12,19250,1,0,0:0:0:0:
264,89,19443,2,0,P|263:121|264:161,2,67.5000025749208,0|2|8,0:0|0:0|0:0,0:0:0:0:
342,53,20024,2,0,P|413:54|488:30,1,135.000005149842,2|2,0:0|0:0,0:0:0:0:
256,366,21379,5,8,0:0:0:0:
364,272,21572,1,0,3:0:0:0:
214,214,21766,2,0,P|140:217|113:291,1,153.000002918243,2|8,0:0|0:0,0:0:0:0:
29,42,22540,1,2,0:0:0:0:
33,120,22734,2,0,P|35:159|37:207,2,76.5000014591217,2|8|2,0:0|0:0|0:0,0:0:0:0:
204,36,23508,5,2,0:0:0:0:
338,88,23701,1,8,0:0:0:0:
262,129,23895,1,2,0:0:0:0:
370,15,24089,1,2,0:0:0:0:
429,150,24282,1,2,0:0:0:0:
329,244,24476,6,0,B|234:235|271:290|165:290,1,153.000002918243,8|2,0:0|0:0,0:0:0:0:
375,308,25250,1,8,0:0:0:0:
434,358,25443,2,0,P|469:357|520:349,2,76.5000014591217,2|2|2,0:0|0:0|0:0,0:0:0:0:
329,244,26024,1,8,0:0:0:0:
251,360,26218,6,0,B|222:363|182:360|136:299|162:218|249:234|255:289,1,229.500004377365,2|8,0:0|0:0,0:0:0:0:
25,233,27185,5,2,0:0:0:0:
101,259,27379,1,8,0:0:0:0:
4,312,27572,1,8,0:0:0:0:
86,161,27766,1,10,0:0:0:0:
201,248,27959,6,0,P|204:289|174:334,1,80.9999975280763,4|0,3:2|0:0,0:0:0:0:
310,355,28347,2,0,P|306:313|336:268,1,80.9999975280763,10|0,0:0|0:0,0:0:0:0:
496,305,28734,1,2,3:2:0:0:
416,324,28927,1,0,3:2:0:0:
470,384,29121,5,10,0:0:0:0:
440,243,29314,2,0,P|434:174|442:70,1,161.999995056153,0|2,3:2|3:2,0:0:0:0:
282,34,29895,1,10,0:2:0:0:
314,115,30089,1,2,0:2:0:0:
370,21,30282,5,2,3:2:0:0:
248,174,30476,1,2,3:2:0:0:
93,110,30669,2,0,P|79:72|78:31,1,80.9999975280763,10|0,0:0|3:0,0:0:0:0:
165,58,31056,5,0,0:0:0:0:
75,271,31443,2,0,B|38:292|38:292|-11:267,1,80.9999975280763,10|0,0:0|0:0,0:0:0:0:
124,205,31830,1,2,3:2:0:0:
195,308,32024,1,0,3:2:0:0:
311,189,32218,2,0,P|312:229|313:357,1,161.999995056153,10|2,0:2|3:2,0:0:0:0:
451,303,32798,1,2,0:2:0:0:
508,356,32992,5,10,0:2:0:0:
386,236,33185,1,2,3:2:0:0:
512,155,33379,1,2,3:2:0:0:
477,228,33572,1,2,3:2:0:0:
384,140,33766,2,0,P|377:101|380:59,1,80.9999975280763,10|0,0:2|3:2,0:0:0:0:
305,4,34153,5,2,3:2:0:0:
241,82,34347,1,2,0:2:0:0:
284,155,34540,5,10,0:2:0:0:
173,19,34734,1,2,0:0:0:0:
72,181,34927,6,0,P|66:141|71:90,2,80.9999975280763,2|0|10,3:2|3:2|0:2,0:0:0:0:
45,271,35701,5,2,0:2:0:0:
124,297,35895,1,2,3:2:0:0:
61,353,36089,5,10,0:2:0:0:
216,277,36282,1,2,0:2:0:0:
296,384,36476,6,0,P|301:304|298:214,2,161.999995056153,2|10|2,3:2|0:0|0:0,0:0:0:0:
155,182,37637,2,0,B|195:194|195:194|240:170,1,80.9999975280763,8|0,0:2|0:0,0:0:0:0:
285,25,38024,2,0,P|291:66|292:117,2,80.9999975280763,0|0|8,3:0|3:2|0:0,0:0:0:0:
357,158,38605,2,0,P|436:153|469:71,1,161.999995056153,0|0,3:2|0:0,0:0:0:0:
410,32,39185,5,8,0:0:0:0:
278,116,39379,2,0,B|192:120|216:62|114:74,1,161.999995056153,0|8,3:2|3:2,0:0:0:0:
18,280,39959,1,8,0:0:0:0:
140,195,40153,1,8,0:2:0:0:
30,91,40347,6,0,P|27:50|27:4,1,80.9999975280763,4|0,3:2|0:0,0:0:0:0:
132,183,40734,2,0,P|111:265|96:361,1,161.999995056153,10|2,0:2|3:2,0:0:0:0:
258,384,41314,1,0,3:2:0:0:
329,340,41508,2,0,P|331:297|303:264,1,80.9999975280763,10|0,0:2|3:2,0:0:0:0:
205,223,41895,2,0,P|203:266|231:299,1,80.9999975280763,2|2,0:0|3:2,0:0:0:0:
388,141,42282,5,10,0:2:0:0:
455,189,42476,1,2,0:2:0:0:
512,133,42669,1,2,3:2:0:0:
372,234,42863,1,2,3:2:0:0:
247,152,43056,2,0,P|243:111|247:54,1,80.9999975280763,10|0,0:2|3:0,0:0:0:0:
173,14,43443,6,0,P|97:22|84:106,2,161.999995056153,0|10|2,0:0|0:0|3:2,0:0:0:0:
244,71,44411,1,0,3:2:0:0:
140,182,44605,6,0,P|88:177|32:166,1,80.9999975280763,10|0,0:0|3:2,0:0:0:0:
48,254,44992,2,0,P|99:258|155:269,1,80.9999975280763,2|2,3:2|0:2,0:0:0:0:
210,319,45379,5,10,0:2:0:0:
285,290,45572,1,2,3:2:0:0:
366,361,45766,5,2,3:2:0:0:
318,195,45959,1,2,3:2:0:0:
415,262,46153,2,0,L|496:278,1,80.9999975280763,10|0,0:2|3:2,0:0:0:0:
326,88,46540,6,0,P|240:96|204:17,1,161.999995056153,2|8,3:2|0:0,0:0:0:0:
57,176,47314,1,2,3:2:0:0:
105,237,47508,1,2,3:2:0:0:
136,161,47701,5,10,0:2:0:0:
76,322,47895,1,2,3:2:0:0:
241,353,48089,2,0,B|269:264|205:280|238:187,1,161.999995056153,2|8,0:2|0:0,0:0:0:0:
485,104,48863,5,2,3:2:0:0:
405,159,49056,1,2,3:2:0:0:
344,87,49250,2,0,P|346:167|346:260,2,161.999995056153,10|2|10,0:2|0:2|0:2,0:0:0:0:
277,36,50218,1,2,0:2:0:0:
185,108,50411,5,2,3:2:0:0:
255,155,50605,1,2,3:2:0:0:
184,32,50798,1,10,0:2:0:0:
91,184,50992,1,2,3:2:0:0:
484,336,51959,6,0,P|444:342|407:317,1,80.9999975280763,2|8,0:3|0:2,0:0:0:0:
369,143,52347,1,8,0:2:0:0:
313,362,52540,1,8,0:0:0:0:
262,255,52734,6,0,B|155:209|179:285|81:253,1,180,4|8,3:2|0:2,0:0:0:0:
38,28,53508,1,0,3:0:0:0:
151,86,53701,1,0,3:0:0:0:
18,113,53895,1,8,0:0:0:0:
172,13,54089,1,2,3:0:0:0:
95,148,54282,6,0,P|99:191|108:241,1,90,2|2,0:0|3:2,0:0:0:0:
216,295,54669,1,10,0:2:0:0:
224,222,54863,1,2,3:2:0:0:
69,331,55056,1,2,3:2:0:0:
10,266,55250,5,0,3:0:0:0:
154,362,55443,2,0,P|201:368|243:381,1,90,10|2,0:2|3:0,0:0:0:0:
487,250,55830,6,0,P|468:319|366:318,1,180,2|8,3:2|0:2,0:0:0:0:
356,151,56605,1,0,3:0:0:0:
458,150,56797,1,0,3:0:0:0:
306,79,56992,1,8,0:0:0:0:
311,234,57184,1,2,3:0:0:0:
407,85,57379,6,0,P|420:45|398:-15,1,90,2|2,0:0|3:2,0:0:0:0:
222,42,57766,2,0,P|209:82|231:142,1,90,10|2,0:2|3:2,0:0:0:0:
65,154,58153,5,2,3:2:0:0:
171,235,58347,1,0,3:0:0:0:
83,328,58540,2,0,B|40:341|40:341|-7:313,1,90,10|2,0:2|3:0,0:0:0:0:
171,235,58927,6,0,B|214:198|267:233|246:261|301:283|349:249,1,180,2|8,3:2|0:2,0:0:0:0:
449,189,59508,1,2,0:2:0:0:
509,235,59701,2,0,L|508:337,1,90,2|0,3:2|3:2,0:0:0:0:
343,183,60089,5,8,0:2:0:0:
298,332,60282,1,2,3:2:0:0:
240,114,60476,6,0,P|280:92|332:104,1,90,2|2,0:2|3:2,0:0:0:0:
268,230,60863,2,0,P|228:252|176:240,1,90,8|0,0:0|0:0,0:0:0:0:
63,103,61250,2,0,B|65:143|65:143|69:146|69:146|72:195,2,90,2|0|10,3:2|3:2|0:2,0:0:0:0:
119,47,61830,1,0,3:2:0:0:
335,105,62024,6,0,B|352:64|352:64|327:13,1,90,2|0,0:2|3:2,0:0:0:0:
195,111,62411,2,0,B|178:152|178:152|203:203,1,90,8|2,0:2|0:2,0:0:0:0:
344,288,62798,5,2,3:2:0:0:
344,288,62992,1,0,3:2:0:0:
239,362,63185,2,0,B|220:320|220:320|242:276,1,90,8|2,0:2|3:2,0:0:0:0:
414,246,63572,2,0,B|433:288|433:288|411:332,1,90,2|0,0:2|3:2,0:0:0:0:
298,231,63959,1,10,0:2:0:0:
298,231,64347,5,2,3:2:0:0:
486,283,64540,1,8,3:2:0:0:
321,306,64734,5,8,3:2:0:0:
501,207,64927,1,8,3:2:0:0:
412,369,65121,6,0,P|403:283|395:177,1,180,4|8,3:2|0:2,0:0:0:0:
494,26,65895,1,0,3:0:0:0:
422,76,66089,1,0,3:0:0:0:
495,107,66282,5,8,0:0:0:0:
361,11,66476,1,2,3:0:0:0:
272,188,66669,6,0,P|315:186|349:157,1,90,2|2,0:0|3:2,0:0:0:0:
181,56,67056,2,0,P|192:100|202:146,1,90,10|2,0:2|3:2,0:0:0:0:
40,249,67443,1,2,3:2:0:0:
87,180,67637,1,0,3:0:0:0:
229,264,67830,2,0,P|240:308|250:354,1,90,10|2,0:2|3:0,0:0:0:0:
30,350,68218,6,0,P|61:267|88:174,1,180,2|8,3:2|0:2,0:0:0:0:
197,29,68992,1,0,3:0:0:0:
136,82,69185,1,0,3:0:0:0:
74,24,69379,5,8,0:0:0:0:
272,169,69572,1,2,3:0:0:0:
344,107,69766,6,0,P|362:66|342:10,1,90,2|2,0:0|3:2,0:0:0:0:
205,112,70153,2,0,P|187:71|207:15,1,90,10|2,0:2|3:2,0:0:0:0:
272,169,70540,2,0,P|358:176|458:209,1,180,2|10,3:2|0:2,0:0:0:0:
250,383,71121,1,2,3:0:0:0:
250,383,71314,6,0,P|236:338|252:289,1,90,2|0,3:2|0:0,0:0:0:0:
353,257,71701,2,0,P|366:301|350:350,1,90,8|2,0:2|0:2,0:0:0:0:
148,310,72089,5,2,3:2:0:0:
92,226,72282,1,0,3:2:0:0:
170,194,72476,1,8,0:2:0:0:
67,317,72669,1,2,3:2:0:0:
8,179,72863,5,2,0:2:0:0:
92,226,73056,1,2,3:2:0:0:
166,70,73250,2,0,P|126:89|75:95,1,90,8|0,0:0|0:0,0:0:0:0:
254,82,73637,2,0,P|294:63|345:57,1,90,2|0,3:2|3:2,0:0:0:0:
216,12,74024,5,10,0:2:0:0:
202,174,74218,1,0,3:2:0:0:
372,131,74411,6,0,B|400:123|419:91|419:91|470:152|405:215,1,180,2|8,0:2|0:2,0:0:0:0:
343,218,74992,1,2,0:2:0:0:
404,339,75185,2,0,B|447:346|447:346|451:345|451:345|510:353,2,90,2|0|8,3:2|3:2|0:2,0:0:0:0:
245,310,75766,1,2,3:2:0:0:
202,381,75959,5,2,3:2:0:0:
302,364,76153,1,0,3:2:0:0:
222,234,76347,2,0,P|179:241|142:217,1,90,10|0,0:2|3:2,0:0:0:0:
100,55,76733,5,2,3:2:0:0:
48,340,76927,1,8,3:2:0:0:
0,72,77120,5,8,3:2:0:0:
148,323,77314,1,8,3:2:0:0:
77,203,77508,5,6,0:0:0:0:
401,243,89895,6,0,P|438:248|482:243,1,76.5000014591217,4|2,3:2|0:0,0:0:0:0:
323,144,90282,1,8,0:2:0:0:
317,219,90476,2,0,P|313:258|316:309,2,76.5000014591217,2|0|2,0:2|3:2|3:2,0:0:0:0:
249,352,91056,1,8,0:2:0:0:
249,352,91250,6,0,P|187:361|154:288,1,153.000002918243,2|2,3:2|3:2,0:0:0:0:
109,143,91830,1,8,3:2:0:0:
38,182,92024,2,0,P|44:262|41:339,2,153.000002918243,2|2|2,0:2|3:2|3:2,0:0:0:0:
208,97,92992,6,0,P|245:102|286:113,2,76.5000014591217,2|2|10,3:0|0:0|3:2,0:0:0:0:
109,143,93572,2,0,B|88:111|88:111|105:60,1,76.5000014591217,2|0,3:0|3:0,0:0:0:0:
232,21,93959,1,2,3:2:0:0:
261,181,94153,1,8,0:2:0:0:
359,85,94347,6,0,B|448:91|409:30|509:27,1,153.000002918243,2|2,3:2|0:0,0:0:0:0:
336,171,94927,2,0,P|295:172|260:181,1,76.5000014591217,8|2,0:0|3:2,0:0:0:0:
140,156,95314,1,2,0:2:0:0:
59,204,95508,1,2,3:2:0:0:
149,68,95701,1,10,0:2:0:0:
219,225,95895,1,2,0:0:0:0:
219,225,95992,1,2,0:0:0:0:
219,225,96089,6,0,B|305:218|265:159|362:147,1,153.000002918243,0|8,3:2|0:2,0:0:0:0:
495,283,96863,1,2,3:2:0:0:
413,287,97056,1,2,3:2:0:0:
453,218,97250,1,10,0:2:0:0:
308,375,97443,2,0,P|302:300|305:202,1,153.000002918243,2|2,3:2|3:2,0:0:0:0:
222,291,98024,1,10,0:2:0:0:
38,212,98411,2,0,P|83:245|117:194,2,114.750002188683,2|2|2,3:2|3:2|3:2,0:0:0:0:
70,133,99185,6,0,B|53:106|53:77|89:54|89:54|76:85|97:119,1,153.000002918243,4|4,3:2|3:2,0:0:0:0:
216,329,100153,6,0,B|297:337|261:282|389:299,1,153.000002918243,4|4,3:2|3:2,0:0:0:0:
439,383,100734,2,0,P|459:351|441:297,1,76.5000014591217,2|0,0:3|0:0,0:0:0:0:
346,365,101121,2,0,P|341:327|361:295,1,76.5000014591217,2|0,0:3|0:0,0:0:0:0:
346,141,101508,2,0,P|415:155|417:243,1,153.000002918243,2|8,0:3|0:2,0:0:0:0:
218,345,102282,6,0,B|163:362|128:310|158:292|117:250|59:263,1,180,4|8,3:2|0:2,0:0:0:0:
8,310,102863,1,0,0:0:0:0:
136,188,103056,2,0,L|245:181,1,90,0|0,3:0|3:0,0:0:0:0:
89,105,103443,2,0,L|-20:112,1,90,8|2,0:0|3:0,0:0:0:0:
75,260,103830,5,2,0:0:0:0:
136,188,104024,1,2,3:2:0:0:
40,180,104218,5,10,0:2:0:0:
183,284,104411,1,2,3:2:0:0:
270,126,104605,2,0,P|263:80|269:20,2,90,2|0|10,3:2|3:0|0:2,0:0:0:0:
300,339,105379,6,0,B|355:356|390:304|360:286|401:244|459:257,1,180,2|8,3:2|0:2,0:0:0:0:
500,311,105959,1,0,0:0:0:0:
303,257,106153,2,0,P|286:216|310:172,1,90,0|0,3:0|3:0,0:0:0:0:
450,63,106540,2,0,P|467:104|443:148,1,90,8|2,0:0|3:0,0:0:0:0:
303,176,106927,5,2,0:0:0:0:
383,204,107121,1,2,3:2:0:0:
229,239,107314,1,10,0:2:0:0:
318,62,107508,1,2,3:2:0:0:
128,176,107701,2,0,P|89:117|102:2,1,180,2|10,3:2|0:2,0:0:0:0:
231,103,108282,1,2,3:0:0:0:
231,103,108476,6,0,B|274:140|327:105|306:77|361:55|409:89,1,180,2|8,3:2|0:2,0:0:0:0:
505,189,109056,1,2,0:2:0:0:
512,112,109250,2,0,P|509:68|501:18,1,90,2|0,3:2|3:2,0:0:0:0:
379,166,109637,5,8,0:2:0:0:
510,272,109830,1,2,3:2:0:0:
363,361,110024,6,0,P|346:322|363:271,1,90,2|2,0:2|3:2,0:0:0:0:
505,189,110411,2,0,P|522:228|505:279,1,90,8|0,0:0|0:0,0:0:0:0:
458,331,110798,6,0,B|415:368|362:333|383:305|328:283|280:317,1,180,2|10,3:2|0:2,0:0:0:0:
216,348,111379,1,0,3:2:0:0:
20,233,111572,6,0,P|13:278|-5:338,1,90,2|0,0:2|3:2,0:0:0:0:
159,211,111959,1,8,0:2:0:0:
65,158,112153,1,2,0:2:0:0:
190,89,112347,2,0,P|192:44|188:-9,2,90,2|0|8,3:2|3:2|0:2,0:0:0:0:
102,86,112927,1,2,3:2:0:0:
234,160,113121,6,0,B|289:177|324:125|294:107|335:65|393:78,1,180,2|10,0:2|0:2,0:0:0:0:
485,271,113895,1,2,3:2:0:0:
321,183,114089,1,8,3:2:0:0:
482,189,114282,5,8,3:2:0:0:
316,348,114476,1,8,3:2:0:0:
470,352,114669,6,0,B|414:368|380:315|410:297|370:255|312:267,1,180,4|8,3:2|0:2,0:0:0:0:
242,375,115250,1,0,0:0:0:0:
240,296,115443,2,0,P|238:251|240:205,2,90,0|0|8,3:0|3:0|0:0,0:0:0:0:
0,28,116218,5,2,0:0:0:0:
155,98,116411,1,2,3:2:0:0:
171,19,116605,5,10,0:2:0:0:
13,108,116798,1,2,3:2:0:0:
82,55,116992,2,0,P|87:139|90:241,1,180,2|10,3:2|0:2,0:0:0:0:
15,353,117572,1,2,3:0:0:0:
15,353,117766,6,0,B|59:382|107:339|87:319|125:278|189:312,1,180,2|8,3:2|0:2,0:0:0:0:
326,360,118347,1,0,0:0:0:0:
326,359,118540,2,0,P|329:313|326:261,1,90,0|0,3:0|3:0,0:0:0:0:
488,166,118927,2,0,P|485:212|488:264,1,90,8|2,0:0|3:0,0:0:0:0:
455,330,119314,5,2,0:0:0:0:
326,269,119508,1,2,3:2:0:0:
411,255,119701,5,10,0:2:0:0:
262,349,119895,1,2,3:2:0:0:
251,142,120089,2,0,P|291:162|342:165,1,90,2|0,3:2|3:0,0:0:0:0:
171,173,120476,2,0,P|151:213|148:264,1,90,10|2,0:2|3:0,0:0:0:0:
130,97,120863,6,0,P|49:85|36:-9,1,180,2|8,3:2|0:2,0:0:0:0:
245,0,121443,1,2,0:2:0:0:
270,77,121637,1,2,3:2:0:0:
193,62,121830,1,0,3:2:0:0:
327,21,122024,5,8,0:2:0:0:
276,180,122218,1,2,3:2:0:0:
431,149,122410,2,0,P|475:139|516:164,1,90,2|2,0:2|3:2,0:0:0:0:
499,274,122798,2,0,P|455:284|414:259,1,90,8|0,0:0|0:0,0:0:0:0:
318,44,123185,5,2,3:2:0:0:
250,99,123379,1,0,3:2:0:0:
164,89,123572,2,0,P|146:46|142:-5,1,90,10|0,0:2|3:2,0:0:0:0:
289,169,123959,6,0,P|307:212|311:263,1,90,2|0,0:2|3:2,0:0:0:0:
160,314,124347,1,8,0:2:0:0:
238,304,124540,1,2,0:2:0:0:
100,251,124734,2,0,P|53:253|10:263,2,90,2|0|8,3:2|3:2|0:2,0:0:0:0:
238,304,125314,1,2,3:2:0:0:
301,349,125508,2,0,B|345:378|393:335|373:315|411:274|475:308,1,180,2|10,3:2|0:2,0:0:0:0:
494,164,126282,5,2,3:2:0:0:
306,213,126476,1,8,3:2:0:0:
360,20,126669,5,8,3:2:0:0:
238,322,139443,6,0,P|216:326|187:313,1,45,2|2,0:3|0:0,0:0:0:0:
122,358,139830,2,0,P|118:311|98:257,1,90,2|2,0:3|0:3,0:0:0:0:
35,245,140411,1,2,0:0:0:0:
104,270,140604,1,2,0:3:0:0:
158,214,140798,1,2,0:0:0:0:
114,148,140992,2,0,P|96:105|86:54,2,90,2|2|2,0:3|0:3|0:3,0:0:0:0:
158,214,141959,2,0,P|200:194|246:190,1,90,2|2,0:0|0:0,0:0:0:0:
314,228,142540,6,0,P|357:215|386:176,1,90,2|2,0:3|0:3,0:0:0:0:
444,126,143121,1,2,0:0:0:0:
444,126,143314,2,0,P|459:144|479:158,1,45,2|2,0:3|0:0,0:0:0:0:
469,238,143701,1,2,0:3:0:0:
469,238,143895,2,0,P|480:280|468:339,1,90,2|2,0:0|0:0,0:0:0:0:
408,367,144476,1,2,0:3:0:0:
408,367,144669,1,2,0:0:0:0:
338,329,144863,2,0,P|318:330|294:337,1,45,2|2,0:3|0:0,0:0:0:0:
224,375,145250,2,0,P|196:373|172:360,1,45,2|2,0:3|0:0,0:0:0:0:
151,290,145637,5,2,0:3:0:0:
47,322,145830,1,2,0:0:0:0:
33,243,146024,2,0,P|29:198|34:137,1,90,2|2,0:3|0:3,0:0:0:0:
116,33,146605,2,0,P|119:76|116:131,2,90,2|2|2,0:0|0:0|0:0,0:0:0:0:
194,5,147572,1,2,0:3:0:0:
252,57,147766,2,0,P|298:61|348:51,1,90,2|2,0:0|0:0,0:0:0:0:
411,22,148347,1,2,0:3:0:0:
468,73,148540,1,2,0:0:0:0:
452,149,148734,6,0,P|427:157|391:159,1,45,2|2,0:3|0:0,0:0:0:0:
336,234,149121,2,0,P|301:207|243:182,1,90,2|2,0:3|0:3,0:0:0:0:
145,217,149701,1,2,0:0:0:0:
143,294,149895,2,0,P|143:324|147:356,1,45,2|2,0:3|0:0,0:0:0:0:
256,192,150282,12,2,151830,3:0:0:0:
497,81,154153,6,0,P|508:60|503:16,1,45,2|0,0:3|0:0,0:0:0:0:
430,21,154540,2,0,P|419:42|424:77,1,45,2|0,0:3|0:0,0:0:0:0:
512,238,154928,6,0,P|419:242|328:283,1,180,4|8,3:2|0:2,0:0:0:0:
0,102,155701,1,0,3:0:0:0:
75,136,155895,1,0,3:0:0:0:
152,96,156089,5,8,0:0:0:0:
6,219,156282,1,2,3:0:0:0:
166,319,156476,6,0,P|171:272|162:221,1,90,2|2,0:0|3:2,0:0:0:0:
305,285,156863,2,0,P|300:332|309:383,1,90,10|2,0:2|3:2,0:0:0:0:
164,229,157250,1,2,3:2:0:0:
250,182,157443,1,0,3:0:0:0:
151,45,157637,2,0,P|148:89|153:147,1,90,10|2,0:2|3:0,0:0:0:0:
250,182,158024,6,0,P|328:168|341:75,1,180,2|8,3:2|0:2,0:0:0:0:
512,212,158798,1,0,3:0:0:0:
415,186,158992,1,0,3:0:0:0:
481,129,159185,5,8,0:0:0:0:
319,257,159379,1,2,3:0:0:0:
203,105,159572,6,0,P|189:61|205:13,1,90,2|2,0:0|3:2,0:0:0:0:
317,173,159959,2,0,P|331:217|315:265,1,90,10|2,0:2|3:2,0:0:0:0:
129,278,160347,1,2,3:2:0:0:
188,225,160540,1,0,3:0:0:0:
204,306,160734,5,10,0:2:0:0:
21,247,160927,1,2,3:0:0:0:
147,115,161121,6,0,B|190:152|243:117|222:89|277:67|325:101,1,180,2|8,3:2|0:2,0:0:0:0:
416,13,161701,1,2,0:2:0:0:
416,13,161895,2,0,P|414:57|416:106,1,90,2|0,3:2|3:2,0:0:0:0:
501,278,162282,1,8,0:2:0:0:
433,235,162476,1,2,3:2:0:0:
295,368,162669,6,0,P|290:323|292:267,1,90,2|2,0:2|3:2,0:0:0:0:
298,200,163056,1,8,0:0:0:0:
298,200,163443,1,2,3:2:0:0:
179,321,163637,1,0,3:2:0:0:
120,261,163830,1,10,0:2:0:0:
295,368,164024,1,0,3:2:0:0:
463,264,164218,2,0,P|475:179|462:79,1,180,2|8,0:2|0:2,0:0:0:0:
408,31,164798,1,2,0:2:0:0:
463,86,164992,5,2,3:2:0:0:
389,114,165185,1,0,3:2:0:0:
261,0,165379,1,8,0:2:0:0:
123,114,165572,1,2,3:2:0:0:
49,86,165766,2,0,P|35:183|47:278,1,180,2|10,0:2|0:2,0:0:0:0:
217,374,166540,5,2,3:2:0:0:
399,302,166734,1,8,3:2:0:0:
210,292,166927,5,8,3:2:0:0:
389,383,167121,1,8,3:2:0:0:
510,248,167314,6,0,P|524:162|510:62,1,180,4|8,3:2|0:2,0:0:0:0:
250,15,168089,1,0,3:0:0:0:
314,64,168282,1,0,3:0:0:0:
142,144,168476,2,0,P|139:101|142:52,1,90,8|2,0:0|3:0,0:0:0:0:
222,289,168863,5,2,0:0:0:0:
43,211,169056,1,2,3:2:0:0:
241,207,169250,1,10,0:2:0:0:
66,292,169443,1,2,3:2:0:0:
147,370,169637,6,0,P|142:270|145:182,1,180,2|10,3:2|0:2,0:0:0:0:
8,102,170218,1,2,3:0:0:0:
8,102,170411,6,0,B|51:139|104:104|83:76|138:54|186:88,1,180,2|8,3:2|0:2,0:0:0:0:
456,25,171185,1,0,3:0:0:0:
385,72,171379,1,0,3:0:0:0:
319,22,171572,5,8,0:0:0:0:
494,141,171766,1,2,3:0:0:0:
314,218,171959,6,0,P|271:218|225:211,2,90,2|2|10,0:0|3:2|0:2,0:0:0:0:
375,167,172540,1,2,3:2:0:0:
492,273,172734,2,0,P|503:318|480:364,1,90,2|0,3:2|3:0,0:0:0:0:
389,344,173121,2,0,P|378:299|401:253,1,90,10|2,0:2|3:0,0:0:0:0:
512,120,173508,6,0,P|430:160|326:181,1,180,2|8,3:2|0:2,0:0:0:0:
269,298,174089,1,2,0:2:0:0:
269,298,174282,2,0,P|235:271|240:217,1,90,2|0,3:2|3:2,0:0:0:0:
341,117,174669,5,8,0:2:0:0:
318,203,174863,1,2,3:2:0:0:
184,173,175056,2,0,P|163:87|188:-10,1,180,2|8,0:2|0:0,0:0:0:0:
512,163,175830,2,0,B|406:156|468:90|343:74,1,180,2|10,3:2|0:2,0:0:0:0:
264,20,176411,1,0,3:2:0:0:
264,20,176605,6,0,P|264:60|264:112,1,90,2|0,0:2|3:2,0:0:0:0:
137,232,176992,1,8,0:2:0:0:
214,257,177185,1,2,0:2:0:0:
69,181,177379,2,0,P|63:135|70:85,2,90,2|0|8,3:2|3:2|0:2,0:0:0:0:
173,339,177959,1,2,3:2:0:0:
173,339,178153,2,0,B|272:377|254:279|377:343,1,180,2|10,3:2|0:2,0:0:0:0:
512,108,178927,5,2,3:2:0:0:
248,163,179121,1,8,3:2:0:0:
271,69,179314,5,8,3:2:0:0:
503,204,179508,1,8,3:2:0:0:
382,137,179701,5,6,0:0:0:0:
