osu file format v14

[General]
AudioFilename: audio.mp3
AudioLeadIn: 0
PreviewTime: 154152
Countdown: 0
SampleSet: Soft
StackLeniency: 0.7
Mode: 0
LetterboxInBreaks: 0
WidescreenStoryboard: 1

[Editor]
Bookmarks: 849,853,6268,27945,51171,52720,77494,102268,127042,139429,151816,167300,171945,179530
DistanceSpacing: 1
BeatDivisor: 4
GridSize: 16
TimelineZoom: 1.6

[Metadata]
Title:by my side (feat. bixby)
TitleUnicode:by my side (feat. bixby)
Artist:Joon
ArtistUnicode:Joon
Creator:Lurumic
Version:beside you
Source:
Tags:english pop indie vastly we vibing Ajitani Hifumi peroro merlone Dialect moondoogy Li Syaoran Minnin
BeatmapID:4462973
BeatmapSetID:2060660

[Difficulty]
HPDrainRate:5
CircleSize:4
OverallDifficulty:8.5
ApproachRate:9
SliderMultiplier:0.899999999999999
SliderTickRate:1

[Events]
//Background and Video events
0,0,"1301632.jpg",0,0
Video,-75,"yuri.mp4"
//Break Periods
2,78095,87747
2,126869,136908
//Storyboard Layer 0 (Background)
//Storyboard Layer 1 (Fail)
//Storyboard Layer 2 (Pass)
//Storyboard Layer 3 (Foreground)
//Storyboard Layer 4 (Overlay)
//Storyboard Sound Samples

[TimingPoints]
89,387.096774193548,4,2,5,55,1,0
476,-105.263157894737,4,2,5,55,0,0
3185,387.096774193548,4,2,5,55,1,0
3185,-86.9565217391304,4,2,5,55,0,0
4540,-153.846153846154,4,2,5,55,0,0
6282,-86.9565217391304,4,2,5,55,0,0
7637,-153.846153846154,4,2,5,55,0,0
9379,-76.9230769230769,4,2,5,55,0,0
10734,-100,4,2,5,55,0,0
11314,-76.9230769230769,4,2,5,55,0,0
12476,-86.9565217391304,4,2,5,55,0,0
16927,-153.846153846154,4,2,5,55,0,0
18669,-86.9565217391305,4,2,5,55,0,0
20024,-153.846153846154,4,2,5,55,0,0
21766,-76.9230769230769,4,2,5,55,0,0
23121,-86.9565217391304,4,2,5,55,0,0
23701,-76.9230769230769,4,2,5,55,0,0
27379,-86.9565217391304,4,2,5,55,0,0
27959,-66.6666666666667,4,2,5,65,0,0
28347,-66.6666666666667,4,2,5,65,0,0
29508,-60.6060606060606,4,2,5,65,0,0
32218,-60.6060606060606,4,2,5,65,0,0
33766,-66.6666666666667,4,2,5,65,0,0
37250,-62.5,4,2,5,65,0,0
39379,-76.9230769230769,4,2,5,65,0,0
40347,-66.6666666666667,4,2,5,65,0,0
40734,-66.6666666666667,4,2,5,65,0,0
46153,-100,4,2,5,65,0,0
46476,-100,4,2,5,5,0,0
46540,-50,4,2,5,65,0,0
47121,-66.6666666666667,4,2,5,65,0,0
52734,-50,4,2,5,85,0,0
54282,-55.5555555555556,4,2,5,85,0,0
56605,-50,4,2,5,85,0,0
57379,-55.5555555555556,4,2,5,85,0,0
58927,-50,4,2,5,85,0,0
61250,-55.5555555555556,4,2,5,85,0,0
63959,-66.6666666666667,4,2,5,85,0,0
65121,-50,4,2,5,85,0,0
66652,-55.5555555555556,4,2,5,85,0,0
68218,-50,4,2,5,85,0,0
69766,-55.5555555555556,4,2,5,85,0,0
71314,-50,4,2,5,85,0,0
74024,-55.5555555555556,4,2,5,85,0,0
76927,-50,4,2,5,85,0,0
77508,-285.714285714286,4,2,5,85,0,0
88347,-285.714285714286,4,2,5,55,0,0
89314,-100,4,2,5,55,0,0
89895,-66.6666666666667,4,2,5,65,0,0
94347,-57.1428571428571,4,2,5,65,0,0
94927,-66.6666666666667,4,2,5,65,0,0
96089,-57.1428571428571,4,2,5,65,0,0
96476,-55.5555555555556,4,2,5,65,0,0
96669,-66.6666666666667,4,2,5,65,0,0
97443,-57.1428571428571,4,2,5,65,0,0
98411,-66.6666666666667,4,2,5,65,0,0
101121,-50,4,2,5,65,0,0
101701,-66.6666666666667,4,2,5,65,0,0
102282,-50,4,2,5,85,0,0
103830,-55.5555555555556,4,2,5,85,0,0
106927,-55.5555555555556,4,2,5,85,0,0
108476,-50,4,2,5,85,0,0
110024,-55.5555555555556,4,2,5,85,0,0
113508,-66.6666666666667,4,2,5,85,0,0
114669,-45.4545454545455,4,2,5,85,0,0
116218,-55.5555555555556,4,2,5,85,0,0
122411,-55.5555555555556,4,2,5,85,0,0
139443,-90.9090909090909,4,2,5,60,0,0
142927,-90.9090909090909,4,2,5,60,0,0
154153,-111.111111111111,4,2,5,60,0,0
154928,387.096774193548,4,2,5,85,1,0
154928,-50,4,2,5,85,0,0
156089,-50,4,2,5,85,0,0
159572,-55.5555555555556,4,2,5,85,0,0
161121,-50,4,2,5,85,0,0
162282,-55.5555555555556,4,2,5,85,0,0
167314,-50,4,2,5,85,0,0
167701,-55.5555555555556,4,2,5,85,0,0
170411,-50,4,2,5,85,0,0
171572,-55.5555555555556,4,2,5,85,0,0
171959,-50,4,2,5,85,0,0
173508,-45.4545454545455,4,2,5,85,0,0
173895,-55.5555555555556,4,2,5,85,0,0
179701,-166.666666666666,4,2,5,85,0,0

[Colours]
Combo1 : 184,220,220
Combo2 : 231,222,175
Combo3 : 255,168,168
Combo4 : 228,208,177

[HitObjects]
281,316,89,5,0,0:0:0:0:
281,316,282,1,0,0:0:0:0:
349,359,476,2,0,L|404:370,1,42.7499988584519,8|0,0:0|0:0,0:0:0:0:
508,239,863,5,0,0:0:0:0:
508,239,1056,1,0,0:0:0:0:
442,283,1250,2,0,L|397:292,1,42.7499988584519,8|0,0:0|0:0,0:0:0:0:
222,181,1637,5,0,0:0:0:0:
222,181,1830,1,0,0:0:0:0:
290,224,2024,2,0,L|345:235,1,42.7499988584519,8|0,0:0|0:0,0:0:0:0:
222,181,2411,1,0,0:0:0:0:
198,369,2605,5,8,0:0:0:0:
322,310,2798,1,8,0:0:0:0:
116,245,2992,1,8,0:0:0:0:
116,245,3089,1,8,0:0:0:0:
116,245,3185,6,0,P|111:226|97:162,1,77.6250014805794,2|0,0:0|0:0,0:0:0:0:
94,153,3572,1,10,0:0:0:0:
0,130,3766,2,0,L|14:192,1,51.7500009870529
124,75,4153,2,0,L|70:71,1,51.7500009870529,2|8,0:0|0:0,0:0:0:0:
183,191,4540,6,0,L|281:169,1,87.749995983124,2|0,0:0|0:0,0:0:0:0:
373,260,5895,5,8,0:0:0:0:
421,97,6089,1,2,0:0:0:0:
498,188,6282,6,0,P|452:180|408:179,1,77.6250014805794,2|0,0:0|0:0,0:0:0:0:
401,185,6669,1,10,0:0:0:0:
328,123,6863,2,0,L|319:69,1,51.7500009870529
401,6,7250,1,2,0:0:0:0:
401,6,7443,1,8,0:0:0:0:
262,174,7637,6,0,P|275:221|278:268,1,87.749995983124,2|0,0:0|0:0,0:0:0:0:
126,381,8992,5,8,0:0:0:0:
11,223,9185,1,0,3:0:0:0:
11,223,9282,1,8,0:0:0:0:
11,223,9379,6,0,L|75:197,1,58.4999973220826,2|2,0:0|0:0,0:0:0:0:
213,313,9766,2,0,L|143:301,1,58.4999973220826,8|2,0:0|0:0,0:0:0:0:
66,325,10153,1,2,0:0:0:0:
159,165,10347,2,0,L|149:222,1,58.4999973220826,2|8,0:0|0:0,0:0:0:0:
354,233,10734,6,0,P|357:174|362:139,1,90,2|2,0:0|0:0,0:0:0:0:
450,18,11314,1,8,0:0:0:0:
491,99,11508,1,2,0:0:0:0:
345,52,11701,1,2,0:0:0:0:
445,173,11895,1,2,0:0:0:0:
280,244,12089,2,0,L|291:302,1,58.4999973220826,8|2,0:0|0:0,0:0:0:0:
505,368,12476,6,0,L|407:356,1,77.6250014805794,2|0,0:0|0:0,0:0:0:0:
407,354,12863,1,8,0:0:0:0:
308,384,13056,1,2,0:0:0:0:
333,299,13250,1,2,0:0:0:0:
483,288,13443,1,2,0:0:0:0:
358,194,13637,1,8,0:0:0:0:
250,319,13830,6,0,P|245:261|221:199,1,103.500001974106,2|2,0:0|0:0,0:0:0:0:
419,115,14411,2,0,L|470:120,1,51.7500009870529,8|2,0:0|0:0,0:0:0:0:
379,36,14798,1,2,0:0:0:0:
430,235,14992,5,8,0:0:0:0:
259,72,15185,1,8,0:0:0:0:
485,9,15379,1,10,0:0:0:0:
365,116,15572,6,0,L|358:194,1,77.6250014805794,2|0,0:0|0:0,0:0:0:0:
357,210,15959,1,10,0:0:0:0:
270,262,16153,2,0,L|277:327,1,51.7500009870529
199,192,16540,2,0,L|249:182,1,51.7500009870529,2|8,0:0|0:0,0:0:0:0:
201,366,16927,6,0,P|170:356|104:348,1,87.749995983124,2|0,0:0|0:0,0:0:0:0:
0,229,18282,5,8,0:0:0:0:
43,384,18476,1,2,0:0:0:0:
101,272,18669,6,0,L|107:187,1,77.6250014805794,2|0,0:0|0:0,0:0:0:0:
108,177,19056,1,10,0:0:0:0:
50,104,19250,2,0,L|0:114,1,51.7500009870529
49,12,19637,1,2,0:0:0:0:
134,49,19830,1,8,0:0:0:0:
188,225,20024,6,0,P|235:226|281:236,1,87.749995983124,2|0,0:0|0:0,0:0:0:0:
406,133,21379,5,8,0:0:0:0:
395,290,21573,1,0,3:0:0:0:
395,290,21669,1,8,0:0:0:0:
395,290,21766,2,0,L|390:358,1,58.4999973220826,2|2,0:0|0:0,0:0:0:0:
451,215,22153,2,0,L|521:210,1,58.4999973220826,8|2,0:0|0:0,0:0:0:0:
487,296,22540,1,2,0:0:0:0:
335,181,22734,2,0,L|324:123,1,58.4999973220826,2|8,0:0|0:0,0:0:0:0:
309,309,23121,6,0,P|257:309|206:322,1,103.500001974106,2|2,0:0|0:0,0:0:0:0:
78,374,23701,1,8,0:0:0:0:
107,284,23895,1,2,0:0:0:0:
0,317,24089,1,2,0:0:0:0:
43,185,24282,1,2,0:0:0:0:
222,240,24476,2,0,L|213:181,1,58.4999973220826,8|2,0:0|0:0,0:0:0:0:
112,11,24863,6,0,P|108:64|106:118,1,87.749995983124,2|0,0:0|0:0,0:0:0:0:
106,115,25250,1,8,0:0:0:0:
19,56,25443,1,2,0:0:0:0:
30,163,25637,1,2,0:0:0:0:
200,94,25830,1,2,0:0:0:0:
147,253,26024,1,8,0:0:0:0:
0,384,26218,6,0,B|110:386|51:319|165:337,1,175.499991966248,2|8,0:0|0:0,0:0:0:0:
235,296,26992,1,2,0:0:0:0:
253,377,27185,1,2,0:0:0:0:
3,263,27379,5,8,0:0:0:0:
178,104,27573,1,8,0:0:0:0:
0,12,27766,1,10,0:0:0:0:
210,177,27959,6,0,P|239:171|305:163,1,67.5000025749208,4|0,3:2|0:0,0:0:0:0:
39,130,28347,2,0,P|72:134|105:141,1,67.5000025749208,10|0,0:0|0:0,0:0:0:0:
355,72,28734,5,2,3:2:0:0:
295,257,28927,1,0,3:2:0:0:
238,85,29121,6,0,B|236:69|236:69|234:64|234:64|227:19,1,67.5000025749207,10|0,0:0|3:2,0:0:0:0:
363,201,29508,2,0,P|382:259|384:313,1,74.2500007081032,2|2,0:0|3:2,0:0:0:0:
391,302,29798,1,2,0:0:0:0:
391,302,29895,5,10,0:2:0:0:
274,167,30089,1,2,0:2:0:0:
470,240,30282,1,2,3:2:0:0:
322,384,30476,1,2,3:2:0:0:
477,227,30669,2,0,P|443:219|400:215,1,74.2500007081032,10|0,0:0|3:0,0:0:0:0:
226,18,31056,6,0,P|236:55|251:140,1,111.375001062155
191,222,31443,2,0,P|186:190|172:144,1,74.2500007081031,10|0,0:0|0:0,0:0:0:0:
18,54,31830,1,2,3:2:0:0:
86,242,32024,1,0,3:2:0:0:
156,69,32218,6,0,B|194:61|194:61|199:59|199:59|251:47,1,74.2500007081032,10|0,0:2|3:2,0:0:0:0:
0,179,32605,2,0,P|33:168|105:162,1,74.2500007081032,2|2,3:2|0:2,0:0:0:0:
99,172,32895,1,2,0:0:0:0:
99,172,32992,5,10,0:2:0:0:
157,10,33185,1,2,3:2:0:0:
213,208,33379,1,2,3:2:0:0:
89,84,33572,1,2,3:2:0:0:
303,193,33766,2,0,P|299:225|290:266,1,67.5000025749208,10|0,0:2|3:2,0:0:0:0:
124,340,34153,5,2,3:2:0:0:
213,208,34347,1,2,0:2:0:0:
197,384,34540,1,10,0:2:0:0:
126,242,34734,1,2,0:0:0:0:
341,358,34927,6,0,L|261:336,1,67.5000025749208,2|0,3:2|3:2,0:0:0:0:
59,255,35314,2,0,L|125:242,1,67.5000025749208,10|0,0:2|3:2,0:0:0:0:
282,68,35701,5,2,0:2:0:0:
200,124,35895,1,2,3:2:0:0:
347,190,36089,1,10,0:2:0:0:
201,303,36282,1,2,0:2:0:0:
85,129,36476,6,0,L|91:36,1,67.5000025749208,2|0,3:2|3:0,0:0:0:0:
269,172,36863,2,0,L|261:261,1,67.5000025749208,10|0,0:0|3:0,0:0:0:0:
462,87,37250,6,0,P|416:95|341:116,1,108,2|0,0:0|0:0,0:0:0:0:
269,172,37637,2,0,P|211:155|193:152,1,72,8|0,0:2|0:0,0:0:0:0:
257,384,38024,5,0,3:0:0:0:
339,244,38218,1,0,3:2:0:0:
480,302,38411,1,8,0:0:0:0:
257,384,38605,6,0,P|242:324|247:236,1,144,0|0,3:2|0:0,0:0:0:0:
324,326,39185,1,8,0:0:0:0:
175,366,39379,2,0,P|169:335|172:286,1,58.4999973220826,0|0,3:2|3:2,0:0:0:0:
344,139,39766,5,8,3:2:0:0:
92,235,39959,1,8,0:0:0:0:
324,326,40153,1,8,0:2:0:0:
205,104,40347,6,0,P|209:132|219:172,1,67.5000025749208,4|0,3:2|0:0,0:0:0:0:
392,384,40734,2,0,P|405:346|410:293,1,67.5000025749208,10|0,0:2|0:0,0:0:0:0:
512,178,41121,5,2,3:2:0:0:
329,244,41314,1,0,3:2:0:0:
512,273,41508,2,0,P|462:250|430:236,1,67.5000025749208,10|0,0:2|3:2,0:0:0:0:
283,127,41895,2,0,P|341:120|381:113,1,67.5000025749208,2|2,0:0|3:2,0:0:0:0:
368,114,42185,1,2,0:0:0:0:
368,114,42282,5,10,0:2:0:0:
234,34,42476,1,2,0:2:0:0:
234,223,42669,1,2,3:2:0:0:
344,32,42863,1,2,3:2:0:0:
138,99,43056,2,0,P|145:131|151:167,1,67.5000025749208,10|0,0:2|3:0,0:0:0:0:
0,253,43443,6,0,L|66:241,1,67.5000025749208,0|0,0:0|3:0,0:0:0:0:
310,336,43830,2,0,P|276:329|244:325,1,67.5000025749208,10|0,0:0|0:0,0:0:0:0:
150,165,44218,1,2,3:2:0:0:
84,356,44411,1,0,3:2:0:0:
253,189,44605,6,0,B|242:154|240:92,1,67.5000025749208,10|0,0:0|3:2,0:0:0:0:
391,318,44992,2,0,P|381:286|378:222,1,67.5000025749208,2|2,3:2|0:2,0:0:0:0:
382,234,45282,1,2,0:0:0:0:
382,234,45379,5,10,0:2:0:0:
463,74,45572,1,2,3:2:0:0:
320,136,45766,1,2,3:2:0:0:
499,223,45959,1,2,3:2:0:0:
306,369,46153,6,0,P|296:343|314:361,1,67.4999999999999,10|0,0:2|0:0,0:0:0:0:
288,384,46540,2,0,P|244:304|262:256,1,135,2|0,3:2|0:0,0:0:0:0:
265,252,46927,5,8,0:0:0:0:
325,184,47121,1,0,0:0:0:0:
382,304,47314,5,2,3:2:0:0:
238,170,47508,1,2,3:2:0:0:
444,63,47701,1,10,0:2:0:0:
401,223,47895,1,2,3:2:0:0:
188,106,48089,2,0,P|239:90|278:101,1,67.5000025749208,2|0,0:2|3:0,0:0:0:0:
421,302,48476,2,0,P|377:301|351:288,1,67.5000025749208,8|0,0:0|0:0,0:0:0:0:
191,329,48863,5,2,3:2:0:0:
336,155,49056,1,2,3:2:0:0:
135,224,49250,1,10,0:2:0:0:
298,360,49443,1,2,3:2:0:0:
415,199,49637,2,0,P|425:171|421:111,1,67.5000025749208,2|0,0:2|3:0,0:0:0:0:
259,20,50024,5,10,0:2:0:0:
244,105,50218,1,2,0:2:0:0:
139,13,50411,5,2,3:2:0:0:
334,60,50605,1,2,3:2:0:0:
177,165,50798,1,10,0:2:0:0:
266,215,50992,1,2,3:2:0:0:
266,215,51089,1,0,0:0:0:0:
266,215,51185,5,2,0:3:0:0:
239,286,51572,5,2,0:3:0:0:
304,329,51959,5,2,0:3:0:0:
247,384,52153,5,8,0:2:0:0:
268,201,52347,1,8,0:2:0:0:
290,20,52540,1,8,0:0:0:0:
351,263,52734,6,0,B|389:266|389:266|471:209|471:209|513:212,1,180,4|8,3:2|0:2,0:0:0:0:
268,201,53314,1,0,0:0:0:0:
482,294,53508,5,0,3:0:0:0:
319,122,53701,1,0,3:0:0:0:
486,4,53895,1,8,0:0:0:0:
407,205,54089,1,2,3:0:0:0:
232,109,54282,6,0,P|226:66|218:37,1,40.4999987640381,2|0,0:0|0:0,0:0:0:0:
332,43,54476,2,0,P|334:11|330:-14,1,40.4999987640381,2|0,3:2|0:0,0:0:0:0:
407,205,54669,2,0,P|414:158|413:97,1,80.9999975280763,10|2,0:2|3:2,0:0:0:0:
337,265,55056,5,2,3:2:0:0:
493,163,55250,1,0,3:0:0:0:
268,201,55443,1,10,0:2:0:0:
420,297,55637,1,2,3:0:0:0:
112,384,55830,6,0,B|81:341|81:341|87:220,1,161.999995056153,2|8,3:2|0:2,0:0:0:0:
105,148,56411,1,0,0:0:0:0:
175,306,56605,5,0,3:0:0:0:
187,51,56798,1,0,3:0:0:0:
4,243,56992,1,8,0:0:0:0:
263,106,57185,1,2,3:0:0:0:
48,64,57379,6,0,P|29:59|11:53,1,40.4999987640381,2|0,0:0|0:0,0:0:0:0:
218,180,57572,2,0,P|193:185|174:192,1,40.4999987640381,2|0,3:2|0:0,0:0:0:0:
343,36,57766,2,0,P|298:22|257:18,1,80.9999975280763,10|2,0:2|3:2,0:0:0:0:
55,157,58153,5,2,3:2:0:0:
261,99,58347,1,0,3:0:0:0:
11,233,58540,5,10,0:2:0:0:
330,144,58734,1,2,3:0:0:0:
135,0,58927,6,0,L|154:95,1,90,2|0,3:2|0:0,0:0:0:0:
195,270,59314,1,8,0:2:0:0:
233,177,59508,1,2,0:2:0:0:
82,376,59701,5,2,3:2:0:0:
292,256,59895,1,0,3:2:0:0:
102,173,60089,1,8,0:2:0:0:
256,384,60282,1,2,3:2:0:0:
316,176,60476,5,2,0:2:0:0:
144,252,60669,1,2,3:2:0:0:
330,336,60863,1,8,0:0:0:0:
220,202,61056,1,0,0:0:0:0:
173,378,61250,6,0,L|237:357,1,40.4999987640381,2|0,3:2|0:0,0:0:0:0:
392,275,61443,1,0,3:2:0:0:
67,163,61637,6,0,L|121:191,1,40.4999987640381,10|0,0:2|0:0,0:0:0:0:
254,283,61830,1,0,3:2:0:0:
279,15,62024,6,0,P|273:54|267:96,1,80.9999975280763,2|0,0:2|3:2,0:0:0:0:
266,115,62314,1,2,0:0:0:0:
266,115,62411,1,8,0:2:0:0:
254,198,62605,1,2,0:2:0:0:
349,73,62798,5,2,3:2:0:0:
147,15,62992,1,0,3:2:0:0:
350,93,63185,5,8,0:2:0:0:
170,231,63379,1,2,3:2:0:0:
349,384,63572,5,2,0:2:0:0:
375,379,63669,1,2,0:0:0:0:
400,384,63766,1,2,3:2:0:0:
423,384,63863,1,2,0:0:0:0:
444,384,63959,2,0,L|432:317,1,67.5000025749208,10|0,0:2|3:2,0:0:0:0:
267,260,64347,5,2,3:2:0:0:
511,337,64540,1,8,3:2:0:0:
127,295,64734,5,8,3:2:0:0:
374,230,64927,1,8,3:2:0:0:
162,18,65121,6,0,L|188:195,1,180,4|8,3:2|0:2,0:0:0:0:
88,109,65701,1,0,0:0:0:0:
285,171,65895,1,0,3:0:0:0:
108,322,66089,1,0,3:0:0:0:
263,89,66282,1,8,0:0:0:0:
44,259,66476,1,2,3:0:0:0:
239,331,66669,6,0,P|272:337|289:343,1,40.4999987640381,2|0,0:0|0:0,0:0:0:0:
387,372,66863,2,0,P|367:376|344:383,1,40.4999987640381,2|0,3:2|0:0,0:0:0:0:
44,259,67056,2,0,P|87:242|129:233,1,80.9999975280763,10|2,0:2|3:2,0:0:0:0:
263,89,67443,5,2,3:2:0:0:
210,249,67637,1,0,3:0:0:0:
356,39,67830,1,10,0:2:0:0:
421,286,68024,1,2,3:0:0:0:
263,171,68218,6,0,B|286:198|286:198|307:349,1,180,2|8,3:2|0:2,0:0:0:0:
229,384,68798,1,0,0:0:0:0:
375,266,68992,1,0,3:0:0:0:
124,297,69185,1,0,3:0:0:0:
318,122,69379,1,8,0:0:0:0:
214,302,69572,1,2,3:0:0:0:
6,208,69766,6,0,L|0:169,1,40.4999987640381,2|0,0:0|0:0,0:0:0:0:
79,149,69959,2,0,L|85:188,1,40.4999987640381,2|0,3:2|0:0,0:0:0:0:
210,383,70153,2,0,L|215:302,1,80.9999975280763,10|2,0:2|3:2,0:0:0:0:
184,104,70540,5,2,3:2:0:0:
132,278,70734,1,0,3:0:0:0:
134,33,70927,5,10,0:2:0:0:
60,333,71121,1,2,3:0:0:0:
261,189,71314,6,0,P|305:184|349:175,1,90,2|0,3:2|0:0,0:0:0:0:
370,62,71701,1,8,0:2:0:0:
268,106,71895,1,2,0:2:0:0:
425,204,72089,5,2,3:2:0:0:
301,2,72282,1,0,3:2:0:0:
512,56,72476,1,8,0:2:0:0:
311,209,72669,1,2,3:2:0:0:
406,26,72863,5,2,0:2:0:0:
507,150,73056,1,2,3:2:0:0:
344,100,73250,1,8,0:0:0:0:
507,25,73443,1,0,0:0:0:0:
425,191,73637,6,0,L|355:172,1,45,2|0,3:2|0:0,0:0:0:0:
192,125,73830,1,0,3:2:0:0:
396,299,74024,6,0,L|358:240,1,40.4999987640381,10|0,0:2|0:0,0:0:0:0:
257,45,74218,1,0,3:2:0:0:
210,311,74411,6,0,L|222:229,1,80.9999975280763,2|0,0:2|3:2,0:0:0:0:
228,216,74701,1,2,0:0:0:0:
226,216,74798,1,8,0:2:0:0:
238,127,74992,1,2,0:2:0:0:
139,239,75185,5,2,3:2:0:0:
308,187,75379,1,0,3:2:0:0:
126,255,75572,5,8,0:2:0:0:
318,371,75766,1,2,3:2:0:0:
436,188,75959,5,2,3:2:0:0:
436,165,76056,1,2,0:0:0:0:
447,144,76153,1,2,3:2:0:0:
445,120,76250,1,2,0:0:0:0:
454,98,76347,2,0,L|476:9,1,80.9999975280763,10|2,0:2|3:2,0:0:0:0:
347,194,76734,6,0,L|286:182,1,40.4999987640381,2|0,3:2|0:0,0:0:0:0:
167,51,76927,2,0,L|124:63,1,45,8|0,3:2|0:0,0:0:0:0:
44,203,77121,1,8,3:2:0:0:
256,104,77314,1,8,3:2:0:0:
372,287,77508,6,0,B|373:290|373:290|373:293|373:293|376:296|376:296|375:300|375:300|376:304|376:304|376:307|376:307|378:309|378:309|378:313|378:313|379:316,1,31.4999990386963,6|0,0:0|0:0,0:0:0:0:
200,162,88347,5,8,0:0:0:0:
200,162,88734,1,8,0:0:0:0:
494,117,89121,5,8,3:2:0:0:
509,29,89314,1,8,3:2:0:0:
423,14,89508,1,8,3:2:0:0:
408,101,89701,1,10,3:2:0:0:
145,230,89895,6,0,L|79:242,1,67.5000025749208,4|2,3:2|0:0,0:0:0:0:
325,132,90282,1,8,0:2:0:0:
272,291,90476,2,0,L|260:210,1,67.5000025749208,2|0,0:2|3:2,0:0:0:0:
234,43,90863,1,2,3:2:0:0:
112,148,91056,1,8,0:2:0:0:
351,242,91250,6,0,L|440:249,1,67.5000025749208,2|0,3:2|0:0,0:0:0:0:
492,188,91637,1,2,3:2:0:0:
281,360,91830,2,0,L|271:290,1,67.5000025749208,8|2,3:2|0:2,0:0:0:0:
410,128,92218,6,0,L|405:180,1,33.7500012874604,0|0,3:2|0:0,0:0:0:0:
497,301,92411,2,0,L|502:268,1,33.7500012874604,2|0,3:2|0:0,0:0:0:0:
394,115,92605,2,0,L|386:196,1,67.5000025749208,8|2,0:0|3:2,0:0:0:0:
511,98,92992,5,2,3:0:0:0:
471,24,93185,1,2,0:0:0:0:
307,127,93379,1,10,3:2:0:0:
343,33,93572,1,2,3:0:0:0:
236,191,93766,6,0,L|180:189,1,33.7500012874604,0|0,3:0|0:0,0:0:0:0:
327,251,93959,2,0,L|360:254,1,33.7500012874604,2|0,3:2|0:0,0:0:0:0:
241,179,94153,1,8,0:2:0:0:
36,351,94347,6,0,P|10:288|-3:193,1,157.500001502037,2|2,3:2|0:0,0:0:0:0:
121,71,94927,2,0,P|136:111|143:140,1,67.5000025749208,8|2,0:0|3:2,0:0:0:0:
0,24,95314,5,2,0:2:0:0:
100,218,95508,1,2,3:2:0:0:
224,78,95701,1,10,0:2:0:0:
326,151,95895,1,2,0:0:0:0:
326,151,95992,1,2,0:0:0:0:
326,151,96089,6,0,P|380:174|450:169,1,118.125001126528,0|0,3:2|0:0,0:0:0:0:
460,160,96476,1,8,0:2:0:0:
492,85,96669,1,0,0:0:0:0:
349,243,96863,5,2,3:2:0:0:
228,96,97056,1,2,3:2:0:0:
221,68,97153,1,2,0:0:0:0:
215,43,97250,1,10,0:2:0:0:
361,161,97443,6,0,P|294:158|203:220,1,157.500001502037,2|2,3:2|3:2,0:0:0:0:
123,340,98024,2,0,P|152:346|205:321,1,78.7500007510185,10|0,0:2|0:0,0:0:0:0:
81,155,98411,6,0,L|75:121,1,33.7500012874604,2|0,3:2|0:0,0:0:0:0:
0,134,98605,2,0,L|4:168,1,33.7500012874604,2|0,3:2|0:1,0:0:0:0:
91,241,98798,2,0,L|170:254,1,67.5000025749208,8|2,0:0|3:2,0:0:0:0:
14,368,99185,5,4,3:2:0:0:
170,148,99572,1,4,3:2:0:0:
0,40,100153,5,4,3:2:0:0:
344,183,100540,1,4,3:2:0:0:
413,131,100734,5,2,0:3:0:0:
425,208,100927,1,0,0:0:0:0:
493,109,101121,1,2,0:3:0:0:
510,232,101314,1,0,0:0:0:0:
334,101,101508,5,2,0:3:0:0:
510,232,101702,1,8,0:2:0:0:
297,363,101894,1,8,0:2:0:0:
141,194,102089,1,8,0:0:0:0:
321,15,102282,6,0,B|361:82|361:82|343:184,1,180,4|8,3:2|0:2,0:0:0:0:
324,272,102863,1,0,0:0:0:0:
272,106,103056,5,0,3:0:0:0:
404,311,103250,1,0,3:0:0:0:
489,143,103443,1,8,0:0:0:0:
262,212,103637,1,2,3:0:0:0:
482,349,103830,6,0,P|486:324|484:277,1,40.4999987640381,2|0,0:0|0:0,0:0:0:0:
409,228,104024,2,0,P|406:197|392:157,1,40.4999987640381,2|0,3:2|0:0,0:0:0:0:
312,384,104218,2,0,P|316:344|299:286,1,80.9999975280763,10|2,0:2|3:2,0:0:0:0:
81,118,104605,5,2,3:2:0:0:
60,304,104798,1,0,3:0:0:0:
188,151,104992,1,10,0:2:0:0:
6,209,105185,1,2,3:0:0:0:
297,339,105379,6,0,B|340:360|340:360|464:345,1,161.999995056153,2|8,3:2|0:2,0:0:0:0:
274,251,105959,1,0,0:0:0:0:
452,65,106153,1,0,3:0:0:0:
376,279,106347,1,0,3:0:0:0:
267,67,106540,1,8,0:0:0:0:
508,150,106734,1,2,3:0:0:0:
230,384,106927,6,0,P|226:365|219:346,1,40.4999987640381,2|0,0:0|0:0,0:0:0:0:
300,246,107121,2,0,P|305:227|310:201,1,40.4999987640381,2|0,3:2|0:0,0:0:0:0:
140,160,107314,2,0,P|128:114|116:77,1,80.9999975280763,10|2,0:2|3:2,0:0:0:0:
227,213,107701,5,2,3:2:0:0:
424,260,107895,1,0,3:0:0:0:
195,103,108089,5,10,0:2:0:0:
0,164,108282,1,2,3:0:0:0:
140,358,108476,6,0,P|131:322|127:269,1,90,2|0,3:2|0:0,0:0:0:0:
269,152,108863,1,8,0:2:0:0:
178,190,109056,1,2,0:2:0:0:
405,90,109250,5,2,3:2:0:0:
167,15,109443,1,0,3:2:0:0:
267,243,109637,1,8,0:2:0:0:
350,11,109830,1,2,3:2:0:0:
185,100,110024,5,2,0:2:0:0:
332,173,110218,1,2,3:2:0:0:
179,213,110411,1,8,0:0:0:0:
291,87,110605,1,0,0:0:0:0:
454,274,110798,6,0,L|400:247,1,40.4999987640381,2|0,3:2|0:0,0:0:0:0:
249,160,110992,1,0,3:2:0:0:
82,362,111185,6,0,L|147:340,1,40.4999987640381,10|0,0:2|0:0,0:0:0:0:
269,250,111379,1,0,3:2:0:0:
51,84,111572,6,0,P|60:123|67:163,1,80.9999975280763,2|0,0:2|3:2,0:0:0:0:
73,182,111863,1,2,0:0:0:0:
73,182,111959,1,8,0:2:0:0:
94,267,112153,1,2,0:2:0:0:
152,65,112347,5,2,3:2:0:0:
0,225,112540,1,0,3:2:0:0:
167,46,112734,5,8,0:2:0:0:
249,267,112927,1,2,3:2:0:0:
425,156,113121,5,2,0:2:0:0:
425,131,113218,1,2,0:0:0:0:
436,109,113315,1,2,3:2:0:0:
442,86,113410,1,2,0:0:0:0:
440,66,113508,2,0,L|454:0,1,67.5000025749208,8|0,0:2|3:2,0:0:0:0:
286,162,113895,5,2,3:2:0:0:
501,219,114089,1,8,3:2:0:0:
122,329,114282,5,8,3:2:0:0:
361,220,114476,1,8,3:2:0:0:
70,7,114669,6,0,P|102:96|123:217,1,198.000006042481,4|8,3:2|0:2,0:0:0:0:
189,105,115250,1,0,0:0:0:0:
2,193,115443,1,0,3:0:0:0:
195,260,115637,1,0,3:0:0:0:
4,81,115830,1,8,0:0:0:0:
77,328,116024,1,2,3:0:0:0:
255,177,116218,6,0,P|276:172|294:169,1,40.4999987640381,2|0,0:0|0:0,0:0:0:0:
380,253,116411,2,0,P|361:248|338:243,1,40.4999987640381,2|0,3:2|0:0,0:0:0:0:
77,328,116605,2,0,P|122:338|169:347,1,80.9999975280763,10|2,0:2|3:2,0:0:0:0:
355,378,116992,5,2,3:2:0:0:
197,270,117185,1,0,3:0:0:0:
383,170,117379,1,10,0:2:0:0:
264,343,117572,1,2,3:0:0:0:
110,237,117766,6,0,P|91:158|85:75,1,161.999995056153,2|8,3:2|0:2,0:0:0:0:
131,1,118347,1,0,0:0:0:0:
0,140,118540,1,0,3:0:0:0:
240,56,118734,1,0,3:0:0:0:
8,249,118927,1,8,0:0:0:0:
163,101,119121,1,2,3:0:0:0:
306,218,119314,6,0,L|312:260,1,40.4999987640381,2|0,0:0|0:0,0:0:0:0:
393,246,119508,2,0,L|388:206,1,40.4999987640381,2|0,3:2|0:0,0:0:0:0:
163,101,119701,2,0,L|173:189,1,80.9999975280763,10|2,0:2|3:2,0:0:0:0:
367,324,120089,5,2,3:2:0:0:
471,152,120282,1,0,3:0:0:0:
457,384,120476,5,10,0:2:0:0:
395,105,120669,1,2,3:0:0:0:
224,277,120863,6,0,P|182:290|133:296,1,80.9999975280763,2|0,3:2|0:0,0:0:0:0:
61,196,121250,1,8,0:2:0:0:
153,216,121443,1,2,0:2:0:0:
0,305,121637,5,2,3:2:0:0:
129,119,121830,1,0,3:2:0:0:
141,380,122024,1,8,0:2:0:0:
11,191,122218,1,2,3:2:0:0:
239,219,122411,5,2,0:2:0:0:
83,267,122605,1,2,3:2:0:0:
184,134,122798,1,8,0:0:0:0:
182,304,122992,1,0,0:0:0:0:
377,135,123185,6,0,L|310:159,1,40.4999987640381,2|0,3:2|0:0,0:0:0:0:
153,216,123379,1,0,3:2:0:0:
383,311,123572,6,0,L|316:287,1,40.4999987640381,10|0,0:2|0:0,0:0:0:0:
100,150,123766,1,0,3:2:0:0:
169,384,123959,6,0,L|185:287,1,80.9999975280763,2|0,0:2|3:2,0:0:0:0:
189,289,124250,1,2,0:0:0:0:
189,289,124347,1,8,0:2:0:0:
204,199,124540,1,2,0:2:0:0:
281,337,124734,5,2,3:2:0:0:
58,274,124927,1,0,3:2:0:0:
294,222,125121,5,8,0:2:0:0:
79,384,125314,1,2,3:2:0:0:
101,174,125508,5,2,3:2:0:0:
101,148,125605,1,2,0:0:0:0:
92,124,125701,1,2,3:2:0:0:
95,101,125798,1,2,0:0:0:0:
95,80,125895,2,0,P|88:46|85:-4,1,80.9999975280763,8|0,0:2|3:2,0:0:0:0:
272,72,126282,5,2,3:2:0:0:
0,188,126476,1,8,3:2:0:0:
266,334,126669,5,8,3:2:0:0:
256,192,137508,12,0,139250,0:0:0:0:
343,235,139443,6,0,P|352:267|358:303,1,49.5000015106202,2|2,0:3|0:0,0:0:0:0:
327,366,139830,1,2,0:3:0:0:
370,287,140024,2,0,P|371:248|372:220,1,49.5000015106202,2|2,0:0|0:3,0:0:0:0:
454,344,140411,1,2,0:0:0:0:
454,344,140604,1,2,0:3:0:0:
268,286,140798,6,0,L|168:269,1,99.0000030212403,2|2,0:0|0:0,0:0:0:0:
275,180,141379,1,2,0:3:0:0:
188,254,141572,2,0,L|101:320,1,99.0000030212403,2|2,0:0|0:0,0:0:0:0:
1,193,142153,5,2,0:3:0:0:
91,219,142347,1,2,0:0:0:0:
268,286,142540,2,0,L|327:304,1,49.5000015106202,2|2,0:3|0:0,0:0:0:0:
186,272,142927,5,2,0:3:0:0:
224,197,143121,1,2,0:0:0:0:
301,365,143314,1,2,0:3:0:0:
186,285,143508,1,2,0:0:0:0:
312,218,143701,1,2,0:3:0:0:
472,367,143895,6,0,P|464:322|451:261,1,99.0000030212403,2|2,0:0|0:0,0:0:0:0:
443,188,144476,1,2,0:3:0:0:
443,188,144669,1,2,0:0:0:0:
343,237,144863,6,0,L|368:234,1,24.7500007553101,2|0,0:3|0:0,0:0:0:0:
508,137,145056,1,2,0:0:0:0:
351,33,145250,6,0,L|356:71,1,24.7500007553101,2|0,0:3|0:0,0:0:0:0:
366,146,145443,1,2,0:0:0:0:
512,229,145637,5,2,0:3:0:0:
443,188,145830,1,2,0:0:0:0:
302,286,146024,2,0,L|229:292,1,49.5000015106202,2|2,0:3|0:0,0:0:0:0:
159,226,146411,1,2,0:3:0:0:
246,353,146605,2,0,L|233:292,1,49.5000015106202,2|2,0:0|0:3,0:0:0:0:
39,162,146992,6,0,P|103:162|138:132,1,99.0000030212403,2|2,0:0|0:0,0:0:0:0:
197,63,147572,2,0,P|220:55|250:56,1,49.5000015106202,2|2,0:3|0:0,0:0:0:0:
181,213,147959,5,2,0:3:0:0:
71,92,148153,1,2,0:0:0:0:
225,137,148347,1,2,0:3:0:0:
86,74,148540,1,2,0:0:0:0:
102,232,148734,2,0,P|101:256|105:286,1,49.5000015106202,2|2,0:3|0:0,0:0:0:0:
356,381,149121,5,2,0:3:0:0:
412,311,149314,1,2,0:0:0:0:
485,359,149508,1,2,0:3:0:0:
512,278,149701,1,2,0:0:0:0:
369,171,149895,5,2,0:3:0:0:
485,359,150089,1,2,0:0:0:0:
281,271,150282,5,2,0:3:0:0:
481,195,150476,1,2,0:0:0:0:
365,321,150669,1,2,0:3:0:0:
448,285,150863,1,2,0:0:0:0:
240,185,151056,5,2,0:3:0:0:
287,369,151250,1,2,0:0:0:0:
470,146,151443,5,2,0:3:0:0:
433,384,151637,1,2,0:0:0:0:
368,237,153379,6,0,P|334:224|302:216,1,49.5000015106202,2|0,0:3|0:0,0:0:0:0:
213,160,153766,2,0,P|253:156|275:148,1,49.5000015106202,2|0,0:3|0:0,0:0:0:0:
324,55,154153,5,2,0:3:0:0:
234,35,154347,1,0,0:0:0:0:
324,55,154540,2,0,L|331:114,1,40.4999987640381,2|0,0:3|0:0,0:0:0:0:
88,380,154928,6,0,P|66:346|66:293,1,90,4|0,3:2|0:0,0:0:0:0:
167,83,155314,1,8,0:2:0:0:
0,227,155508,1,0,0:0:0:0:
260,97,155701,1,0,3:0:0:0:
13,16,155895,1,0,3:0:0:0:
175,291,156089,2,0,L|183:232,1,45,8|0,0:0|0:0,0:0:0:0:
222,18,156282,1,2,3:0:0:0:
97,153,156476,6,0,P|59:162|26:178,1,45,2|0,0:0|0:0,0:0:0:0:
255,277,156669,2,0,P|277:281|298:292,1,45,2|0,3:2|0:0,0:0:0:0:
488,118,156863,2,0,P|432:129|380:153,1,90,10|2,0:2|3:2,0:0:0:0:
92,258,157250,5,2,3:2:0:0:
314,44,157443,1,0,3:0:0:0:
341,360,157637,1,10,0:2:0:0:
118,124,157830,1,2,3:0:0:0:
440,12,158024,6,0,P|456:64|443:113,1,90,2|0,3:2|3:0,0:0:0:0:
223,55,158411,1,8,0:2:0:0:
440,182,158605,1,0,0:0:0:0:
221,363,158798,1,0,3:0:0:0:
368,127,158992,1,0,3:0:0:0:
156,236,159185,6,0,L|214:265,1,45,8|0,0:0|0:0,0:0:0:0:
357,350,159379,1,2,3:0:0:0:
284,170,159572,6,0,P|278:141|272:101,1,40.4999987640381,2|0,0:0|0:0,0:0:0:0:
440,274,159766,2,0,P|388:262|364:262,1,40.4999987640381,2|0,3:2|0:0,0:0:0:0:
181,358,159959,2,0,P|200:350|220:346,1,40.4999987640381,10|0,0:2|0:0,0:0:0:0:
303,265,160153,1,2,3:2:0:0:
138,122,160347,5,2,3:2:0:0:
0,74,160540,1,0,3:0:0:0:
366,198,160734,5,10,0:2:0:0:
217,265,160927,1,2,3:0:0:0:
356,31,161121,6,0,P|398:17|442:6,1,90,2|0,3:2|0:0,0:0:0:0:
366,198,161508,1,8,0:2:0:0:
262,13,161701,1,2,0:2:0:0:
461,190,161895,1,2,3:2:0:0:
185,80,162089,1,0,3:2:0:0:
424,88,162282,6,0,L|399:153,1,40.4999987640381,8|0,0:2|0:0,0:0:0:0:
304,312,162476,1,2,3:2:0:0:
388,380,162669,5,2,0:2:0:0:
244,204,162863,1,2,3:2:0:0:
417,287,163056,1,8,0:0:0:0:
266,384,163250,1,0,0:0:0:0:
129,233,163443,6,0,L|195:252,1,40.4999987640381,2|0,3:2|0:0,0:0:0:0:
322,313,163637,1,0,3:2:0:0:
0,209,163830,6,0,L|66:187,1,40.4999987640381,10|0,0:2|0:0,0:0:0:0:
220,127,164024,1,0,3:2:0:0:
220,384,164218,6,0,P|234:328|242:291,1,80.9999975280763,2|0,0:2|3:2,0:0:0:0:
247,290,164508,1,2,0:0:0:0:
247,290,164605,1,8,0:2:0:0:
273,211,164798,1,2,0:2:0:0:
94,88,164992,5,2,3:2:0:0:
139,315,165185,1,0,3:2:0:0:
350,371,165379,6,0,L|292:352,1,40.4999987640381,8|0,0:2|0:0,0:0:0:0:
121,224,165572,1,2,3:2:0:0:
211,384,165766,5,2,0:2:0:0:
240,137,165959,1,0,3:2:0:0:
0,231,166153,1,10,0:2:0:0:
203,294,166347,1,0,3:2:0:0:
168,70,166540,5,2,3:2:0:0:
101,351,166734,1,8,3:2:0:0:
311,16,166927,5,8,3:2:0:0:
390,290,167121,1,8,3:2:0:0:
2,134,167314,5,4,3:2:0:0:
101,161,167508,1,0,0:0:0:0:
304,274,167701,1,8,0:2:0:0:
206,252,167895,1,0,0:0:0:0:
424,113,168089,5,0,3:0:0:0:
337,360,168282,1,0,3:0:0:0:
218,124,168476,2,0,L|287:150,1,40.4999987640381,8|0,0:0|0:0,0:0:0:0:
450,234,168669,1,2,3:0:0:0:
239,383,168863,6,0,P|242:365|241:339,1,40.4999987640381,2|0,0:0|0:0,0:0:0:0:
122,178,169056,2,0,P|120:210|128:237,1,40.4999987640381,2|0,3:2|0:0,0:0:0:0:
370,251,169250,2,0,P|302:268|272:277,1,80.9999975280763,10|2,0:2|3:2,0:0:0:0:
48,384,169637,6,0,L|69:315,1,40.4999987640381,2|0,3:2|0:0,0:0:0:0:
119,147,169830,1,0,3:0:0:0:
241,342,170024,6,0,L|188:321,1,40.4999987640381,10|0,0:2|0:0,0:0:0:0:
16,238,170218,1,2,3:0:0:0:
244,61,170411,6,0,P|230:110|224:169,1,90,2|0,3:2|3:0,0:0:0:0:
314,309,170798,1,8,0:2:0:0:
205,247,170992,1,0,0:0:0:0:
391,136,171185,1,0,3:0:0:0:
150,23,171379,1,0,3:0:0:0:
431,46,171572,6,0,P|411:50|392:54,1,40.4999987640381,8|0,0:0|0:0,0:0:0:0:
224,148,171766,1,2,3:0:0:0:
404,289,171959,6,0,P|419:255|421:214,1,45,2|0,0:0|0:0,0:0:0:0:
292,37,172153,2,0,P|288:61|294:85,1,45,2|0,3:2|0:0,0:0:0:0:
497,201,172347,2,0,P|473:174|434:173,1,45,10|0,0:2|0:0,0:0:0:0:
321,224,172540,1,2,3:2:0:0:
507,328,172734,5,2,3:2:0:0:
376,367,172927,1,0,3:0:0:0:
71,159,173121,5,10,0:2:0:0:
233,199,173314,1,2,3:0:0:0:
87,384,173508,6,0,P|64:327|71:277,1,99.0000030212403,2|0,3:2|0:0,0:0:0:0:
195,107,173895,1,8,0:2:0:0:
0,227,174089,1,2,0:2:0:0:
113,12,174282,1,2,3:2:0:0:
157,301,174476,1,0,3:2:0:0:
0,91,174669,6,0,L|71:76,1,40.4999987640381,8|0,0:2|0:0,0:0:0:0:
242,35,174863,1,2,3:2:0:0:
97,168,175056,1,2,0:2:0:0:
295,215,175250,1,2,3:2:0:0:
157,81,175443,1,8,0:0:0:0:
233,296,175637,1,0,0:0:0:0:
364,119,175830,6,0,L|296:139,1,40.4999987640381,2|0,3:2|0:0,0:0:0:0:
109,201,176024,1,0,3:2:0:0:
461,282,176218,6,0,L|393:262,1,40.4999987640381,10|0,0:2|0:0,0:0:0:0:
200,209,176412,1,0,3:2:0:0:
261,1,176605,6,0,P|251:67|245:111,1,80.9999975280763,2|0,0:2|3:2,0:0:0:0:
249,100,176895,1,2,0:0:0:0:
249,100,176992,1,8,0:2:0:0:
233,187,177185,1,2,0:2:0:0:
168,33,177379,5,2,3:2:0:0:
490,97,177572,1,0,3:2:0:0:
174,189,177766,6,0,L|237:167,1,40.4999987640381,8|0,0:2|0:0,0:0:0:0:
394,38,177959,1,2,3:2:0:0:
294,239,178153,5,2,3:2:0:0:
167,21,178347,1,0,3:2:0:0:
407,125,178540,2,0,P|396:167|390:209,1,80.9999975280763,10|0,0:2|3:2,0:0:0:0:
246,383,178927,5,2,3:2:0:0:
476,225,179121,1,8,3:2:0:0:
258,60,179314,5,8,3:2:0:0:
339,315,179508,1,8,3:2:0:0:
493,140,179701,5,6,0:0:0:0:
