osu file format v14

[General]
AudioFilename: audio.mp3
AudioLeadIn: 0
PreviewTime: 99131
Countdown: 1
SampleSet: Normal
StackLeniency: 0.7
Mode: 0
LetterboxInBreaks: 0
WidescreenStoryboard: 0

[Editor]
DistanceSpacing: 0.5
BeatDivisor: 4
GridSize: 4
TimelineZoom: 1

[Metadata]
Title:Where No One Goes (briman0094 remix)
TitleUnicode:Where No One Goes (briman0094 remix)
Artist:Jonsi
ArtistUnicode:Jonsi
Creator:AxE Galaxy
Version:Insane
Source:How to Train your Dragon
Tags:how to train your dragon httyd toothless night fury get out of our way
BeatmapID:1248086
BeatmapSetID:589655

[Difficulty]
HPDrainRate:7
CircleSize:4
OverallDifficulty:6
ApproachRate:9
SliderMultiplier:3
SliderTickRate:2

[Events]
//Background and Video events
0,0,"minea-juntura-nightfury.jpg",0,0
//Break Periods
2,68471,74315
//Storyboard Layer 0 (Background)
//Storyboard Layer 1 (Fail)
//Storyboard Layer 2 (Pass)
//Storyboard Layer 3 (Foreground)
//Storyboard Sound Samples

[TimingPoints]
1410,428.602043003072,4,1,0,100,1,0
1410,-133.333333333333,4,1,0,50,0,0
2267,-100,4,1,0,50,0,0
2670,-133.333333333333,4,1,0,50,0,0
4410,-100,4,1,0,50,0,0
4624,-133.333333333333,4,1,0,50,0,0
16411,-100,4,1,0,50,0,0
16625,-133.333333333333,4,1,0,50,0,0
17696,-86.9565217391304,4,1,0,50,0,0
17911,-133.333333333333,4,1,0,50,0,0
32697,-100,4,1,0,50,0,0
32912,-133.333333333333,4,1,0,50,0,0
38698,-100,4,1,0,50,0,0
39019,-133.333333333333,4,1,0,50,0,0
42984,-100,4,1,0,50,0,0
43198,-133.333333333333,4,1,0,50,0,0
75129,-100,4,1,0,50,0,0
84987,-86.9565217391304,4,1,0,50,0,0
85201,-100,4,1,0,50,0,0
91845,-86.9565217391304,4,1,0,50,0,0
92059,-100,4,1,0,50,0,0
102560,-86.9565217391304,4,1,0,50,0,1
133419,-80,4,1,0,50,0,1
134276,-86.9565217391304,4,1,0,50,0,1
136848,-200,4,1,0,50,0,0

[Colours]
Combo1 : 255,0,0
Combo2 : 128,255,255
Combo3 : 0,128,192
Combo4 : 192,192,192

[HitObjects]
420,288,1410,6,0,P|392:200|408:128,1,168.750006437302
380,92,1838,2,0,P|348:96|324:92,1,56.2500021457673
224,20,2052,2,0,P|192:16|164:20,1,56.2500021457673
92,224,2267,2,0,P|160:212|184:136,1,150
200,120,2588,1,0,0:0:0:0:
228,108,2695,2,0,B|284:96|284:96|336:112,1,112.500004291535
304,312,3124,6,0,B|288:192|288:192|320:228,1,168.750006437302
220,308,3553,2,0,P|184:316|160:316,1,56.2500021457673
392,260,3767,2,0,P|420:260|448:264,1,56.2500021457673
220,232,3981,2,0,L|200:108,1,112.500004291535
216,104,4303,1,0,0:0:0:0:
240,88,4410,2,0,P|156:100|104:60,1,150
328,216,4838,6,0,P|328:248|324:276,1,56.2500021457673
348,88,5053,2,0,P|356:64|376:36,1,56.2500021457673
416,288,5267,2,0,B|384:312|384:312|312:320,1,112.500004291535
232,364,5589,1,0,0:0:0:0:
232,364,5696,2,0,L|120:352,1,112.500004291535
120,352,6124,2,0,L|116:292,1,56.2500021457673
168,112,6339,2,0,L|160:168,1,56.2500021457673
308,276,6553,6,0,L|300:164,1,112.500004291535
308,152,6874,1,0,0:0:0:0:
324,140,6982,2,0,P|356:136|380:140,1,56.2500021457673
512,268,7196,2,0,P|480:272|456:268,1,56.2500021457673
268,116,7410,2,0,B|208:124|208:124|156:116,1,112.500004291535
140,104,7732,1,0,0:0:0:0:
120,88,7839,2,0,B|132:120|132:120|128:200,1,112.500004291535
96,344,8267,5,0,0:0:0:0:
96,344,8696,1,0,0:0:0:0:
348,272,8910,1,0,0:0:0:0:
160,252,9125,1,0,0:0:0:0:
400,336,9339,1,0,0:0:0:0:
400,336,9446,1,0,0:0:0:0:
400,336,9553,2,0,L|404:280,1,56.2500021457673
476,216,9768,2,0,L|452:164,1,56.2500021457673
268,124,9982,5,0,0:0:0:0:
192,0,10196,1,0,0:0:0:0:
172,220,10411,1,0,0:0:0:0:
384,164,10625,1,0,0:0:0:0:
168,112,10839,1,0,0:0:0:0:
296,28,11054,1,0,0:0:0:0:
296,28,11161,1,0,0:0:0:0:
296,28,11268,1,0,0:0:0:0:
256,256,11482,1,0,0:0:0:0:
148,48,11696,6,0,P|188:124|140:192,1,168.750006437302
108,220,12125,2,0,L|112:280,1,56.2500021457673
264,132,12339,2,0,L|272:76,1,56.2500021457673
408,304,12554,2,0,P|332:336|252:304,1,168.750006437302
232,284,12982,1,0,0:0:0:0:
184,380,13197,1,0,0:0:0:0:
152,160,13411,6,0,P|152:128|144:100,1,56.2500021457673
240,88,13625,2,0,P|228:52|216:32,1,56.2500021457673
392,212,13840,2,0,P|372:240|364:264,1,56.2500021457673
268,236,14054,2,0,P|264:268|268:296,1,56.2500021457673
392,32,14268,2,0,P|352:28|328:32,1,56.2500021457673
216,92,14483,1,0,0:0:0:0:
216,92,14697,2,0,B|104:116|104:116|48:100,1,168.750006437302
32,84,15125,6,0,P|44:144|36:196,1,112.500004291535
0,308,15446,1,0,0:0:0:0:
0,308,15553,2,0,L|56:316,1,56.2500021457673
160,208,15768,2,0,L|216:200,1,56.2500021457673
420,356,15982,2,0,L|308:344,1,112.500004291535
276,336,16303,1,0,0:0:0:0:
252,328,16411,2,0,P|312:280|312:208,1,150
313,211,16839,6,0,P|303:175|303:151,1,56.2500021457673
244,44,17053,2,0,P|244:76|240:100,1,56.2500021457673
184,276,17268,2,0,P|184:248|188:220,1,56.2500021457673
356,0,17482,2,0,P|364:28|364:60,1,56.2500021457673
368,276,17696,2,0,B|360:260|332:240|332:240|400:264|452:236,1,172.500003290176
449,237,18018,1,0,0:0:0:0:
449,237,18125,1,0,0:0:0:0:
208,160,18339,1,0,0:0:0:0:
392,28,18554,6,0,P|312:0|248:48,1,168.750006437302
208,160,18982,2,0,P|152:184|96:176,1,112.500004291535
376,164,19411,2,0,B|344:200|344:200|328:76,1,168.750006437302
272,280,19839,2,0,B|316:296|316:296|384:284,1,112.500004291535
224,128,20268,6,0,P|196:136|168:152,3,56.2500021457673
136,216,20697,2,0,P|112:232|80:240,3,56.2500021457673
40,228,21125,1,0,0:0:0:0:
64,184,21232,1,0,0:0:0:0:
68,132,21339,1,0,0:0:0:0:
56,80,21447,1,0,0:0:0:0:
24,40,21554,1,0,0:0:0:0:
72,24,21661,1,0,0:0:0:0:
124,24,21768,1,0,0:0:0:0:
172,44,21875,1,0,0:0:0:0:
216,84,21982,6,0,P|288:120|368:84,1,168.750006437302
264,156,22411,2,0,P|256:184|256:212,1,56.2500021457673
432,124,22625,2,0,P|440:92|440:64,1,56.2500021457673
324,268,22840,2,0,B|319:279|312:288|312:288|356:292|404:280,1,112.500004291535
424,280,23161,1,0,0:0:0:0:
452,264,23268,2,0,P|432:324|452:372,1,112.500004291535
448,367,23697,6,0,B|344:384|344:384|284:364,1,168.750006437302
216,220,24125,2,0,P|184:228|160:248,1,56.2500021457673
104,184,24340,2,0,P|84:216|80:240,1,56.2500021457673
304,132,24554,2,0,P|244:124|192:136,1,112.500004291535
456,236,24983,1,0,0:0:0:0:
476,188,25090,1,0,0:0:0:0:
436,160,25197,1,0,0:0:0:0:
424,112,25304,1,0,0:0:0:0:
464,68,25411,6,0,P|404:80|352:64,1,112.500004291535
355,66,25733,1,0,0:0:0:0:
355,66,25840,1,0,0:0:0:0:
216,176,26054,1,0,0:0:0:0:
144,16,26268,1,0,0:0:0:0:
108,288,26483,1,0,0:0:0:0:
108,288,26590,1,0,0:0:0:0:
108,288,26697,2,0,P|164:292|220:284,1,112.500004291535
400,128,27126,6,0,P|408:92|408:68,1,56.2500021457673
236,0,27340,2,0,P|236:32|240:56,1,56.2500021457673
368,196,27554,2,0,P|312:180|260:192,1,112.500004291535
236,204,27876,1,0,0:0:0:0:
216,220,27983,2,0,B|156:232|156:232|100:216,1,112.500004291535
106,217,28304,1,0,0:0:0:0:
106,217,28411,1,0,0:0:0:0:
84,32,28626,1,0,0:0:0:0:
276,92,28840,6,0,B|344:116|404:96|404:96|372:72,1,168.750006437302
276,92,29269,6,0,P|272:124|276:152,1,56.2500021457673
360,240,29483,2,0,P|384:260|408:268,1,56.2500021457673
512,276,29697,1,0,0:0:0:0:
512,276,30126,1,0,0:0:0:0:
468,384,30340,1,0,0:0:0:0:
416,148,30554,5,0,0:0:0:0:
232,256,30769,1,0,0:0:0:0:
232,256,30876,1,0,0:0:0:0:
232,256,30983,1,0,0:0:0:0:
64,20,31197,1,0,0:0:0:0:
80,40,31304,1,0,0:0:0:0:
92,64,31412,2,0,P|104:120|88:176,1,112.500004291535
76,196,31733,1,0,0:0:0:0:
56,216,31840,2,0,L|168:224,1,112.500004291535
168,224,32269,6,0,P|164:256|164:284,1,56.2500021457673
304,96,32483,2,0,P|304:64|300:40,1,56.2500021457673
260,248,32697,2,0,B|368:244|368:244|336:272,1,150
232,160,33019,1,0,0:0:0:0:
232,160,33126,2,0,L|344:156,1,112.500004291535
372,156,33448,1,0,0:0:0:0:
400,176,33555,2,0,L|456:180,1,56.2500021457673
264,48,33769,2,0,L|208:52,1,56.2500021457673
223,301,33983,6,0,P|239:245|231:189,1,112.500004291535
220,176,34305,1,0,0:0:0:0:
204,160,34412,1,0,0:0:0:0:
188,132,34519,1,0,0:0:0:0:
188,96,34626,1,0,0:0:0:0:
444,268,34840,2,0,B|388:280|388:280|332:268,1,112.500004291535
304,252,35162,1,0,0:0:0:0:
468,184,35269,2,0,P|532:224|476:264,1,168.750006437302
352,120,35698,6,0,P|352:88|356:64,1,56.2500021457673
332,244,35912,2,0,P|328:272|316:300,1,56.2500021457673
92,248,36126,2,0,P|144:216|192:232,1,112.500004291535
208,248,36448,1,0,0:0:0:0:
224,276,36555,2,0,B|216:220|216:220|232:164,1,112.500004291535
292,336,36983,1,0,0:0:0:0:
80,220,37198,1,0,0:0:0:0:
312,232,37412,6,0,P|368:248|420:232,1,112.500004291535
440,224,37734,1,0,0:0:0:0:
460,208,37841,2,0,B|476:136|476:136|464:96,1,112.500004291535
468,72,38162,1,0,0:0:0:0:
472,44,38269,1,0,0:0:0:0:
400,312,38484,1,0,0:0:0:0:
220,136,38698,2,0,P|144:188|232:216,1,225
292,164,39126,6,0,L|352:168,1,56.2500021457673
112,280,39341,2,0,L|56:288,1,56.2500021457673
290,275,39555,2,0,P|298:215|290:159,1,112.500004291535
280,148,39877,1,0,0:0:0:0:
260,132,39984,2,0,L|268:20,1,112.500004291535
268,19,40305,1,0,0:0:0:0:
268,19,40412,1,0,0:0:0:0:
368,184,40627,1,0,0:0:0:0:
120,132,40841,5,0,0:0:0:0:
212,320,41055,1,0,0:0:0:0:
212,320,41162,1,0,0:0:0:0:
212,320,41269,2,0,P|204:296|200:264,1,56.2500021457673
296,80,41484,2,0,P|292:112|284:140,1,56.2500021457673
65,140,41698,2,0,P|93:132|121:132,1,56.2500021457673
336,216,41912,1,0,0:0:0:0:
336,216,42127,2,0,B|248:240|248:240|172:208,1,168.750006437302
160,192,42555,6,0,P|144:248|152:304,1,112.500004291535
224,368,42877,1,0,0:0:0:0:
224,368,42984,2,0,B|304:384|296:340|376:356,1,150
252,272,43413,2,0,L|268:212,1,56.2500021457673
352,36,43627,2,0,L|360:92,1,56.2500021457673
420,296,43841,2,0,L|380:256,1,56.2500021457673
152,136,44055,2,0,L|212:132,1,56.2500021457673
440,144,44270,6,0,P|368:184|292:152,1,168.750006437302
152,136,44698,2,0,P|96:116|48:132,1,112.500004291535
47,132,45020,1,0,0:0:0:0:
47,132,45127,1,0,0:0:0:0:
324,308,45341,2,0,L|320:248,1,56.2500021457673
186,60,45556,2,0,B|170:180|170:180|150:132,1,168.750006437302
280,40,45984,5,0,0:0:0:0:
320,24,46091,1,0,0:0:0:0:
364,28,46198,1,0,0:0:0:0:
400,52,46306,1,0,0:0:0:0:
416,92,46413,2,0,P|420:120|432:144,3,56.2500021457673
456,172,46841,1,0,0:0:0:0:
416,172,46948,1,0,0:0:0:0:
376,180,47056,1,0,0:0:0:0:
340,204,47163,1,0,0:0:0:0:
308,236,47270,2,0,P|284:256|260:264,3,56.2500021457673
212,256,47699,5,0,0:0:0:0:
172,236,47806,1,0,0:0:0:0:
152,192,47913,1,0,0:0:0:0:
148,144,48020,1,0,0:0:0:0:
176,104,48127,1,0,0:0:0:0:
128,116,48234,1,0,0:0:0:0:
84,120,48341,1,0,0:0:0:0:
40,108,48449,1,0,0:0:0:0:
8,76,48556,2,0,P|12:108|12:132,1,56.2500021457673
104,336,48770,2,0,P|108:296|112:280,1,56.2500021457673
224,52,48984,2,0,P|228:80|228:108,1,56.2500021457673
336,384,49199,2,0,P|344:356|348:328,1,56.2500021457673
368,116,49413,5,0,0:0:0:0:
368,116,49842,1,0,0:0:0:0:
292,192,50056,1,0,0:0:0:0:
208,64,50270,1,0,0:0:0:0:
208,64,50699,1,0,0:0:0:0:
164,260,50913,1,0,0:0:0:0:
392,156,51127,5,0,0:0:0:0:
316,100,51342,1,0,0:0:0:0:
248,328,51556,1,0,0:0:0:0:
304,244,51770,1,0,0:0:0:0:
100,136,51985,1,0,0:0:0:0:
176,216,52199,1,0,0:0:0:0:
88,120,52413,1,0,0:0:0:0:
176,192,52627,1,0,0:0:0:0:
336,32,52842,5,0,0:0:0:0:
336,32,53270,1,0,0:0:0:0:
360,260,53485,1,0,0:0:0:0:
404,156,53699,1,0,0:0:0:0:
404,156,54128,1,0,0:0:0:0:
216,204,54342,1,0,0:0:0:0:
348,328,54556,5,0,0:0:0:0:
332,232,54770,1,0,0:0:0:0:
196,24,54985,1,0,0:0:0:0:
176,120,55199,1,0,0:0:0:0:
368,88,55413,1,0,0:0:0:0:
168,136,55628,1,0,0:0:0:0:
384,104,55842,1,0,0:0:0:0:
148,160,56056,1,0,0:0:0:0:
368,88,56271,1,0,0:0:0:0:
368,88,56699,5,0,0:0:0:0:
356,192,56913,1,0,0:0:0:0:
344,296,57128,1,0,0:0:0:0:
344,296,57556,1,0,0:0:0:0:
292,96,57771,1,0,0:0:0:0:
240,328,57985,6,0,P|184:332|136:304,1,112.500004291535
328,100,58414,2,0,P|356:148|360:208,1,112.500004291535
208,0,58842,1,0,0:0:0:0:
208,0,59271,1,0,0:0:0:0:
408,176,59699,6,0,B|388:228|388:228|404:284,1,112.500004291535
240,180,60128,2,0,B|295:171|295:171|335:129,1,112.500004291535
328,332,60557,2,0,B|292:288|292:288|236:274,1,112.500004291535
408,176,60985,2,0,B|388:228|388:228|404:284,1,112.500004291535
217,137,61414,6,0,B|265:109|265:109|288:55,1,112.500004291535
354,248,61842,2,0,B|305:220|305:220|247:227,1,112.500004291535
373,74,62271,2,0,B|372:129|372:129|407:176,1,112.500004291535
304,4,62700,2,0,L|188:8,1,112.500004291535
100,80,63128,6,0,L|160:88,1,56.2500021457673
172,136,63342,2,0,L|232:128,1,56.2500021457673
260,168,63557,2,0,L|300:124,1,56.2500021457673
360,80,63771,2,0,L|356:136,1,56.2500021457673
404,152,63985,2,0,L|428:204,1,56.2500021457673
464,352,64200,2,0,L|456:296,1,56.2500021457673
500,112,64414,2,0,L|492:172,1,56.2500021457673
380,336,64628,2,0,L|368:280,1,56.2500021457673
308,72,64843,5,0,0:0:0:0:
264,100,64950,1,0,0:0:0:0:
212,104,65057,1,0,0:0:0:0:
164,88,65164,1,0,0:0:0:0:
120,56,65271,1,0,0:0:0:0:
108,104,65378,1,0,0:0:0:0:
104,152,65486,1,0,0:0:0:0:
112,200,65593,1,0,0:0:0:0:
136,248,65700,2,0,P|164:251|192:252,1,56.2500021457673
392,212,65914,2,0,P|360:212|336:216,1,56.2500021457673
112,368,66128,2,0,P|140:360|168:344,1,56.2500021457673
248,184,66343,2,0,P|256:148|256:124,1,56.2500021457673
224,0,66557,5,0,0:0:0:0:
112,368,66986,2,0,P|140:360|168:344,1,56.2500021457673
248,184,67201,2,0,P|256:148|256:124,1,56.2500021457673
224,0,67415,1,0,0:0:0:0:
88,96,67629,1,0,0:0:0:0:
356,68,67843,1,0,0:0:0:0:
140,0,68057,1,0,0:0:0:0:
256,192,68271,5,0,0:0:0:0:
256,192,74915,5,0,0:0:0:0:
256,192,75129,2,0,L|108:168,1,150
68,152,75451,2,0,P|96:224|68:292,1,150
0,344,75772,1,0,0:0:0:0:
0,344,75986,2,0,P|40:332|76:332,1,75
308,380,76201,2,0,P|276:384|232:380,1,75
144,188,76415,2,0,L|156:112,1,75
328,0,76629,2,0,L|340:80,1,75
276,264,76843,6,0,P|248:188|280:132,1,150
472,192,77165,2,0,B|424:216|424:216|328:200,1,150
279,132,77486,1,0,0:0:0:0:
279,132,77701,2,0,P|240:128|203:139,1,75
64,332,77915,2,0,P|96:316|124:284,1,75
108,96,78129,1,0,0:0:0:0:
208,308,78344,1,0,0:0:0:0:
240,108,78558,6,0,L|392:96,1,150
389,96,78879,1,0,0:0:0:0:
389,96,78986,1,0,0:0:0:0:
336,248,79201,1,0,0:0:0:0:
248,16,79415,1,0,0:0:0:0:
156,252,79629,1,0,0:0:0:0:
400,188,79844,1,0,0:0:0:0:
232,168,80058,1,0,0:0:0:0:
316,340,80272,6,0,P|352:340|388:328,1,75
184,176,80487,2,0,P|148:180|112:196,1,75
332,252,80701,2,0,B|316:140|316:140|344:168,1,150
342,166,81022,1,0,0:0:0:0:
348,168,81129,2,0,L|360:88,1,75
248,80,81344,2,0,L|228:8,1,75
112,56,81558,2,0,L|60:0,1,75
0,156,81772,1,0,0:0:0:0:
0,156,81987,6,0,P|76:148|140:184,1,150
208,128,82308,2,0,P|280:160|348:132,1,150
280,4,82630,2,0,P|276:40|280:80,1,75
364,204,82844,2,0,B|360:320|360:320|336:292,1,150
337,294,83165,1,0,0:0:0:0:
337,294,83272,1,0,0:0:0:0:
376,56,83487,1,0,0:0:0:0:
144,156,83701,6,0,P|212:184|276:148,1,150
292,124,84023,1,0,0:0:0:0:
304,96,84130,2,0,B|292:172|292:172|316:240,1,150
328,364,84451,1,0,0:0:0:0:
328,364,84558,2,0,P|284:356|244:364,1,75
36,308,84773,2,0,P|76:316|112:308,1,75
208,88,84987,2,0,B|196:152|204:208|204:208|184:184|164:172,1,172.500003290176
288,156,85308,1,0,0:0:0:0:
288,156,85416,6,0,P|368:168|440:164,1,150
272,260,85844,2,0,P|196:248|128:284,1,150
116,300,86166,1,0,0:0:0:0:
100,328,86273,2,0,B|88:224|88:224|100:180,1,150
212,104,86594,1,0,0:0:0:0:
212,104,86701,2,0,B|328:108|328:108|296:84,1,150
300,87,87130,6,0,P|308:120|304:168,1,75
412,252,87344,2,0,P|396:280|360:304,1,75
95,164,87559,2,0,P|132:156|169:158,1,75
156,284,87773,2,0,P|192:292|222:314,1,75
324,380,87987,2,0,P|316:304|320:228,1,150
324,204,88309,1,0,0:0:0:0:
332,164,88416,2,0,P|240:136|304:72,1,225
368,280,88844,6,0,L|216:272,1,150
116,328,89166,1,0,0:0:0:0:
116,328,89273,2,0,P|136:252|124:176,1,150
112,160,89594,1,0,0:0:0:0:
96,136,89702,2,0,P|92:100|96:60,1,75
296,0,89916,2,0,P|304:36|300:80,1,75
216,172,90130,2,0,P|296:156|360:184,1,150
372,200,90452,1,0,0:0:0:0:
388,228,90559,6,0,B|372:152|372:152|396:80,1,150
356,324,90987,2,0,P|280:332|208:308,1,150
192,292,91309,1,0,0:0:0:0:
172,268,91416,2,0,B|96:280|96:280|164:316,1,150
260,232,91737,1,0,0:0:0:0:
260,232,91845,2,0,B|248:108|248:108|232:136|220:152,1,172.500003290176
292,320,92273,5,0,0:0:0:0:
160,80,92487,1,0,0:0:0:0:
384,200,92702,1,0,0:0:0:0:
172,320,92916,1,0,0:0:0:0:
172,320,93023,1,0,0:0:0:0:
172,320,93130,1,0,0:0:0:0:
236,168,93345,1,0,0:0:0:0:
392,312,93559,2,0,P|472:280|400:208,1,225
356,232,93988,6,0,B|304:248|304:248|204:220,1,150
200,228,94309,1,0,0:0:0:0:
188,232,94416,1,0,0:0:0:0:
360,132,94630,1,0,0:0:0:0:
216,32,94845,1,0,0:0:0:0:
248,316,95059,1,0,0:0:0:0:
284,136,95273,1,0,0:0:0:0:
436,208,95488,1,0,0:0:0:0:
200,192,95702,6,0,P|120:188|52:204,1,150
44,52,96131,2,0,P|108:84|172:44,1,150
184,20,96452,1,0,0:0:0:0:
192,0,96559,2,0,L|208:156,1,150
324,352,96988,2,0,P|348:284|320:212,1,150
114,143,97416,5,0,0:0:0:0:
142,290,97630,1,0,0:0:0:0:
369,93,97844,1,0,0:0:0:0:
227,44,98059,1,0,0:0:0:0:
284,339,98273,1,0,0:0:0:0:
397,240,98487,1,0,0:0:0:0:
397,240,98595,1,0,0:0:0:0:
397,240,98702,2,0,P|377:164|409:104,1,150
408,104,99131,5,0,0:0:0:0:
376,124,99238,1,0,0:0:0:0:
332,124,99345,1,0,0:0:0:0:
292,104,99452,1,0,0:0:0:0:
272,64,99559,1,0,0:0:0:0:
244,100,99667,1,0,0:0:0:0:
232,144,99774,1,0,0:0:0:0:
232,192,99881,1,0,0:0:0:0:
244,236,99988,1,0,0:0:0:0:
264,224,100095,1,0,0:0:0:0:
284,212,100202,1,0,0:0:0:0:
304,200,100309,1,0,0:0:0:0:
324,188,100417,1,0,0:0:0:0:
280,160,100524,1,0,0:0:0:0:
232,152,100631,1,0,0:0:0:0:
184,160,100738,1,0,0:0:0:0:
144,184,100845,5,0,0:0:0:0:
168,232,100952,1,0,0:0:0:0:
176,284,101059,1,0,0:0:0:0:
168,336,101167,1,0,0:0:0:0:
132,372,101274,2,0,P|96:384|56:384,3,75
20,344,101702,2,0,L|28:264,1,75
140,56,101917,2,0,L|152:132,1,75
288,320,102131,2,0,L|304:244,1,75
368,36,102345,2,0,L|392:108,1,75
428,316,102560,6,0,P|356:360|284:312,1,172.500003290176
224,208,102881,1,0,0:0:0:0:
224,208,102988,2,0,P|176:200|136:204,1,86.2500016450882
304,128,103202,2,0,P|348:136|388:128,1,86.2500016450882
146,44,103417,2,0,P|114:122|142:208,1,172.500003290176
138,203,103738,1,0,0:0:0:0:
138,203,103845,1,0,0:0:0:0:
424,264,104060,2,0,L|512:256,1,86.2500016450882
360,176,104274,6,0,P|384:260|336:324,1,172.500003290176
208,284,104595,1,0,0:0:0:0:
208,284,104703,2,0,L|116:272,1,86.2500016450882
360,176,104917,2,0,L|448:168,1,86.2500016450882
248,32,105131,2,0,P|204:100|248:176,1,172.500003290176
284,192,105453,1,0,0:0:0:0:
328,192,105560,2,0,B|384:188|448:172|448:172|432:195|416:212,1,172.500003290176
236,288,105988,6,0,P|148:268|88:316,1,172.500003290176
24,232,106310,2,0,P|85:165|73:89,1,172.500003290176
180,64,106631,2,0,P|206:150|278:178,1,172.500003290176
24,232,107060,1,0,0:0:0:0:
24,232,107167,1,0,0:0:0:0:
24,232,107274,1,0,0:0:0:0:
212,328,107489,1,0,0:0:0:0:
348,164,107703,6,0,B|392:52|392:52|344:72,1,172.500003290176
360,248,108024,2,0,B|434:342|434:342|441:290,1,172.500003290176
280,216,108346,2,0,B|161:233|161:233|202:265,1,172.500003290176
202,265,108774,1,0,0:0:0:0:
240,224,108881,1,0,0:0:0:0:
248,168,108989,1,0,0:0:0:0:
232,116,109096,1,0,0:0:0:0:
196,76,109203,1,0,0:0:0:0:
144,64,109310,1,0,0:0:0:0:
16,184,109417,6,0,P|96:224|148:172,1,172.500003290176
232,48,109739,1,0,0:0:0:0:
232,48,109846,2,0,P|272:44|320:56,1,86.2500016450882
116,100,110060,2,0,P|72:104|28:96,1,86.2500016450882
296,128,110274,2,0,B|324:220|268:208|288:300,1,172.500003290176
300,324,110596,1,0,0:0:0:0:
316,348,110703,1,0,0:0:0:0:
220,172,110917,1,0,0:0:0:0:
408,312,111132,5,0,0:0:0:0:
444,108,111346,1,0,0:0:0:0:
444,108,111453,1,0,0:0:0:0:
444,108,111560,1,0,0:0:0:0:
172,96,111775,2,0,L|84:100,1,86.2500016450882
256,176,111989,2,0,P|208:104|240:32,1,172.500003290176
256,24,112310,1,0,0:0:0:0:
276,16,112417,2,0,P|316:28|360:20,1,86.2500016450882
512,76,112632,2,0,P|472:64|428:72,1,86.2500016450882
464,296,112846,6,0,P|508:220|468:152,1,172.500003290176
276,124,113167,2,0,P|319:200|398:199,1,172.500003290176
508,48,113489,2,0,P|420:47|381:116,1,172.500003290176
468,300,113918,1,0,0:0:0:0:
468,300,114025,1,0,0:0:0:0:
468,300,114132,1,0,0:0:0:0:
220,288,114346,1,0,0:0:0:0:
116,132,114560,6,0,B|108:44|108:44|176:96,1,172.500003290176
176,244,114882,2,0,B|103:294|103:294|114:210,1,172.500003290176
244,140,115203,2,0,B|324:177|324:177|245:209,1,172.500003290176
246,209,115632,2,0,P|244:252|248:296,1,86.2500016450882
384,168,115846,2,0,P|400:128|404:80,1,86.2500016450882
356,296,116061,2,0,P|364:344|380:384,1,86.2500016450882
300,100,116275,6,0,P|216:72|140:112,1,172.500003290176
144,106,116596,1,0,0:0:0:0:
144,106,116703,1,0,0:0:0:0:
368,24,116918,1,0,0:0:0:0:
424,288,117132,1,0,0:0:0:0:
300,100,117346,1,0,0:0:0:0:
300,100,117454,1,0,0:0:0:0:
300,100,117561,2,0,B|420:100|420:100|380:136,1,172.500003290176
168,180,117989,2,0,L|80:172,1,86.2500016450882
300,296,118204,2,0,L|392:288,1,86.2500016450882
156,346,118418,2,0,P|144:258|168:178,1,172.500003290176
248,68,118739,1,0,0:0:0:0:
248,68,118846,2,0,P|168:104|96:72,1,172.500003290176
80,52,119168,1,0,0:0:0:0:
64,28,119275,2,0,B|80:116|80:116|40:192,1,172.500003290176
264,240,119704,6,0,B|324:228|324:228|376:248|376:248|432:232,1,172.500003290176
256,104,120025,2,0,B|236:161|236:161|193:196|193:196|178:253,1,172.500003290176
376,168,120347,2,0,B|335:122|335:122|326:67|326:67|285:26,1,172.500003290176
286,28,120775,2,0,P|276:68|276:112,1,86.2500016450882
164,116,120989,2,0,P|172:160|192:196,1,86.2500016450882
92,264,121204,2,0,P|124:296|164:312,1,86.2500016450882
384,236,121418,6,0,B|472:232|472:232|452:276|420:300,1,172.500003290176
272,208,121740,2,0,B|224:133|224:133|272:129|309:144,1,172.500003290176
316,304,122061,2,0,B|275:382|275:382|247:342|242:303,1,172.500003290176
472,236,122490,1,0,0:0:0:0:
472,236,122597,1,0,0:0:0:0:
472,236,122704,1,0,0:0:0:0:
180,132,122918,2,0,P|172:88|176:44,1,86.2500016450882
252,164,123132,6,0,L|76:152,1,172.500003290176
52,140,123454,1,0,0:0:0:0:
24,128,123561,2,0,P|56:208|0:268,1,172.500003290176
252,164,123990,1,0,0:0:0:0:
296,312,124204,1,0,0:0:0:0:
340,76,124418,1,0,0:0:0:0:
108,84,124633,1,0,0:0:0:0:
212,289,124847,6,0,B|336:285|336:285|292:313,1,172.500003290176
240,208,125168,1,0,0:0:0:0:
240,208,125275,2,0,B|224:124|224:124|256:44,1,172.500003290176
276,24,125597,1,0,0:0:0:0:
296,0,125704,2,0,L|120:8,1,172.500003290176
344,208,126133,2,0,P|352:164|348:120,1,86.2500016450882
160,236,126347,2,0,P|160:284|172:324,1,86.2500016450882
240,128,126561,6,0,P|160:160|84:124,1,172.500003290176
204,336,126883,2,0,P|216:250|285:202,1,172.500003290176
40,200,127204,2,0,P|107:253|114:337,1,172.500003290176
244,128,127633,1,0,0:0:0:0:
244,128,127740,1,0,0:0:0:0:
244,128,127847,1,0,0:0:0:0:
316,312,128061,1,0,0:0:0:0:
400,96,128276,6,0,B|348:100|320:136|320:136|308:180|272:200,1,172.500003290176
224,352,128597,2,0,B|246:304|229:262|229:262|197:230|197:189,1,172.500003290176
91,70,128919,2,0,B|120:113|165:119|165:119|209:107|245:128,1,172.500003290176
376,340,129347,2,0,P|364:292|368:256,1,86.2500016450882
436,32,129562,2,0,P|436:72|424:116,1,86.2500016450882
232,272,129776,2,0,P|248:228|276:200,1,86.2500016450882
476,296,129990,6,0,P|392:324|324:284,1,172.500003290176
324,284,130312,1,0,0:0:0:0:
324,284,130419,1,0,0:0:0:0:
300,48,130633,1,0,0:0:0:0:
208,264,130847,2,0,B|216:312|216:312|248:188,1,172.500003290176
236,168,131169,1,0,0:0:0:0:
216,140,131276,2,0,P|292:180|364:140,1,172.500003290176
104,0,131705,6,0,L|120:172,1,172.500003290176
200,300,132026,1,0,0:0:0:0:
200,300,132133,2,0,L|208:212,1,86.2500016450882
264,48,132347,2,0,L|272:136,1,86.2500016450882
360,352,132562,2,0,P|396:280|360:200,1,172.500003290176
336,184,132883,1,0,0:0:0:0:
300,180,132990,2,0,L|476:148,1,172.500003290176
180,148,133419,6,0,P|148:228|220:228,1,187.5
308,88,133740,2,0,P|254:20|218:82,1,187.5
296,228,134062,2,0,P|381:215|345:153,1,187.5
180,148,134490,1,0,0:0:0:0:
180,148,134598,1,0,0:0:0:0:
180,148,134705,1,0,0:0:0:0:
260,340,134919,1,0,0:0:0:0:
396,160,135133,5,0,0:0:0:0:
416,104,135240,1,0,0:0:0:0:
400,52,135348,1,0,0:0:0:0:
356,20,135455,1,0,0:0:0:0:
304,20,135562,1,0,0:0:0:0:
312,80,135669,1,0,0:0:0:0:
296,136,135776,1,0,0:0:0:0:
248,168,135883,1,0,0:0:0:0:
188,156,135991,2,0,P|144:152|104:136,1,86.2500016450882
360,208,136205,2,0,P|408:216|444:232,1,86.2500016450882
224,84,136419,2,0,P|220:40|228:0,1,86.2500016450882
312,296,136633,2,0,P|316:336|308:384,1,86.2500016450882
112,192,136848,6,0,B|263:128|248:256|399:192,1,300
