osu file format v14

[General]
AudioFilename: audio.mp3
AudioLeadIn: 0
PreviewTime: 99131
Countdown: 1
SampleSet: None
StackLeniency: 0.7
Mode: 0
LetterboxInBreaks: 0
WidescreenStoryboard: 1

[Editor]
DistanceSpacing: 0.7
BeatDivisor: 4
GridSize: 8
TimelineZoom: 1

[Metadata]
Title:Where No One Goes (briman0094 remix)
TitleUnicode:Where No One Goes (briman0094 remix)
Artist:Jonsi
ArtistUnicode:Jonsi
Creator:AxE Galaxy
Version:Normal
Source:How to Train your Dragon
Tags:how to train your dragon httyd toothless night fury get out of our way
BeatmapID:1491776
BeatmapSetID:589655

[Difficulty]
HPDrainRate:4
CircleSize:3.5
OverallDifficulty:4
ApproachRate:7.2
SliderMultiplier:2.8
SliderTickRate:2

[Events]
//Background and Video events
0,0,"krokmou_et_harold_contre_l_alpha_by_o0dzaka0o-d7uurt7.jpg",0,0
//Break Periods
2,49613,63793
//Storyboard Layer 0 (Background)
//Storyboard Layer 1 (Fail)
//Storyboard Layer 2 (Pass)
//Storyboard Layer 3 (Foreground)
//Storyboard Sound Samples

[TimingPoints]
1410,428.602043003072,4,1,0,5,1,0
1410,-200,4,2,1,100,0,0
49413,-200,4,1,2,100,0,0
68271,-200,4,2,1,100,0,0
73415,-200,4,3,0,100,0,0
75129,-200,4,3,1,100,0,0
83701,-200,4,3,0,100,0,0
85416,-200,4,3,1,100,0,0
102560,-200,4,3,1,100,0,1
136848,-200,4,3,1,100,0,0

[Colours]
Combo1 : 255,0,0
Combo2 : 128,255,255
Combo3 : 0,128,192
Combo4 : 192,192,192

[HitObjects]
200,256,1410,6,0,P|272:272|328:232,1,140
376,160,2267,2,0,P|304:144|248:184,1,140
200,256,3124,2,0,L|144:120,1,140
64,168,3981,2,0,L|96:240,2,70
64,312,4838,6,0,B|104:320|136:304|136:304|168:296|208:312,1,140
296,360,5696,2,0,P|264:304|320:264,1,140
411,249,6553,2,0,P|467:217|472:144,1,140
419,66,7410,1,0,0:0:0:0:
347,133,7839,1,0,0:0:0:0:
282,59,8267,70,0,P|218:35|154:67,1,140
152,162,9124,2,0,L|168:306,1,140
264,318,9982,1,0,0:0:0:0:
341,257,10410,1,0,0:0:0:0:
352,159,10839,1,0,0:0:0:0:
449,153,11267,1,0,0:0:0:0:
402,239,11696,6,0,P|337:250|274:207,1,140
301,116,12553,2,0,P|224:128|186:172,1,140
148,256,13410,1,0,0:0:0:0:
238,294,13839,1,0,0:0:0:0:
272,202,14268,1,0,0:0:0:0:
335,277,14696,1,0,0:0:0:0:
184,184,15125,70,0,P|224:128|296:120,1,140
353,43,15982,2,0,L|209:19,1,140
149,93,16839,1,0,0:0:0:0:
185,184,17268,1,0,0:0:0:0:
320,136,17696,2,0,P|328:208|296:272,1,140
184,184,18554,5,0,0:0:0:0:
320,136,18982,1,0,0:0:0:0:
299,267,19411,1,0,0:0:0:0:
432,224,19839,1,0,0:0:0:0:
320,136,20268,1,0,0:0:0:0:
184,184,20697,1,0,0:0:0:0:
192,48,21125,1,0,0:0:0:0:
320,136,21554,1,0,0:0:0:0:
280,280,21982,6,0,P|232:312|184:312,2,105
368,272,22840,2,0,P|332:212|261:194,1,140
128,128,23697,2,0,L|64:40,2,105
112,232,24554,2,0,P|136:288|208:312,1,140
250,288,25197,1,0,0:0:0:0:
291,261,25411,6,0,L|435:269,1,140
469,178,26268,2,0,L|325:170,1,140
252,231,27126,1,0,0:0:0:0:
155,217,27554,1,0,0:0:0:0:
93,140,27983,2,0,P|109:84|189:68,1,140
227,84,28626,1,0,0:0:0:0:
273,98,28840,70,0,P|329:98|369:66,2,105
224,87,29697,2,0,P|216:151|272:207,1,140
311,214,30340,1,0,0:0:0:0:
359,207,30554,2,0,P|418:95|307:35,2,280
261,214,32697,5,0,0:0:0:0:
163,225,33126,2,0,P|107:265|99:337,1,140
194,316,33983,1,0,0:0:0:0:
259,242,34412,1,0,0:0:0:0:
220,151,34840,1,0,0:0:0:0:
265,64,35269,1,0,0:0:0:0:
356,98,35698,70,0,P|404:154|404:226,1,140
368,304,36555,2,0,P|320:248|320:176,1,140
356,98,37412,2,0,P|404:154|404:226,1,140
367,303,38269,2,0,P|311:335|231:327,1,140
160,272,39126,6,0,P|202:162|279:255,1,280
245,335,40412,1,0,0:0:0:0:
344,312,40841,2,0,P|408:288|432:224,1,140
389,131,41698,1,0,0:0:0:0:
297,95,42127,1,0,0:0:0:0:
242,176,42555,70,0,P|162:192|114:160,1,140
184,96,43413,2,0,L|200:248,1,140
160,328,44270,2,0,P|232:304|296:304,1,140
392,296,45127,2,0,P|456:256|472:184,1,140
470,99,45984,5,0,0:0:0:0:
398,31,46413,1,0,0:0:0:0:
299,26,46841,1,0,0:0:0:0:
207,61,47270,1,0,0:0:0:0:
149,153,47699,2,0,P|147:229|187:278,1,140
363,231,48556,2,0,P|365:155|325:106,1,140
256,192,49413,5,0,0:0:0:0:
256,192,64843,12,0,67415,0:0:0:0:
368,128,68271,38,0,L|416:264,1,140
352,336,69129,2,0,L|208:296,1,140
208,200,69986,2,0,P|136:168|80:192,1,140
36,102,70843,1,0,0:0:0:0:
112,40,71272,1,0,0:0:0:0:
207,60,71700,2,0,P|271:92|343:92,1,140
427,53,72557,2,0,L|451:197,1,140
402,276,73415,1,0,0:0:0:0:
344,196,73843,1,0,0:0:0:0:
261,249,74272,1,0,0:0:0:0:
256,151,74700,1,0,0:0:0:0:
330,87,75129,6,0,P|378:63|434:71,2,105
343,158,75986,2,0,P|315:216|243:235,1,140
201,215,76629,1,0,0:0:0:0:
157,193,76843,2,0,L|45:209,2,105
184,151,77701,1,0,0:0:0:0:
252,220,78129,1,0,0:0:0:0:
158,249,78558,6,0,P|110:201|110:129,1,140
201,99,79415,2,0,P|249:147|249:219,1,140
320,284,80272,2,0,L|312:324,2,35
232,240,80701,2,0,L|208:280,2,35
168,176,81129,2,0,L|136:200,2,35
216,87,81558,1,0,0:0:0:0:
309,56,81987,70,0,P|349:72|373:128,2,105
293,136,82844,2,0,P|277:216|229:248,1,140
211,306,83487,1,0,0:0:0:0:
269,328,83701,2,0,P|373:224|365:96,2,280
172,309,85844,5,0,0:0:0:0:
149,213,86273,2,0,P|189:157|261:149,1,140
250,245,87130,2,0,P|290:301|362:309,2,140
245,147,88416,69,0,0:0:0:0:
150,119,88844,2,0,P|198:63|270:57,1,140
354,83,89702,2,0,P|306:139|234:145,1,140
210,239,90559,2,0,P|178:295|202:367,2,140
298,197,91845,1,0,0:0:0:0:
338,286,92273,6,0,P|395:177|281:98,1,280
190,82,93559,1,0,0:0:0:0:
224,173,93988,2,0,P|189:234|126:253,1,140
126,154,94845,1,0,0:0:0:0:
190,80,95273,1,0,0:0:0:0:
287,89,95702,70,0,P|350:124|368:193,1,140
270,184,96559,2,0,P|207:219|189:288,1,140
286,281,97416,1,0,0:0:0:0:
384,284,97845,1,0,0:0:0:0:
369,187,98274,1,0,0:0:0:0:
271,182,98702,1,0,0:0:0:0:
368,188,99131,6,0,P|152:316|112:92,1,560
195,46,101274,1,0,0:0:0:0:
248,136,101702,2,0,P|312:136|376:96,1,140
472,64,102560,69,0,0:0:0:0:
476,165,102988,1,0,0:0:0:0:
383,197,103417,1,0,0:0:0:0:
305,137,103845,5,0,0:0:0:0:
305,137,104274,2,0,P|161:89|97:185,2,280
278,231,106417,5,0,0:0:0:0:
190,274,106846,2,0,P|125:233|99:169,1,140
198,173,107703,2,0,P|262:141|286:77,2,140
183,75,108989,1,0,0:0:0:0:
264,129,109417,6,0,P|280:209|248:265,1,140
167,303,110274,1,0,0:0:0:0:
77,262,110703,1,0,0:0:0:0:
132,181,111132,2,0,P|228:149|332:285,2,280
77,262,113275,1,0,0:0:0:0:
174,270,113703,1,0,0:0:0:0:
128,184,114132,1,0,0:0:0:0:
199,117,114560,2,0,P|263:101|351:109,1,140
402,177,115418,2,0,P|334:193|265:189,1,140
231,96,116275,2,0,P|172:236|267:288,1,280
352,260,117561,5,0,0:0:0:0:
406,178,117989,2,0,B|336:145|272:185|272:185|208:145|200:105|206:74,2,280
456,256,120132,1,0,0:0:0:0:
459,357,120561,1,0,0:0:0:0:
372,310,120989,1,0,0:0:0:0:
371,211,121418,2,0,P|371:131|331:91,1,140
274,170,122275,2,0,P|210:202|146:170,1,140
209,97,123132,70,0,P|73:121|80:241,1,280
176,237,124418,1,0,0:0:0:0:
266,200,124847,2,0,P|330:176|394:200,1,140
464,268,125704,2,0,P|400:292|336:268,1,140
265,198,126561,1,0,0:0:0:0:
166,198,126990,1,0,0:0:0:0:
118,283,127419,1,0,0:0:0:0:
71,196,127847,1,0,0:0:0:0:
114,108,128276,2,0,P|182:82|250:108,2,140
182,177,129562,1,0,0:0:0:0:
280,177,129990,6,0,P|189:275|84:197,1,280
110,111,131276,1,0,0:0:0:0:
180,178,131705,2,0,P|235:216|242:284,1,140
206,375,132562,2,0,P|150:336|143:268,1,140
240,240,133419,1,0,0:0:0:0:
312,175,133848,1,0,0:0:0:0:
328,264,134276,1,0,0:0:0:0:
232,216,134705,1,0,0:0:0:0:
336,168,135133,1,0,0:0:0:0:
320,288,135562,1,0,0:0:0:0:
224,192,135991,1,0,0:0:0:0:
360,160,136419,1,0,0:0:0:0:
312,312,136848,1,0,0:0:0:0:
