osu file format v14

[General]
AudioFilename: audio.mp3
AudioLeadIn: 0
PreviewTime: 99131
Countdown: 1
SampleSet: Normal
StackLeniency: 0.7
Mode: 0
LetterboxInBreaks: 0
WidescreenStoryboard: 1

[Editor]
Bookmarks: 24983
DistanceSpacing: 0.5
BeatDivisor: 4
GridSize: 4
TimelineZoom: 1

[Metadata]
Title:Where No One Goes (briman0094 remix)
TitleUnicode:Where No One Goes (briman0094 remix)
Artist:Jonsi
ArtistUnicode:Jonsi
Creator:AxE Galaxy
Version:Hard
Source:How to Train your Dragon
Tags:how to train your dragon httyd toothless night fury get out of our way
BeatmapID:1487455
BeatmapSetID:589655

[Difficulty]
HPDrainRate:5
CircleSize:3.8
OverallDifficulty:5
ApproachRate:8.5
SliderMultiplier:2.6
SliderTickRate:2

[Events]
//Background and Video events
0,0,"krokmou_et_harold_contre_l_alpha_by_o0dzaka0o-d7uurt7.jpg",0,0
//Break Periods
2,68471,74240
//Storyboard Layer 0 (Background)
//Storyboard Layer 1 (Fail)
//Storyboard Layer 2 (Pass)
//Storyboard Layer 3 (Foreground)
//Storyboard Sound Samples

[TimingPoints]
1410,428.602043003072,4,1,0,100,1,0
1410,-133.333333333333,4,1,0,50,0,0
2267,-100,4,1,0,50,0,0
2670,-133.333333333333,4,1,0,50,0,0
4410,-100,4,1,0,50,0,0
4624,-133.333333333333,4,1,0,50,0,0
16411,-100,4,1,0,50,0,0
16625,-133.333333333333,4,1,0,50,0,0
17696,-86.9565217391304,4,1,0,50,0,0
17911,-133.333333333333,4,1,0,50,0,0
42984,-100,4,1,0,50,0,0
43198,-133.333333333333,4,1,0,50,0,0
75129,-100,4,1,0,50,0,0
91845,-86.9565217391304,4,1,0,50,0,0
92059,-100,4,1,0,50,0,0
102560,-86.9565217391304,4,1,0,50,0,1
136848,-200,4,1,0,50,0,0

[Colours]
Combo1 : 255,0,0
Combo2 : 128,255,255
Combo3 : 0,128,192
Combo4 : 192,192,192

[HitObjects]
256,344,1410,6,0,P|224:276|256:212,1,146.250005578995
280,212,1838,2,0,P|328:224|376:212,1,97.50000371933
380,0,2267,1,0,0:0:0:0:
328,148,2481,1,0,0:0:0:0:
232,44,2695,1,0,0:0:0:0:
180,192,2909,1,0,0:0:0:0:
456,288,3124,2,0,P|396:256|332:296,1,146.250005578995
312,320,3553,2,0,L|212:312,1,97.50000371933
396,328,3981,1,0,0:0:0:0:
436,132,4195,1,0,0:0:0:0:
436,132,4303,1,0,0:0:0:0:
436,132,4410,1,0,0:0:0:0:
464,220,4624,1,0,0:0:0:0:
292,76,4838,2,0,B|216:60|220:104|148:84,1,146.250005578995
120,64,5267,2,0,L|112:168,1,97.50000371933
104,288,5696,1,0,0:0:0:0:
288,196,5910,1,0,0:0:0:0:
288,196,6017,1,0,0:0:0:0:
288,196,6124,2,0,P|336:192|388:196,1,97.50000371933
504,48,6553,2,0,P|508:20|504:-4,1,48.750001859665
496,160,6767,2,0,P|500:184|508:208,1,48.750001859665
416,88,6981,1,0,0:0:0:0:
416,88,7196,2,0,P|392:84|364:88,1,48.750001859665
308,152,7410,2,0,L|208:148,1,97.50000371933
144,0,7839,1,0,0:0:0:0:
280,72,8053,1,0,0:0:0:0:
200,232,8267,2,0,P|192:300|256:340,1,146.250005578995
344,288,8696,2,0,P|376:284|400:288,1,48.750001859665
476,320,8910,1,0,0:0:0:0:
476,320,9124,2,0,L|484:172,1,146.250005578995
324,176,9553,2,0,P|348:184|372:184,1,48.750001859665
420,48,9767,2,0,P|395:48|372:56,1,48.750001859665
260,128,9982,2,0,P|208:144|168:132,1,97.50000371933
168,132,10303,1,0,0:0:0:0:
168,132,10410,1,0,0:0:0:0:
80,280,10624,2,0,L|128:288,1,48.750001859665
212,304,10839,1,0,0:0:0:0:
296,256,11053,1,0,0:0:0:0:
336,344,11267,1,0,0:0:0:0:
360,192,11482,1,0,0:0:0:0:
256,332,11696,2,0,P|212:272|228:204,1,146.250005578995
164,160,12125,2,0,P|180:112|168:64,1,97.50000371933
252,184,12553,2,0,B|304:200|304:200|396:188,1,146.250005578995
352,320,12982,2,0,L|252:332,1,97.50000371933
120,216,13410,2,0,P|128:188|128:168,1,48.750001859665
88,64,13625,1,0,0:0:0:0:
88,64,13839,2,0,P|132:52|184:64,1,97.50000371933
268,176,14160,1,0,0:0:0:0:
312,240,14268,2,0,P|356:260|404:252,1,97.50000371933
256,304,14696,1,0,0:0:0:0:
216,104,14910,1,0,0:0:0:0:
428,160,15125,2,0,P|452:104|416:28,1,146.250005578995
388,28,15553,2,0,L|288:32,1,97.50000371933
290,31,15875,1,0,0:0:0:0:
290,31,15982,1,0,0:0:0:0:
176,180,16196,1,0,0:0:0:0:
176,180,16303,1,0,0:0:0:0:
176,180,16411,2,0,B|192:136|192:136|184:48,1,130
68,248,16839,2,0,P|92:248|120:252,1,48.750001859665
196,364,17053,2,0,P|224:364|248:360,1,48.750001859665
340,224,17268,2,0,P|324:280|344:328,1,97.50000371933
460,36,17696,1,0,0:0:0:0:
340,48,17911,1,0,0:0:0:0:
352,152,18125,1,0,0:0:0:0:
464,120,18339,1,0,0:0:0:0:
224,228,18554,2,0,P|152:256|88:228,1,146.250005578995
96,192,18982,2,0,P|124:120|92:60,1,146.250005578995
68,56,19411,2,0,L|168:48,1,97.50000371933
321,235,19839,2,0,L|221:227,1,97.50000371933
256,72,20268,2,0,L|252:24,3,48.750001859665
340,72,20697,2,0,L|336:120,3,48.750001859665
420,64,21125,2,0,L|416:16,3,48.750001859665
420,64,21554,1,0,0:0:0:0:
428,152,21768,1,0,0:0:0:0:
436,244,21982,2,0,B|388:256|388:256|292:240,1,146.250005578995
228,292,22411,2,0,L|172:296,1,48.750001859665
96,308,22625,1,0,0:0:0:0:
88,60,22840,2,0,P|76:112|76:156,1,97.50000371933
75,155,23161,1,0,0:0:0:0:
75,155,23268,1,0,0:0:0:0:
96,308,23483,1,0,0:0:0:0:
212,120,23697,2,0,P|264:112|312:120,1,97.50000371933
408,176,24018,1,0,0:0:0:0:
408,176,24125,2,0,L|420:80,1,97.50000371933
192,0,24554,1,0,0:0:0:0:
212,120,24768,1,0,0:0:0:0:
420,79,24983,1,0,0:0:0:0:
300,59,25197,1,0,0:0:0:0:
328,220,25411,2,0,P|332:272|324:320,1,97.50000371933
324,316,25733,1,0,0:0:0:0:
324,316,25840,1,0,0:0:0:0:
208,120,26054,1,0,0:0:0:0:
168,256,26268,1,0,0:0:0:0:
448,192,26483,1,0,0:0:0:0:
448,192,26590,1,0,0:0:0:0:
448,192,26697,1,0,0:0:0:0:
352,104,26911,1,0,0:0:0:0:
244,212,27126,2,0,P|192:228|148:212,1,97.50000371933
128,192,27447,1,0,0:0:0:0:
120,152,27554,2,0,B|124:112|124:112|120:88|120:88|124:52,1,97.50000371933
123,55,27876,1,0,0:0:0:0:
123,55,27983,1,0,0:0:0:0:
100,280,28197,1,0,0:0:0:0:
0,128,28411,1,0,0:0:0:0:
256,92,28626,1,0,0:0:0:0:
100,280,28840,2,0,B|176:300|176:256|248:280,1,146.250005578995
320,232,29269,2,0,P|372:248|416:240,1,97.50000371933
413,240,29590,1,0,0:0:0:0:
413,240,29697,1,0,0:0:0:0:
464,384,29912,1,0,0:0:0:0:
376,168,30126,2,0,L|380:120,1,48.750001859665
496,80,30340,2,0,L|492:32,1,48.750001859665
304,192,30554,2,0,P|256:204|204:192,1,97.50000371933
184,164,30876,1,0,0:0:0:0:
152,136,30983,2,0,B|116:152|116:152|52:144,1,97.50000371933
40,240,31412,1,0,0:0:0:0:
60,48,31626,1,0,0:0:0:0:
324,64,31840,1,0,0:0:0:0:
152,136,32055,1,0,0:0:0:0:
224,324,32269,2,0,P|304:336|368:328,1,146.250005578995
384,296,32697,2,0,P|372:248|380:200,1,97.50000371933
440,96,33019,1,0,0:0:0:0:
412,112,33126,2,0,B|380:124|380:124|316:112,1,97.50000371933
176,72,33555,1,0,0:0:0:0:
200,276,33769,1,0,0:0:0:0:
440,96,33983,2,0,P|452:72|456:48,1,48.750001859665
340,96,34198,2,0,P|356:76|364:52,1,48.750001859665
288,208,34412,2,0,P|312:220|340:224,1,48.750001859665
336,308,34626,2,0,P|360:304|384:292,1,48.750001859665
216,124,34840,1,0,0:0:0:0:
120,168,35055,1,0,0:0:0:0:
60,44,35269,1,0,0:0:0:0:
24,248,35483,1,0,0:0:0:0:
216,124,35698,2,0,B|312:104|312:104|360:120,1,146.250005578995
366,209,36126,2,0,P|346:157|358:117,1,97.50000371933
284,248,36555,1,0,0:0:0:0:
272,360,36769,1,0,0:0:0:0:
104,224,36983,1,0,0:0:0:0:
284,248,37198,1,0,0:0:0:0:
420,72,37412,2,0,P|360:36|292:64,1,146.250005578995
276,88,37841,2,0,P|228:104|180:100,1,97.50000371933
148,88,38162,1,0,0:0:0:0:
116,64,38269,1,0,0:0:0:0:
128,308,38484,2,0,P|132:336|132:356,1,48.750001859665
32,184,38698,2,0,P|32:156|40:128,1,48.750001859665
48,344,38912,1,0,0:0:0:0:
48,344,39126,2,0,B|96:332|96:332|144:356|196:348,1,146.250005578995
208,264,39555,2,0,L|312:260,1,97.50000371933
512,312,39984,1,0,0:0:0:0:
368,336,40198,1,0,0:0:0:0:
368,336,40305,1,0,0:0:0:0:
368,336,40412,1,0,0:0:0:0:
340,136,40627,1,0,0:0:0:0:
100,184,40841,2,0,P|64:188|48:188,1,48.750001859665
224,180,41055,2,0,P|252:184|272:188,1,48.750001859665
100,184,41269,2,0,B|96:148|96:148|104:116|104:116|100:88,1,97.50000371933
104,60,41591,1,0,0:0:0:0:
128,32,41698,1,0,0:0:0:0:
408,112,41912,1,0,0:0:0:0:
408,112,42020,1,0,0:0:0:0:
408,112,42127,2,0,P|344:136|280:100,1,146.250005578995
252,72,42555,2,0,B|264:112|264:112|252:168,1,97.50000371933
200,320,42984,1,0,0:0:0:0:
176,192,43198,1,0,0:0:0:0:
288,368,43413,1,0,0:0:0:0:
384,132,43627,1,0,0:0:0:0:
384,132,43734,1,0,0:0:0:0:
384,132,43841,1,0,0:0:0:0:
316,0,44055,1,0,0:0:0:0:
256,168,44270,2,0,P|184:148|120:184,1,146.250005578995
256,168,44698,2,0,B|276:116|276:116|264:72,1,97.50000371933
196,232,45127,2,0,L|204:336,1,97.50000371933
96,204,45448,1,0,0:0:0:0:
96,204,45556,2,0,L|88:100,1,97.50000371933
276,44,45984,2,0,L|328:48,3,48.750001859665
323,131,46413,2,0,L|372:128,3,48.750001859665
216,152,46841,1,0,0:0:0:0:
184,188,46948,1,0,0:0:0:0:
180,240,47056,1,0,0:0:0:0:
192,288,47163,1,0,0:0:0:0:
232,320,47270,1,0,0:0:0:0:
260,276,47377,1,0,0:0:0:0:
304,252,47484,1,0,0:0:0:0:
360,252,47591,1,0,0:0:0:0:
400,284,47699,2,0,L|404:336,3,48.750001859665
300,336,48127,2,0,L|296:388,3,48.750001859665
304,252,48556,1,0,0:0:0:0:
200,104,48770,1,0,0:0:0:0:
200,104,48877,1,0,0:0:0:0:
200,104,48984,2,0,P|144:112|100:104,1,97.50000371933
384,96,49413,1,0,0:0:0:0:
384,96,49842,2,0,P|376:144|384:196,1,97.50000371933
440,272,50270,2,0,B|336:312|352:236|248:280,1,195.00000743866
160,356,50913,1,0,0:0:0:0:
216,152,51127,2,0,P|228:104|220:56,1,97.50000371933
140,100,51556,2,0,P|112:56|68:40,1,97.50000371933
192,312,51985,2,0,P|240:324|288:316,1,97.50000371933
244,236,52414,2,0,P|288:208|304:164,1,97.50000371933
296,56,52842,1,0,0:0:0:0:
296,56,53270,2,0,P|344:44|392:56,1,97.50000371933
376,304,53699,2,0,B|336:252|336:252|344:120,1,195.00000743866
388,0,54342,1,0,0:0:0:0:
188,52,54556,1,0,0:0:0:0:
108,88,54770,1,0,0:0:0:0:
180,136,54985,1,0,0:0:0:0:
116,8,55199,1,0,0:0:0:0:
104,172,55413,1,0,0:0:0:0:
256,100,55628,1,0,0:0:0:0:
108,88,55842,1,0,0:0:0:0:
188,52,56056,1,0,0:0:0:0:
104,172,56271,2,0,B|124:180|140:176|140:176|168:228|244:232|272:180,1,195.00000743866
284,76,56913,1,0,0:0:0:0:
276,272,57128,2,0,P|276:324|284:368,1,97.50000371933
196,240,57556,2,0,P|208:192|208:140,1,97.50000371933
168,52,57985,2,0,B|220:48|220:48|264:60|264:60|312:56,1,146.250005578995
352,44,58414,2,0,P|332:112|356:180,1,146.250005578995
384,204,58842,1,0,0:0:0:0:
384,204,59271,2,0,L|280:212,1,97.50000371933
76,184,59699,1,0,0:0:0:0:
88,268,59913,1,0,0:0:0:0:
200,252,60127,1,0,0:0:0:0:
212,152,60342,1,0,0:0:0:0:
212,4,60557,2,0,P|260:0|312:8,1,97.50000371933
448,152,60985,2,0,P|396:152|352:136,1,97.50000371933
196,108,61414,1,0,0:0:0:0:
180,236,61628,1,0,0:0:0:0:
332,200,61842,1,0,0:0:0:0:
312,328,62057,1,0,0:0:0:0:
180,236,62271,1,0,0:0:0:0:
332,200,62485,1,0,0:0:0:0:
312,328,62700,1,0,0:0:0:0:
448,296,62914,1,0,0:0:0:0:
424,52,63128,2,0,P|420:24|420:0,1,48.750001859665
460,128,63342,2,0,P|464:156|464:176,1,48.750001859665
336,200,63557,2,0,P|332:152|336:100,1,97.50000371933
320,64,63878,1,0,0:0:0:0:
284,40,63985,2,0,B|236:28|236:28|188:40,1,97.50000371933
156,236,64414,2,0,P|184:244|212:244,1,48.750001859665
264,156,64628,2,0,P|292:152|312:152,1,48.750001859665
304,328,64843,2,0,P|288:280|300:232,1,97.50000371933
384,128,65164,1,0,0:0:0:0:
384,128,65271,2,0,L|380:28,1,97.50000371933
272,100,65593,1,0,0:0:0:0:
272,100,65700,2,0,L|268:0,1,97.50000371933
92,196,66128,1,0,0:0:0:0:
184,248,66343,1,0,0:0:0:0:
284,184,66557,1,0,0:0:0:0:
92,196,66986,1,0,0:0:0:0:
184,248,67201,1,0,0:0:0:0:
284,184,67415,1,0,0:0:0:0:
308,320,67629,1,0,0:0:0:0:
376,152,67843,1,0,0:0:0:0:
264,0,68057,1,0,0:0:0:0:
256,228,68271,1,0,0:0:0:0:
372,280,74915,5,0,0:0:0:0:
372,280,75129,2,0,L|384:148,1,130
376,116,75451,1,0,0:0:0:0:
352,96,75558,2,0,P|280:112|224:88,1,130
148,16,75986,1,0,0:0:0:0:
116,220,76201,1,0,0:0:0:0:
116,220,76308,1,0,0:0:0:0:
116,220,76415,1,0,0:0:0:0:
80,80,76629,1,0,0:0:0:0:
216,232,76843,2,0,P|296:272|380:216,1,195
452,192,77272,2,0,P|436:128|456:68,1,130
455,68,77594,1,0,0:0:0:0:
455,68,77701,1,0,0:0:0:0:
472,296,77915,1,0,0:0:0:0:
360,116,78129,1,0,0:0:0:0:
320,96,78236,1,0,0:0:0:0:
276,88,78344,1,0,0:0:0:0:
232,100,78451,1,0,0:0:0:0:
200,132,78558,2,0,P|136:160|80:140,1,130
48,112,78879,1,0,0:0:0:0:
28,72,78986,1,0,0:0:0:0:
0,280,79201,1,0,0:0:0:0:
200,256,79415,2,0,B|272:248|272:248|324:272|324:272|392:264,1,195
424,272,79844,2,0,L|448:144,1,130
276,40,80272,1,0,0:0:0:0:
144,28,80487,1,0,0:0:0:0:
316,240,80701,1,0,0:0:0:0:
324,120,80915,1,0,0:0:0:0:
120,280,81129,1,0,0:0:0:0:
248,300,81344,1,0,0:0:0:0:
248,300,81451,1,0,0:0:0:0:
248,300,81558,1,0,0:0:0:0:
224,100,81772,1,0,0:0:0:0:
0,188,81987,2,0,P|60:212|120:188,1,130
152,152,82308,1,0,0:0:0:0:
196,132,82415,2,0,L|328:140,1,130
448,208,82844,1,0,0:0:0:0:
448,208,83058,2,0,P|444:236|448:272,1,65
512,112,83272,2,0,P|448:128|388:100,1,130
196,124,83701,2,0,P|264:120|316:156,1,130
328,196,84023,1,0,0:0:0:0:
332,240,84130,2,0,B|336:268|332:308|332:308|364:304|396:308,1,130
200,264,84558,1,0,0:0:0:0:
200,264,84773,2,0,P|160:256|136:256,1,65
0,328,84987,2,0,P|32:324|64:312,1,65
136,140,85201,1,0,0:0:0:0:
136,140,85416,2,0,B|236:104|236:160|328:132,1,195
368,108,85844,1,0,0:0:0:0:
348,280,86058,1,0,0:0:0:0:
348,280,86166,1,0,0:0:0:0:
348,280,86273,1,0,0:0:0:0:
64,200,86487,2,0,P|28:196|0:200,1,65
104,268,86701,2,0,L|120:136,1,130
236,40,87130,1,0,0:0:0:0:
384,84,87344,1,0,0:0:0:0:
240,128,87559,1,0,0:0:0:0:
456,44,87773,1,0,0:0:0:0:
304,84,87987,1,0,0:0:0:0:
456,124,88201,1,0,0:0:0:0:
340,12,88416,1,0,0:0:0:0:
340,12,88844,2,0,P|328:72|336:144,1,130
392,236,89166,1,0,0:0:0:0:
392,236,89273,2,0,B|340:252|340:252|264:240,1,130
84,124,89702,1,0,0:0:0:0:
68,0,89916,1,0,0:0:0:0:
204,184,90130,1,0,0:0:0:0:
192,316,90344,1,0,0:0:0:0:
84,187,90559,2,0,P|152:207|204:183,1,130
236,144,90880,1,0,0:0:0:0:
284,136,90987,2,0,B|352:124|348:164|416:152,1,130
228,232,91416,1,0,0:0:0:0:
116,248,91630,1,0,0:0:0:0:
136,352,91845,1,0,0:0:0:0:
276,336,92059,1,0,0:0:0:0:
288,144,92273,2,0,B|272:112|292:64|292:64|296:0|296:0|260:40,1,195
360,112,92702,2,0,P|420:136|480:112,1,130
508,216,93130,1,0,0:0:0:0:
416,52,93345,1,0,0:0:0:0:
416,52,93452,1,0,0:0:0:0:
416,52,93559,1,0,0:0:0:0:
384,288,93773,1,0,0:0:0:0:
212,216,93988,2,0,P|124:192|24:220,1,195
0,248,94416,2,0,B|20:292|20:292|0:372,1,130
164,272,94845,1,0,0:0:0:0:
252,356,95059,1,0,0:0:0:0:
320,216,95273,1,0,0:0:0:0:
352,384,95488,1,0,0:0:0:0:
504,288,95702,2,0,P|436:312|388:288,1,130
352,252,96023,1,0,0:0:0:0:
320,216,96131,1,0,0:0:0:0:
416,84,96345,1,0,0:0:0:0:
256,40,96559,2,0,B|128:16|128:16|64:36,1,195
48,64,96988,2,0,L|60:196,1,130
304,328,97416,2,0,P|336:332|372:332,1,65
200,248,97631,2,0,P|168:248|136:252,1,65
304,240,97845,2,0,B|392:224|392:224|420:192,1,130
418,193,98166,1,0,0:0:0:0:
418,193,98274,1,0,0:0:0:0:
240,64,98488,2,0,L|236:0,1,65
324,100,98702,2,0,P|216:104|168:176,1,195
176,284,99131,2,0,P|180:312|176:348,1,65
88,176,99345,2,0,P|92:144|104:112,1,65
256,260,99559,2,0,B|300:276|300:276|384:256,1,130
420,232,99881,1,0,0:0:0:0:
444,188,99988,2,0,B|464:124|428:120|444:56,1,130
196,32,100417,1,0,0:0:0:0:
140,24,100524,1,0,0:0:0:0:
88,48,100631,1,0,0:0:0:0:
76,104,100738,1,0,0:0:0:0:
96,156,100845,2,0,P|108:228|92:288,1,130
316,352,101274,1,0,0:0:0:0:
372,360,101381,1,0,0:0:0:0:
424,336,101488,1,0,0:0:0:0:
436,280,101595,1,0,0:0:0:0:
416,228,101702,2,0,P|404:156|420:96,1,130
288,288,102131,2,0,P|256:292|220:288,1,65
256,128,102345,2,0,P|260:164|256:196,1,65
88,104,102560,2,0,P|160:168|72:208,1,224.250004277229
112,28,102988,2,0,B|152:36|184:56|184:56|220:36|252:32,1,149.500002851486
296,28,103310,1,0,0:0:0:0:
344,36,103417,1,0,0:0:0:0:
344,240,103631,2,0,P|340:200|344:164,1,74.7500014257431
420,288,103845,2,0,P|340:276|272:296,1,149.500002851486
112,384,104274,1,0,0:0:0:0:
160,132,104488,1,0,0:0:0:0:
192,268,104703,1,0,0:0:0:0:
388,184,104917,2,0,P|420:180|464:184,1,74.7500014257431
328,264,105131,2,0,P|252:292|188:264,1,149.500002851486
128,176,105453,1,0,0:0:0:0:
128,176,105560,2,0,L|140:96,1,74.7500014257431
260,76,105774,2,0,L|248:0,1,74.7500014257431
244,176,105988,2,0,L|396:164,1,149.500002851486
393,164,106310,1,0,0:0:0:0:
393,164,106417,1,0,0:0:0:0:
328,264,106631,1,0,0:0:0:0:
288,40,106846,1,0,0:0:0:0:
96,176,107060,1,0,0:0:0:0:
72,216,107167,1,0,0:0:0:0:
72,268,107274,1,0,0:0:0:0:
96,312,107381,1,0,0:0:0:0:
140,336,107489,1,0,0:0:0:0:
384,264,107703,2,0,B|392:212|392:212|376:168|376:168|384:116,1,149.500002851486
396,108,108024,1,0,0:0:0:0:
412,92,108131,1,0,0:0:0:0:
296,224,108346,1,0,0:0:0:0:
240,40,108560,1,0,0:0:0:0:
416,176,108774,1,0,0:0:0:0:
440,216,108881,1,0,0:0:0:0:
440,268,108988,1,0,0:0:0:0:
416,312,109095,1,0,0:0:0:0:
372,336,109203,1,0,0:0:0:0:
372,336,109417,2,0,L|220:328,1,149.500002851486
180,252,109739,2,0,L|104:260,1,74.7500014257431
352,244,110060,1,0,0:0:0:0:
144,52,110274,1,0,0:0:0:0:
296,88,110489,2,0,L|372:92,1,74.7500014257431
494,91,110703,2,0,P|430:127|370:91,1,149.500002851486
356,44,111024,1,0,0:0:0:0:
356,0,111132,2,0,B|304:20|304:20|212:4,1,149.500002851486
211,3,111453,1,0,0:0:0:0:
211,3,111560,1,0,0:0:0:0:
196,240,111775,1,0,0:0:0:0:
436,292,111989,2,0,P|476:296|512:288,1,74.7500014257431
348,196,112203,2,0,P|308:196|272:208,1,74.7500014257431
144,312,112417,2,0,P|172:324|216:328,1,74.7500014257431
328,284,112632,1,0,0:0:0:0:
328,284,112846,2,0,P|288:212|308:148,1,149.500002851486
332,120,113167,1,0,0:0:0:0:
372,104,113275,2,0,B|412:128|412:128|472:136|512:84,1,149.500002851486
252,52,113703,1,0,0:0:0:0:
288,248,113918,1,0,0:0:0:0:
332,276,114025,1,0,0:0:0:0:
384,276,114132,1,0,0:0:0:0:
424,244,114239,1,0,0:0:0:0:
444,200,114346,1,0,0:0:0:0:
104,120,114560,1,0,0:0:0:0:
104,120,114775,2,0,L|184:116,1,74.7500014257431
232,40,114989,2,0,P|300:72|372:56,1,149.500002851486
404,32,115310,1,0,0:0:0:0:
428,0,115418,1,0,0:0:0:0:
224,248,115632,1,0,0:0:0:0:
180,276,115739,1,0,0:0:0:0:
128,276,115846,1,0,0:0:0:0:
88,244,115953,1,0,0:0:0:0:
68,200,116060,1,0,0:0:0:0:
256,24,116275,2,0,B|284:100|224:100|256:176,1,149.500002851486
324,232,116596,2,0,L|320:308,1,74.7500014257431
184,60,116918,1,0,0:0:0:0:
436,48,117132,2,0,P|396:48|360:56,1,74.7500014257431
212,132,117346,2,0,P|252:136|292:128,1,74.7500014257431
184,60,117561,2,0,L|192:212,1,149.500002851486
212,248,117882,1,0,0:0:0:0:
248,276,117989,2,0,B|280:296|324:304|324:304|360:292|388:268,1,149.500002851486
383,271,118311,1,0,0:0:0:0:
383,271,118418,1,0,0:0:0:0:
436,48,118632,1,0,0:0:0:0:
332,168,118846,2,0,P|260:196|196:168,1,149.500002851486
140,44,119168,1,0,0:0:0:0:
140,44,119275,2,0,P|68:20|0:52,1,149.500002851486
36,296,119704,2,0,B|64:308|64:308|40:236|48:188,1,149.500002851486
60,148,120025,1,0,0:0:0:0:
76,108,120132,1,0,0:0:0:0:
240,224,120347,1,0,0:0:0:0:
36,296,120561,1,0,0:0:0:0:
372,336,120775,1,0,0:0:0:0:
416,312,120883,1,0,0:0:0:0:
440,268,120990,1,0,0:0:0:0:
440,216,121097,1,0,0:0:0:0:
416,176,121204,1,0,0:0:0:0:
76,108,121418,2,0,P|152:128|216:100,1,149.500002851486
272,24,121740,1,0,0:0:0:0:
272,24,121847,2,0,L|428:32,1,149.500002851486
144,32,122275,1,0,0:0:0:0:
140,336,122490,1,0,0:0:0:0:
96,312,122598,1,0,0:0:0:0:
72,268,122705,1,0,0:0:0:0:
72,216,122812,1,0,0:0:0:0:
96,176,122919,1,0,0:0:0:0:
96,176,123132,2,0,B|148:180|148:180|192:200|192:200|248:204,1,149.500002851486
284,180,123454,1,0,0:0:0:0:
328,180,123561,1,0,0:0:0:0:
140,336,123775,1,0,0:0:0:0:
96,176,123990,2,0,P|120:112|92:40,1,149.500002851486
36,108,124311,1,0,0:0:0:0:
36,108,124418,2,0,B|84:124|84:124|184:104,1,149.500002851486
412,216,124847,2,0,L|488:220,1,74.7500014257431
400,120,125061,2,0,L|324:124,1,74.7500014257431
300,336,125275,2,0,P|340:268|304:208,1,149.500002851486
208,204,125597,1,0,0:0:0:0:
120,240,125704,2,0,P|84:252|44:248,1,74.7500014257431
176,120,125918,2,0,P|216:116|256:128,1,74.7500014257431
368,240,126133,2,0,L|376:88,1,149.500002851486
375,90,126561,2,0,B|340:100|300:80|300:80|264:80|232:100,1,149.500002851486
200,132,126883,1,0,0:0:0:0:
184,172,126990,1,0,0:0:0:0:
208,340,127204,2,0,L|284:348,1,74.7500014257431
392,296,127419,1,0,0:0:0:0:
152,172,127633,1,0,0:0:0:0:
112,136,127740,1,0,0:0:0:0:
100,84,127847,1,0,0:0:0:0:
116,32,127954,1,0,0:0:0:0:
156,0,128061,1,0,0:0:0:0:
424,128,128276,2,0,B|352:144|352:100|276:116,1,149.500002851486
236,136,128597,1,0,0:0:0:0:
200,172,128704,2,0,B|84:164|84:164|104:196,1,149.500002851486
120,224,129026,1,0,0:0:0:0:
144,256,129133,1,0,0:0:0:0:
360,172,129347,1,0,0:0:0:0:
400,136,129454,1,0,0:0:0:0:
412,84,129561,1,0,0:0:0:0:
396,32,129668,1,0,0:0:0:0:
356,0,129775,1,0,0:0:0:0:
120,292,129990,2,0,L|272:276,1,149.500002851486
268,276,130312,1,0,0:0:0:0:
268,276,130419,1,0,0:0:0:0:
308,92,130633,1,0,0:0:0:0:
376,296,130847,1,0,0:0:0:0:
168,104,131062,2,0,P|132:100|92:108,1,74.7500014257431
204,180,131276,2,0,P|216:112|220:32,1,149.500002851486
136,332,131705,2,0,L|216:328,1,74.7500014257431
284,264,131919,2,0,L|364:272,1,74.7500014257431
210,328,132133,2,0,P|194:256|226:188,1,149.500002851486
304,136,132455,1,0,0:0:0:0:
304,136,132562,2,0,B|296:24|296:24|268:48,1,149.500002851486
176,296,132990,1,0,0:0:0:0:
224,320,133097,1,0,0:0:0:0:
276,312,133205,1,0,0:0:0:0:
304,272,133312,1,0,0:0:0:0:
308,216,133419,2,0,P|344:152|420:148,1,149.500002851486
414,145,133740,1,0,0:0:0:0:
414,145,133848,1,0,0:0:0:0:
228,236,134062,1,0,0:0:0:0:
268,48,134276,1,0,0:0:0:0:
316,224,134490,2,0,L|392:220,1,74.7500014257431
352,325,134705,2,0,L|200:313,1,149.500002851486
320,104,135133,6,0,P|324:64|320:28,2,74.7500014257431
248,184,135455,5,0,0:0:0:0:
192,280,135562,6,0,P|188:320|192:356,2,74.7500014257431
256,192,135883,1,0,0:0:0:0:
168,128,135991,6,0,P|128:124|92:128,2,74.7500014257431
256,192,136313,1,0,0:0:0:0:
344,256,136420,6,0,P|384:260|420:256,2,74.7500014257431
256,192,136741,1,0,0:0:0:0:
256,192,136849,1,0,0:0:0:0:
