osu file format v14

[General]
AudioFilename: audio.mp3
AudioLeadIn: 0
PreviewTime: 86724
Countdown: 0
SampleSet: None
StackLeniency: 0.7
Mode: 0
LetterboxInBreaks: 1
WidescreenStoryboard: 0

[Editor]
Bookmarks: 24803,58722,85652,112438,133866,140295,151009
DistanceSpacing: 2
BeatDivisor: 6
GridSize: 32
TimelineZoom: 1.5

[Metadata]
Title:Close To You
TitleUnicode:Close To You
Artist:Jonathan Clay
ArtistUnicode:Jonathan Clay
Creator:noareames
Version:Normal
Source:
Tags:
BeatmapID:1973195
BeatmapSetID:944891

[Difficulty]
HPDrainRate:4
CircleSize:3
OverallDifficulty:4
ApproachRate:5
SliderMultiplier:1.4
SliderTickRate:1

[Events]
//Background and Video events
0,0,"991136.jpg",0,0
//Break Periods
2,61209,68381
2,104066,111238
//Storyboard Layer 0 (Background)
//Storyboard Layer 1 (Fail)
//Storyboard Layer 2 (Pass)
//Storyboard Layer 3 (Foreground)
//Storyboard Sound Samples

[TimingPoints]
-61.6587233224436,535.714285714286,4,3,0,65,1,0
191724,-100,4,3,0,5,0,0

[HitObjects]
161,48,1009,5,2,0:0:0:0:
90,169,1545,5,8,0:0:0:0:
218,113,2081,6,2,P|325:152|229:218,1,280,2|2,0:0|0:0,0:0:0:0:
113,294,3688,5,8,0:0:0:0:
92,155,4224,2,2,B|220:27|156:347|284:251,1,280,2|10,0:0|0:0,0:0:0:0:
318,126,5831,1,8,0:0:0:0:
454,97,6366,2,2,P|387:30|240:108,1,280,2|10,0:0|0:0,0:0:0:0:
127,185,7974,5,8,0:0:0:0:
264,159,8509,2,2,P|326:148|323:287,1,245,2|2,0:0|0:0,0:0:0:0:
296,288,9581,5,2,0:0:0:0:
157,267,10116,2,8,P|185:210|247:160,1,140,8|10,0:0|0:0,0:0:0:0:
380,131,11188,2,8,P|433:130|481:198,1,140,8|2,0:0|0:0,0:0:0:0:
352,250,12259,5,8,0:0:0:0:
224,192,12795,1,2,0:0:0:0:
208,52,13331,2,8,P|119:43|52:63,1,140,8|2,0:0|0:0,0:0:0:0:
130,181,14402,1,8,0:0:0:0:
255,242,14938,2,0,P|289:254|352:338,1,140,2|8,0:0|0:0,0:0:0:0:
455,240,16009,2,2,P|441:174|381:141,1,140,2|10,0:0|0:0,0:0:0:0:
136,104,18152,5,2,0:0:0:0:
105,240,18688,2,10,P|181:238|227:195,1,140,10|2,0:0|0:0,0:0:0:0:
131,93,19759,2,10,B|203:81|283:99,1,140,8|2,0:0|0:0,0:0:0:0:
480,107,21099,2,8,P|515:234|352:352,1,350,8|10,0:0|0:0,0:0:0:0:
216,168,23331,2,2,P|155:200|126:263,2,140,2|2|2,0:0|0:0|0:0,0:0:0:0:
261,299,24938,1,2,0:0:0:0:
138,123,26188,6,2,P|220:69|282:91,1,140,10|2,0:0|0:0,0:0:0:0:
378,143,27259,2,8,P|427:199|411:284,2,140,8|2|8,0:0|0:0|0:0,0:0:0:0:
239,117,28866,1,2,0:0:0:0:
99,128,29402,2,8,P|26:173|32:249,2,140,8|2|8,0:0|0:0|0:0,0:0:0:0:
239,125,31009,1,2,0:0:0:0:
129,211,31545,2,8,P|207:68|350:228,1,420,8|2,0:0|0:0,0:0:0:0:
402,332,33688,6,2,L|314:291,1,93.3333333333333,2|0,0:0|0:0,0:0:0:0:
315,245,34224,2,8,L|214:206,1,105,8|8,0:0|0:0,0:0:0:0:
162,310,35295,5,2,0:0:0:0:
71,203,35830,1,8,0:0:0:0:
140,81,36366,1,2,0:0:0:0:
275,44,36902,2,8,P|356:38|415:66,1,140,8|2,0:0|0:0,0:0:0:0:
297,147,37974,1,8,0:0:0:0:
157,149,38509,2,0,P|191:209|237:263,1,140,2|8,0:0|0:0,0:0:0:0:
361,328,39581,1,2,0:0:0:0:
358,188,40116,2,0,L|358:28,2,140,8|2|8,0:0|0:0|0:0,0:0:0:0:
218,178,41724,1,2,0:0:0:0:
272,49,42259,2,0,P|330:48|377:35,1,93.3333333333333,8|8,0:0|0:0,0:0:0:0:
410,44,42795,2,0,P|381:170|316:270,1,233.333333333333,2|10,0:0|0:0,0:0:0:0:
288,284,43866,5,2,0:0:0:0:
148,272,44401,1,8,0:0:0:0:
231,159,44937,1,2,0:0:0:0:
266,294,45473,1,8,0:0:0:0:
173,188,46009,2,2,P|245:158|308:197,1,140,2|2,0:0|0:0,0:0:0:0:
236,253,46901,1,8,0:0:0:0:
313,135,47438,2,0,L|319:192,1,46.6666666666667,8|2,0:0|0:0,0:0:0:0:
178,199,48152,5,2,0:0:0:0:
268,91,48688,1,8,0:0:0:0:
130,63,49224,1,2,0:0:0:0:
92,197,49759,1,8,0:0:0:0:
165,316,50295,2,0,P|294:357|363:293,1,210,2|8,0:0|0:0,0:0:0:0:
292,165,51724,2,0,L|240:183,1,46.6666666666667,8|2,0:0|0:0,0:0:0:0:
110,152,52438,6,2,L|195:273,1,140,2|8,0:0|0:0,0:0:0:0:
188,126,53510,2,0,L|273:247,1,140,2|8,0:0|0:0,0:0:0:0:
385,316,54581,2,0,P|436:270|390:212,1,140,2|8,0:0|0:0,0:0:0:0:
338,197,55385,1,4,0:0:0:0:
178,163,56009,2,0,L|216:132,1,46.6666666666667,4|2,0:0|0:0,0:0:0:0:
329,53,56724,6,2,P|407:55|403:117,1,140,2|10,0:0|0:0,0:0:0:0:
296,180,57796,2,0,P|354:249|315:292,1,140,2|8,0:0|0:0,0:0:0:0:
198,307,58866,2,0,B|104:293|138:210,1,140,2|8,0:0|0:0,0:0:0:0:
230,224,59759,1,2,0:0:0:0:
141,115,60295,6,0,L|293:81,1,140,8|8,0:0|0:0,0:0:0:0:
323,73,61009,1,6,0:0:0:0:
75,88,69581,5,2,0:0:0:0:
199,151,70116,2,0,P|281:174|358:158,2,140,8|2|8,0:0|0:0|0:0,0:0:0:0:
61,179,71724,5,2,0:0:0:0:
189,234,72259,2,0,P|271:257|348:241,2,140,8|2|8,0:0|0:0|0:0,0:0:0:0:
82,324,73866,1,2,0:0:0:0:
314,303,74759,2,0,P|319:194|307:156,1,140,8|8,0:0|0:0,0:0:0:0:
207,73,75831,2,0,P|123:71|88:129,1,140,2|8,0:0|0:0,0:0:0:0:
71,152,76545,2,8,L|51:194,2,46.6666666666667,8|8|8,0:0|0:0|0:0,0:0:0:0:
116,161,77081,2,0,P|223:189|197:102,1,233.333333333333,2|8,0:0|0:0,0:0:0:0:
164,99,78152,5,2,0:0:0:0:
295,147,78688,2,0,P|378:164|444:143,2,140,8|2|8,0:0|0:0|0:0,0:0:0:0:
170,83,80295,1,10,0:0:0:0:
168,223,80831,2,0,L|166:368,2,140,8|2|8,0:0|0:0|0:0,0:0:0:0:
165,82,82438,6,0,P|223:141|290:122,1,140,2|8,0:0|0:0,0:0:0:0:
303,197,83241,2,0,P|239:229|165:236,1,140,8|8,0:0|0:0,0:0:0:0:
31,236,84313,2,0,P|69:298|136:323,1,140,2|8,0:0|0:0,0:0:0:0:
327,257,85652,6,2,L|367:218,5,46.6666666666667,2|2|2|2|2|2,0:0|0:0|0:0|0:0|0:0|0:0,0:0:0:0:
392,190,86724,1,4,0:0:0:0:
267,125,87259,1,8,0:0:0:0:
399,78,87795,2,0,L|261:30,1,140,2|8,0:0|0:0,0:0:0:0:
285,170,88866,2,0,B|253:138|221:138|189:170,1,93.3333333333333,2|0,0:0|0:0,0:0:0:0:
194,205,89402,2,0,B|226:237|258:237|290:205,1,93.3333333333333,8|0,0:0|0:0,0:0:0:0:
243,183,89938,1,2,0:0:0:0:
157,128,90831,5,8,0:0:0:0:
140,62,91009,2,0,L|78:77,2,46.6666666666667,2|0|0,0:0|0:0|0:0,0:0:0:0:
210,63,91545,1,8,0:0:0:0:
399,153,92081,2,2,L|458:184,2,46.6666666666667,2|2|2,0:0|0:0|0:0,0:0:0:0:
336,121,92617,1,8,0:0:0:0:
129,156,93152,2,2,P|176:212|205:224,1,93.3333333333333,2|2,0:0|0:0,0:0:0:0:
259,242,93688,2,8,P|322:249|367:232,1,93.3333333333333,8|8,0:0|0:0,0:0:0:0:
414,212,94224,2,2,L|474:182,2,46.6666666666667,2|2|2,0:0|0:0|0:0,0:0:0:0:
367,159,94759,1,8,0:0:0:0:
362,60,95295,6,2,L|424:40,2,46.6666666666667,2|2|2,0:0|0:0|0:0,0:0:0:0:
298,89,95831,1,8,0:0:0:0:
401,194,96366,6,2,L|463:174,2,46.6666666666667,2|2|2,0:0|0:0|0:0,0:0:0:0:
332,210,96902,1,8,0:0:0:0:
225,301,97438,6,2,L|117:290,1,93.3333333333333,2|2,0:0|0:0,0:0:0:0:
157,252,97974,2,8,L|50:241,1,93.3333333333333,8|8,0:0|0:0,0:0:0:0:
103,217,98509,2,2,L|7:207,1,93.3333333333333,2|2,0:0|0:0,0:0:0:0:
8,160,99045,2,8,L|16:110,2,46.6666666666667,8|8|8,0:0|0:0|0:0,0:0:0:0:
8,160,99581,5,2,0:0:0:0:
144,189,100116,1,8,0:0:0:0:
252,93,100652,2,0,L|359:198,1,140,2|8,0:0|0:0,0:0:0:0:
214,221,101724,2,0,L|165:182,2,46.6666666666667,0|0|0,0:0|0:0|0:0,0:0:0:0:
258,209,102259,2,2,L|309:249,2,46.6666666666667,10|2|2,0:0|0:0|0:0,0:0:0:0:
230,245,102795,1,2,0:0:0:0:
369,232,103331,2,0,P|348:171|314:149,1,93.3333333333333,8|0,0:0|0:0,0:0:0:0:
321,200,103866,1,6,0:0:0:0:
67,100,112438,6,0,P|211:36|297:51,1,233.333333333333,2|0,0:0|0:0,0:0:0:0:
323,66,113509,1,8,0:0:0:0:
429,157,114045,1,8,0:0:0:0:
491,226,114402,2,2,L|336:353,1,186.666666666667,2|2,0:0|0:0,0:0:0:0:
278,326,115384,1,8,0:0:0:0:
58,322,116545,5,2,0:0:0:0:
137,237,116991,1,2,0:0:0:0:
257,308,117527,1,2,0:0:0:0:
165,118,118331,1,2,0:0:0:0:
165,118,118688,2,0,B|224:224|288:64|339:141,1,186.666666666667,8|8,0:0|0:0,0:0:0:0:
403,178,119759,1,2,0:0:0:0:
411,172,120831,5,8,0:0:0:0:
411,172,121009,2,2,P|256:66|67:171,1,420,2|2,0:0|0:0,0:0:0:0:
65,259,122974,2,8,L|124:279,1,46.6666666666667,10|8,0:0|0:0,0:0:0:0:
202,280,123509,2,0,L|261:300,1,46.6666666666667,2|0,0:0|0:0,0:0:0:0:
339,300,124045,1,2,0:0:0:0:
210,164,124759,1,8,0:0:0:0:
149,235,125116,1,6,0:0:0:0:
256,192,125295,12,6,127438,0:0:0:0:
256,192,129491,12,6,131456,0:0:0:0:
25,92,133866,6,0,P|125:79|171:91,1,140,2|8,0:0|0:0,0:0:0:0:
297,125,134938,2,0,P|350:164|317:234,1,140,2|8,0:0|0:0,0:0:0:0:
201,170,136009,1,2,0:0:0:0:
242,303,136545,2,0,L|138:265,1,93.3333333333333,8|8,0:0|0:0,0:0:0:0:
227,202,138152,6,2,P|304:210|363:233,1,140,2|8,0:0|0:0,0:0:0:0:
252,319,139224,2,0,P|174:314|106:279,1,140,2|8,0:0|0:0,0:0:0:0:
181,163,140295,2,2,L|85:227,1,93.3333333333333,2|2,0:0|0:0,0:0:0:0:
110,261,140831,2,2,L|14:325,1,93.3333333333333,2|2,0:0|0:0,0:0:0:0:
61,348,141366,2,8,L|157:284,1,93.3333333333333,8|8,0:0|0:0,0:0:0:0:
160,256,141902,2,8,L|256:192,1,93.3333333333333,8|8,0:0|0:0,0:0:0:0:
282,156,142438,6,2,L|335:153,2,46.6666666666667,2|2|2,0:0|0:0|0:0,0:0:0:0:
187,140,143509,2,0,L|328:143,1,140,8|2,0:0|0:0,0:0:0:0:
387,107,144581,1,2,0:0:0:0:
379,176,145116,2,8,L|368:267,1,70,8|4,0:0|0:0,0:0:0:0:
302,291,146009,1,8,0:0:0:0:
279,297,146188,1,8,0:0:0:0:
340,205,146724,6,0,L|292:197,1,46.6666666666667,2|0,0:0|0:0,0:0:0:0:
248,188,147081,1,8,0:0:0:0:
311,119,147438,1,8,0:0:0:0:
235,64,147795,2,8,P|152:51|114:98,1,140,8|8,0:0|0:0,0:0:0:0:
45,206,148866,2,2,L|11:254,4,46.6666666666667,2|2|2|2|2,0:0|0:0|0:0|0:0|0:0,0:0:0:0:
73,168,149759,1,12,0:0:0:0:
318,79,151009,5,2,0:0:0:0:
449,127,151545,1,8,0:0:0:0:
314,166,152081,2,2,P|342:216|325:263,1,93.3333333333333,0|0,0:0|0:0,0:0:0:0:
314,290,152616,2,8,P|234:304|176:267,1,140,8|8,0:0|0:0,0:0:0:0:
256,216,153509,2,2,L|250:168,4,46.6666666666667,2|2|2|2|2,0:0|0:0|0:0|0:0|0:0,0:0:0:0:
369,133,154759,2,8,P|338:90|303:65,1,93.3333333333333,8|8,0:0|0:0,0:0:0:0:
42,128,155831,5,2,0:0:0:0:
9,220,156366,2,8,P|13:260|56:307,1,93.3333333333333,8|8,0:0|0:0,0:0:0:0:
69,322,156902,2,2,P|123:352|188:305,1,140,2|2,0:0|0:0,0:0:0:0:
182,249,157795,2,8,L|176:201,4,46.6666666666667,8|8|8|8|8,0:0|0:0|0:0|0:0|0:0,0:0:0:0:
87,275,159045,2,2,L|171:341,1,93.3333333333333,2|2,0:0|0:0,0:0:0:0:
193,333,159581,6,2,P|260:295|263:227,1,140,2|2,0:0|0:0,0:0:0:0:
367,162,160652,2,8,P|277:105|231:105,1,140,8|8,0:0|0:0,0:0:0:0:
245,229,161724,2,2,P|189:280|115:285,1,140,2|2,0:0|0:0,0:0:0:0:
85,219,162616,1,8,0:0:0:0:
103,80,163152,6,2,P|170:47|236:56,1,140,2|2,0:0|0:0,0:0:0:0:
275,73,163866,1,8,0:0:0:0:
388,154,164402,1,2,0:0:0:0:
298,261,164938,2,8,L|222:316,1,93.3333333333333,8|8,0:0|0:0,0:0:0:0:
180,335,165474,2,2,P|123:353|81:326,1,93.3333333333333,2|2,0:0|0:0,0:0:0:0:
89,294,166009,1,10,0:0:0:0:
97,154,166545,1,0,0:0:0:0:
193,255,167081,1,0,0:0:0:0:
277,294,167438,2,8,L|312:328,1,46.6666666666667,8|8,0:0|0:0,0:0:0:0:
218,307,167974,5,2,0:0:0:0:
334,251,168152,2,2,L|197:201,1,140,2|2,0:0|0:0,0:0:0:0:
103,92,169224,2,0,L|47:79,2,46.6666666666667,8|0|0,0:0|0:0|0:0,0:0:0:0:
212,132,169759,1,2,0:0:0:0:
339,174,170295,2,8,P|318:259|274:304,1,140
128,121,171188,1,2,0:0:0:0:
1,329,172259,5,2,0:0:0:0:
46,339,172438,2,2,L|109:262,1,93.3333333333333,2|2,0:0|0:0,0:0:0:0:
150,279,172974,2,8,L|213:202,1,93.3333333333333,8|8,0:0|0:0,0:0:0:0:
255,214,173509,2,2,L|318:137,1,93.3333333333333,2|2,0:0|0:0,0:0:0:0:
341,104,174045,1,8,0:0:0:0:
247,98,174402,1,8,0:0:0:0:
213,130,174581,2,2,L|169:170,9,46.6666666666667,2|2|2|2|2|2|2|2|2|6,0:0|0:0|0:0|0:0|0:0|0:0|0:0|0:0|0:0|0:0,0:0:0:0:
237,288,176724,5,2,0:0:0:0:
376,286,177259,1,8,0:0:0:0:
322,156,177795,2,2,L|268:188,3,46.6666666666667,2|2|2|2,0:0|0:0|0:0|0:0,0:0:0:0:
220,214,178599,2,8,L|407:106,1,210,8|8,0:0|0:0,0:0:0:0:
342,181,179759,1,2,0:0:0:0:
230,95,180295,6,8,L|277:95,1,46.6666666666667,8|8,0:0|0:0,0:0:0:0:
368,111,180831,1,8,0:0:0:0:
402,141,181009,1,2,0:0:0:0:
379,279,181545,1,8,0:0:0:0:
290,170,182081,2,2,L|204:134,1,93.3333333333333,2|2,0:0|0:0,0:0:0:0:
161,307,183152,2,8,B|-67:306|16:264|-48:229|-105:237|67:58,1,420,8|8,0:0|0:0,0:0:0:0:
226,77,185831,5,2,0:0:0:0:
333,166,186366,2,8,L|407:232,1,93.3333333333333,8|8,0:0|0:0,0:0:0:0:
104,93,187974,5,2,0:0:0:0:
243,83,188509,2,8,P|285:85|338:107,1,93.3333333333333,8|8,0:0|0:0,0:0:0:0:
333,150,189045,2,2,P|320:197|266:220,1,93.3333333333333,2|2,0:0|0:0,0:0:0:0:
256,192,189581,12,4,191724,0:0:0:0:
