osu file format v14

[General]
AudioFilename: audio.mp3
AudioLeadIn: 0
PreviewTime: 24434
Countdown: 0
SampleSet: Soft
StackLeniency: 0.4
Mode: 0
LetterboxInBreaks: 0
WidescreenStoryboard: 1

[Editor]
Bookmarks: 4040,29827
DistanceSpacing: 0.3
BeatDivisor: 4
GridSize: 16
TimelineZoom: 1.4

[Metadata]
Title:Chikatto Chika Chika (Instrumental)
TitleUnicode:Chikatto Chika Chika (Instrumental)
Artist:Jonatan King
ArtistUnicode:Jonatan King
Creator:DakiniBrave
Version:The Disappearance of Fujiwara Chika
Source:かぐや様は告らせたい~天才たちの恋愛頭脳戦~
Tags:
BeatmapID:1982649
BeatmapSetID:949450

[Difficulty]
HPDrainRate:6
CircleSize:4
OverallDifficulty:8.7
ApproachRate:9
SliderMultiplier:1.9
SliderTickRate:1

[Events]
//Background and Video events
0,0,"chika pepega.jpg",0,0
//Break Periods
//Storyboard Layer 0 (Background)
//Storyboard Layer 1 (Fail)
//Storyboard Layer 2 (Pass)
//Storyboard Layer 3 (Foreground)
//Storyboard Sound Samples

[TimingPoints]
333,337.078651685393,4,2,1,70,1,0
8422,-100,4,2,1,75,0,0
10445,-100,4,2,1,50,0,0
10782,-100,4,2,1,60,0,0
10950,-100,4,2,1,45,0,0
11119,-100,4,2,1,70,0,0
12467,-100,4,2,1,75,0,0
15164,-100,4,2,1,80,0,0
16512,-100,4,2,1,85,0,0
16681,-100,4,2,1,75,0,0
16849,-100,4,2,1,85,0,0
17018,-100,4,2,1,70,0,0
18029,-100,4,2,1,80,0,0
18872,-100,4,2,1,60,0,0
19209,-100,4,2,1,75,0,0
24602,-83.3333333333333,4,2,1,85,0,1
28647,-83.3333333333333,4,2,1,90,0,1
29321,-83.3333333333333,4,2,1,95,0,1
29827,-100,4,2,1,70,0,0

[Colours]
Combo1 : 224,133,135
Combo2 : 239,88,217
Combo3 : 224,65,108
Combo4 : 226,159,234

[HitObjects]
87,96,333,6,0,P|145:115|169:166,1,95,0|0,3:0|0:0,0:0:0:0:
70,294,670,2,0,P|57:234|89:187,1,95,8|0,3:1|3:0,0:0:0:0:
237,211,1007,2,0,P|191:251|135:247,1,95,0|0,0:0|3:0,0:0:0:0:
252,116,1344,1,8,3:1:0:0:
321,301,1512,6,0,P|325:251|347:205,1,95,0|0,0:0|3:0,0:0:0:0:
479,125,1849,1,0,0:0:0:0:
432,304,2018,1,8,3:1:0:0:
359,65,2186,1,0,3:0:0:0:
489,225,2355,1,0,0:0:0:0:
457,33,2524,1,0,3:0:0:0:
353,216,2692,1,8,3:1:0:0:
478,137,2861,1,0,0:0:0:0:
288,7,3029,6,0,P|270:50|289:124,1,95,0|0,3:0|0:0,0:0:0:0:
366,71,3366,1,8,3:1:0:0:
171,117,3535,2,0,B|192:228|192:227,1,95,0|0,3:0|0:0,0:0:0:0:
87,177,3872,1,0,3:0:0:0:
282,184,4040,2,0,B|261:295|261:294,1,95,8|0,3:1|0:0,0:0:0:0:
120,343,4377,5,0,3:0:0:0:
76,195,4546,1,0,0:0:0:0:
111,355,4715,1,8,3:1:0:0:
158,144,4883,1,0,3:0:0:0:
199,286,5052,1,0,0:0:0:0:
81,106,5220,1,0,3:0:0:0:
51,280,5389,1,8,3:1:0:0:
153,60,5557,1,0,0:0:0:0:
294,264,5726,6,0,P|277:304|272:368,1,95,0|0,3:0|0:0,0:0:0:0:
382,187,6063,2,0,P|376:139|359:95,1,95,8|0,3:1|3:0,0:0:0:0:
386,276,6400,2,0,P|369:316|364:380,1,95,0|0,0:0|3:0,0:0:0:0:
474,199,6737,2,0,P|468:151|451:107,1,95,8|0,3:1|0:0,0:0:0:0:
447,104,6990,1,0,0:0:0:0:
442,102,7074,5,0,3:0:0:0:
377,264,7243,2,0,P|312:258|261:230,1,95,0|8,0:0|3:1,0:0:0:0:
110,188,7580,2,0,P|175:182|226:154,1,95,0|0,3:0|0:0,0:0:0:0:
291,77,7917,1,0,3:0:0:0:
148,8,8085,2,0,L|136:114,1,95,8|0,3:1|0:0,0:0:0:0:
182,270,8422,5,8,3:2:0:0:
283,84,8591,1,8,3:2:0:0:
283,84,9097,5,8,3:2:0:0:
311,346,9265,1,8,3:2:0:0:
311,346,9771,5,8,3:2:0:0:
213,14,9939,1,8,3:2:0:0:
213,14,10445,1,0,0:0:0:0:
174,171,10613,1,0,0:0:0:0:
409,99,10782,2,0,L|304:86,1,95,8|0,3:1|0:0,0:0:0:0:
304,97,11035,1,0,0:0:0:0:
293,106,11119,6,0,L|197:92,1,95,0|0,3:0|0:0,0:0:0:0:
87,90,11456,1,8,3:1:0:0:
13,245,11625,2,0,B|128:223|85:285|200:268,1,190,0|0,3:0|3:0,0:0:0:0:
275,336,12130,2,0,P|288:283|314:234,1,95,8|0,3:1|0:0,0:0:0:0:
318,239,12383,1,0,0:0:0:0:
331,234,12467,5,8,3:2:0:0:
128,168,12636,1,8,3:2:0:0:
128,168,13141,5,8,3:2:0:0:
420,117,13310,1,8,3:2:0:0:
420,117,13816,5,8,3:2:0:0:
88,46,13984,1,8,3:2:0:0:
88,46,14490,5,8,3:2:0:0:
478,31,14658,1,8,3:2:0:0:
478,31,15164,5,8,3:2:0:0:
195,133,15332,1,0,3:2:0:0:
195,133,15838,5,8,3:2:0:0:
478,31,16007,1,0,3:2:0:0:
478,31,16512,5,8,3:2:0:0:
381,288,16681,1,0,3:2:0:0:
377,0,16849,1,8,3:2:0:0:
473,326,17018,1,0,3:2:0:0:
177,317,18029,5,8,3:1:0:0:
194,192,18198,1,8,3:1:0:0:
302,334,18366,1,8,3:1:0:0:
319,209,18535,1,8,3:1:0:0:
248,263,18872,5,4,0:2:0:0:
96,64,19209,5,0,3:0:0:0:
56,250,19377,1,0,0:0:0:0:
179,36,19546,1,8,3:1:0:0:
202,238,19715,1,0,3:0:0:0:
20,130,19883,1,0,0:0:0:0:
257,92,20052,1,0,3:0:0:0:
0,60,20220,1,8,3:1:0:0:
251,168,20389,1,0,0:0:0:0:
83,282,20557,5,0,3:0:0:0:
148,96,20726,1,0,0:0:0:0:
190,315,20894,1,8,3:1:0:0:
85,158,21063,1,0,3:0:0:0:
269,167,21231,2,0,P|285:206|283:279,1,95,0|0,0:0|3:0,0:0:0:0:
163,98,21568,2,0,P|164:50|181:6,1,95,8|0,3:1|0:0,0:0:0:0:
368,65,21906,5,2,3:2:0:0:
184,181,22074,1,2,0:2:0:0:
421,178,22243,1,8,3:1:0:0:
249,68,22411,1,2,3:2:0:0:
451,18,22580,1,2,0:2:0:0:
399,253,22748,1,2,3:2:0:0:
313,21,22917,1,8,3:1:0:0:
503,145,23085,1,2,0:2:0:0:
312,317,23254,6,0,P|296:272|294:224,1,95,0|0,3:0|0:0,0:0:0:0:
157,33,23591,2,0,P|172:77|174:125,1,95,8|0,3:1|3:0,0:0:0:0:
101,309,23928,2,0,P|85:264|83:216,1,95,0|0,0:0|3:0,0:0:0:0:
188,120,24265,1,8,3:1:0:0:
285,317,24434,1,0,0:0:0:0:
285,317,24518,1,0,0:0:0:0:
285,317,24602,5,8,3:2:0:0:
372,45,24771,1,0,3:2:0:0:
438,334,24939,1,8,3:2:0:0:
279,34,25108,1,0,3:2:0:0:
149,311,25276,1,8,3:2:0:0:
473,161,25445,1,0,3:2:0:0:
156,199,25613,1,8,3:2:0:0:
446,322,25782,1,0,3:2:0:0:
206,41,25950,5,8,3:2:0:0:
122,375,26119,1,0,3:2:0:0:
87,19,26288,1,8,3:2:0:0:
259,382,26456,1,0,3:2:0:0:
318,13,26625,1,8,3:2:0:0:
191,333,26793,1,0,3:2:0:0:
81,38,26962,1,8,3:2:0:0:
389,129,27130,1,0,3:2:0:0:
389,129,27215,1,0,0:0:0:0:
389,129,27299,5,8,3:2:0:0:
83,230,27467,1,0,3:2:0:0:
438,291,27636,1,8,3:2:0:0:
154,101,27804,1,0,3:2:0:0:
235,357,27973,1,8,3:2:0:0:
339,35,28141,1,0,3:2:0:0:
42,145,28310,1,8,3:2:0:0:
381,198,28479,1,0,3:2:0:0:
84,26,28647,5,8,3:2:0:0:
15,377,28816,1,8,3:2:0:0:
248,5,28984,1,8,3:2:0:0:
369,384,29153,1,8,3:2:0:0:
35,153,29321,1,8,3:1:0:0:
454,37,29490,1,8,3:1:0:0:
188,375,29658,1,8,3:1:0:0:
87,12,29827,1,8,3:1:0:0:
150,202,32018,5,8,3:1:0:0:
256,192,32102,12,0,36063,0:0:0:0:
