osu file format v14

[General]
AudioFilename: audio.mp3
AudioLeadIn: 0
PreviewTime: 24434
Countdown: 0
SampleSet: Soft
StackLeniency: 0.4
Mode: 0
LetterboxInBreaks: 0
WidescreenStoryboard: 1

[Editor]
Bookmarks: 29827
DistanceSpacing: 0.4
BeatDivisor: 4
GridSize: 16
TimelineZoom: 1

[Metadata]
Title:Chikatto Chika Chika (Instrumental)
TitleUnicode:Chikatto Chika Chika (Instrumental)
Artist:Jonatan King
ArtistUnicode:Jonatan King
Creator:DakiniBrave
Version:Hard
Source:かぐや様は告らせたい~天才たちの恋愛頭脳戦~
Tags:
BeatmapID:1982646
BeatmapSetID:949450

[Difficulty]
HPDrainRate:5
CircleSize:4
OverallDifficulty:6.9
ApproachRate:7.3
SliderMultiplier:1.4
SliderTickRate:1

[Events]
//Background and Video events
0,0,"chika pepega.jpg",0,0
//Break Periods
//Storyboard Layer 0 (Background)
//Storyboard Layer 1 (Fail)
//Storyboard Layer 2 (Pass)
//Storyboard Layer 3 (Foreground)
//Storyboard Sound Samples

[TimingPoints]
333,337.078651685393,4,2,0,100,1,0

[Colours]
Combo1 : 224,133,135
Combo2 : 239,88,217
Combo3 : 224,65,108
Combo4 : 226,159,234

[HitObjects]
157,98,333,6,0,P|181:152|177:186,1,70
101,161,670,2,0,P|77:215|81:249,1,70
122,305,1007,2,0,B|205:289|180:335|263:329,1,140
338,293,1512,6,0,L|325:225,1,70
266,153,1849,1,0,0:0:0:0:
331,96,2018,2,0,P|363:110|406:118,1,70
245,68,2355,2,0,P|210:75|178:89,1,70
109,174,2692,2,0,P|105:137|90:100,1,70
66,26,3029,6,0,L|-15:52,2,70
155,55,3535,2,0,L|221:76,1,70
324,38,3872,1,0,0:0:0:0:
307,138,4040,2,0,L|316:222,1,70
412,305,4377,6,0,P|366:293|321:304,1,70
269,349,4715,2,0,P|235:360|201:358,1,70
121,368,5052,2,0,L|136:279,1,70
215,255,5389,2,0,L|200:166,1,70
151,120,5726,6,0,P|99:133|10:105,2,140
215,61,6568,1,0,0:0:0:0:
284,145,6737,2,0,L|274:229,1,70
275,214,6990,1,0,0:0:0:0:
275,214,7074,6,0,L|285:298,1,70
221,352,7411,1,0,0:0:0:0:
128,350,7580,2,0,P|148:300|181:274,1,70
62,276,7917,1,0,0:0:0:0:
62,276,8085,2,0,P|42:226|9:200,1,70
68,100,8422,5,0,0:0:0:0:
151,188,8591,1,0,0:0:0:0:
151,188,9097,5,0,0:0:0:0:
234,100,9265,1,0,0:0:0:0:
234,100,9771,5,0,0:0:0:0:
317,188,9939,1,0,0:0:0:0:
317,188,10445,6,0,L|401:172,1,70
469,161,10782,1,0,0:0:0:0:
509,262,10950,1,0,0:0:0:0:
509,262,11035,1,0,0:0:0:0:
509,262,11119,6,0,L|429:244,1,70
366,289,11456,1,0,0:0:0:0:
265,233,11625,2,0,B|294:272|294:272|281:376,1,140
282,362,12130,1,0,0:0:0:0:
189,310,12299,1,0,0:0:0:0:
189,310,12383,1,0,0:0:0:0:
189,310,12467,5,0,0:0:0:0:
125,236,12636,1,0,0:0:0:0:
125,236,13141,5,0,0:0:0:0:
189,162,13310,1,0,0:0:0:0:
189,162,13816,5,0,0:0:0:0:
125,88,13984,1,0,0:0:0:0:
125,88,14490,5,0,0:0:0:0:
189,14,14658,1,0,0:0:0:0:
276,88,15164,5,0,0:0:0:0:
222,228,15332,1,0,0:0:0:0:
222,228,15838,5,0,0:0:0:0:
276,88,16007,1,0,0:0:0:0:
471,62,16512,2,0,L|462:138,1,70
404,203,16849,1,0,0:0:0:0:
492,291,17018,2,0,B|322:234|316:392|143:318,1,350
104,230,18029,5,0,0:0:0:0:
48,361,18198,1,0,0:0:0:0:
11,262,18366,1,0,0:0:0:0:
148,334,18535,1,0,0:0:0:0:
134,53,18872,6,0,P|183:29|246:37,1,105
232,32,19209,6,0,L|247:122,1,70
335,82,19546,2,0,L|320:172,1,70
229,188,19883,2,0,L|244:278,1,70
360,265,20220,2,0,L|345:355,1,70
348,334,20473,1,0,0:0:0:0:
348,334,20557,6,0,L|278:345,1,70
182,320,20894,1,0,0:0:0:0:
85,358,21063,2,0,L|103:190,1,140
0,175,21568,2,0,L|12:258,1,70
82,117,21906,6,0,P|156:130|229:91,1,140
273,46,22411,1,0,0:0:0:0:
299,123,22580,2,0,L|281:195,1,70
197,207,22917,2,0,L|215:279,1,70
291,334,23254,5,0,0:0:0:0:
291,334,23422,1,0,0:0:0:0:
367,277,23591,1,0,0:0:0:0:
367,277,23759,1,0,0:0:0:0:
444,343,23928,2,0,L|461:269,1,70
512,210,24265,2,0,L|495:136,1,70
419,67,24602,5,0,0:0:0:0:
336,167,24771,1,0,0:0:0:0:
327,75,24939,1,0,0:0:0:0:
427,158,25108,1,0,0:0:0:0:
274,231,25276,2,0,P|252:193|250:152,1,70
165,129,25613,2,0,P|187:91|189:50,1,70
36,88,25950,6,0,L|112:70,1,70
69,188,26288,2,0,L|-7:170,1,70
85,279,26625,6,0,L|161:261,1,70
118,379,26962,2,0,L|42:361,1,70
226,216,27299,6,0,P|238:254|237:296,1,70
89,166,27636,2,0,P|90:131|101:98,1,70
208,17,27973,1,0,0:0:0:0:
300,144,28141,1,0,0:0:0:0:
312,29,28310,1,0,0:0:0:0:
197,129,28479,1,0,0:0:0:0:
284,236,28647,6,0,P|338:231|368:210,1,70
191,261,28984,2,0,P|222:305|255:320,1,70
372,349,29321,5,0,0:0:0:0:
295,138,29490,1,0,0:0:0:0:
234,313,29658,1,0,0:0:0:0:
351,223,29827,1,0,0:0:0:0:
179,155,32018,5,0,0:0:0:0:
256,192,32186,12,0,36063,0:0:0:0:
