osu file format v14

[General]
AudioFilename: audio.ogg
AudioLeadIn: 0
PreviewTime: 43452
Countdown: 0
SampleSet: Soft
StackLeniency: 0.7
Mode: 0
LetterboxInBreaks: 0
WidescreenStoryboard: 1

[Editor]
DistanceSpacing: 1
BeatDivisor: 2
GridSize: 16
TimelineZoom: 1.5

[Metadata]
Title:The Chosen One (TV Size)
TitleUnicode:The Chosen One (TV Size)
Artist:Jonas Brothers
ArtistUnicode:Jonas Brothers
Creator:AJT
Version:Normal
Source:American Dragon: Jake Long
Tags:english rock disney channel ascended aranel
BeatmapID:4366631
BeatmapSetID:2083844

[Difficulty]
HPDrainRate:3
CircleSize:3
OverallDifficulty:4
ApproachRate:5
SliderMultiplier:1.3
SliderTickRate:1

[Events]
//Background and Video events
0,0,"Lt4d2Bl.jpeg",0,0
Video,115,"s2.avi"
//Break Periods
//Storyboard Layer 0 (Background)
//Storyboard Layer 1 (Fail)
//Storyboard Layer 2 (Pass)
//Storyboard Layer 3 (Foreground)
//Storyboard Layer 4 (Overlay)
//Storyboard Sound Samples

[TimingPoints]
327,416.666666666667,4,2,1,70,1,0
1993,-100,4,2,1,85,0,0
15327,-95.2380952380952,4,2,1,90,0,0
23660,-90.9090909090909,4,2,1,95,0,0
36993,-95.2380952380952,4,2,1,95,0,0
43660,-90.9090909090909,4,2,1,100,0,0

[Colours]
Combo1 : 255,192,0
Combo2 : 128,0,255
Combo3 : 0,255,0
Combo4 : 242,24,57

[HitObjects]
133,31,327,6,0,P|80:17|-3:10,2,130,2|2|2,0:0|0:0|0:0,0:0:0:0:
174,82,1368,1,2,0:0:0:0:
174,82,1577,2,0,P|167:120|138:140,1,65,2|2,0:0|0:0,0:0:0:0:
100,180,1993,6,0,P|105:234|129:314,1,130,0|0,3:0|1:0,0:0:0:0:
232,381,2827,1,2,0:0:0:0:
309,276,3243,2,0,P|348:279|378:303,1,65,0|2,1:0|0:0,0:0:0:0:
419,342,3660,1,0,3:0:0:0:
481,325,3868,1,0,3:0:0:0:
432,204,4285,2,0,P|434:145|456:71,1,130,2|0,0:0|3:0,0:0:0:0:
510,43,4910,1,0,1:0:0:0:
383,11,5327,6,0,P|324:13|250:35,1,130,0|0,3:0|1:0,0:0:0:0:
223,88,5952,1,2,0:0:0:0:
268,134,6160,2,0,P|267:163|256:200,1,65,2|0,0:0|0:0,0:0:0:0:
215,247,6577,1,0,1:0:0:0:
275,361,6993,6,0,P|333:351|378:332,2,97.5,0|2|2,3:0|0:0|0:0,0:0:0:0:
84,316,8243,2,0,P|70:289|61:252,1,65,0|0,1:0|0:0,0:0:0:0:
101,205,8660,1,0,3:0:0:0:
101,205,8868,1,0,3:0:0:0:
110,75,9285,2,0,P|62:40|-17:-2,2,130,2|0|0,0:0|3:0|0:0,0:0:0:0:
175,70,10327,1,0,3:0:0:0:
304,56,10743,1,0,1:0:0:0:
433,40,11160,6,0,L|501:30,2,65,2|0|0,0:0|3:0|1:0,0:0:0:0:
409,103,11785,1,2,0:0:0:0:
409,103,11993,2,0,P|416:137|436:163,1,65,2|2,3:2|3:2,0:0:0:0:
492,201,12410,1,2,1:2:0:0:
492,201,12618,2,0,P|467:297|395:357,1,195,2|0,0:0|1:0,0:0:0:0:
266,375,13660,1,0,3:0:0:0:
149,318,14077,1,0,1:0:0:0:
112,204,14493,1,0,3:0:0:0:
112,204,14702,1,0,3:0:0:0:
112,204,14910,1,0,1:0:0:0:
197,97,15327,6,0,P|264:77|348:71,2,136.499995834351,0|0|2,3:0|1:0|0:0,0:0:0:0:
112,204,16577,1,0,1:0:0:0:
248,204,16993,2,0,P|281:200|314:190,2,68.2499979171754,0|0|0,3:0|3:0|1:0,0:0:0:0:
213,262,17618,1,2,0:0:0:0:
213,262,17827,2,0,P|216:296|226:329,1,68.2499979171754,2|0,0:0|3:0,0:0:0:0:
276,373,18243,1,0,1:0:0:0:
410,349,18660,5,0,3:0:0:0:
430,284,18868,1,0,3:0:0:0:
436,216,19076,1,0,1:0:0:0:
303,183,19493,2,0,P|323:116|329:32,1,136.499995834351,2|0,0:0|1:0,0:0:0:0:
193,62,20326,2,0,P|189:95|179:128,2,68.2499979171754,0|0|0,3:0|3:0|1:0,0:0:0:0:
149,16,20951,1,2,0:0:0:0:
149,16,21160,2,0,P|114:17|81:25,1,68.2499979171754,2|0,0:0|3:0,0:0:0:0:
39,78,21576,1,0,1:0:0:0:
21,144,21785,1,2,0:0:0:0:
54,203,21993,1,4,0:0:0:0:
512,384,23660,6,0,P|512:346|496:313,1,71.5000021820069,4|0,3:2|3:0,0:0:0:0:
470,255,24077,1,0,1:0:0:0:
470,255,24285,2,0,P|418:219|337:213,1,143.000004364014,2|0,0:0|3:0,0:0:0:0:
274,240,24910,1,0,1:0:0:0:
239,378,25327,2,0,P|173:362|119:304,2,143.000004364014,0|0|2,3:0|1:0|0:0,0:0:0:0:
307,350,26368,1,0,3:0:0:0:
307,350,26577,1,0,1:0:0:0:
435,288,26993,6,0,P|435:250|419:217,1,71.5000021820069,0|0,3:0|3:0,0:0:0:0:
393,159,27410,1,0,1:0:0:0:
393,159,27618,2,0,P|341:123|260:117,1,143.000004364014,2|0,0:0|3:0,0:0:0:0:
197,144,28243,1,0,1:0:0:0:
287,26,28660,2,0,P|353:33|422:66,2,143.000004364014,0|0|2,3:0|1:0|0:0,0:0:0:0:
197,144,29910,2,0,P|170:162|130:165,1,71.5000021820069,0|2,1:0|0:0,0:0:0:0:
79,134,30327,5,0,3:0:0:0:
79,134,30535,1,0,3:0:0:0:
79,134,30743,1,0,1:0:0:0:
22,269,31160,1,2,0:0:0:0:
22,269,31368,1,0,3:0:0:0:
22,269,31576,1,0,1:0:0:0:
124,384,31993,1,0,3:0:0:0:
124,384,32201,1,0,3:0:0:0:
124,384,32409,1,0,1:0:0:0:
274,373,32827,5,2,0:0:0:0:
274,373,33035,1,0,3:0:0:0:
274,373,33243,2,0,P|307:363|333:339,1,71.5000021820069,0|2,1:0|0:0,0:0:0:0:
395,302,33660,2,0,P|395:264|379:231,1,71.5000021820069,0|0,3:0|3:0,0:0:0:0:
353,173,34077,1,0,1:0:0:0:
353,173,34285,2,0,P|301:137|220:131,1,143.000004364014,2|0,0:0|3:0,0:0:0:0:
157,158,34910,1,0,1:0:0:0:
256,192,35118,12,0,36577,1:0:0:0:
197,287,36993,6,0,P|264:307|348:313,1,136.499995834351,4|0,3:2|1:0,0:0:0:0:
376,263,37618,1,2,0:0:0:0:
376,263,37827,2,0,P|409:267|442:277,2,68.2499979171754,2|0|0,0:0|3:0|1:0,0:0:0:0:
331,133,38660,1,0,3:0:0:0:
204,185,39077,2,0,P|170:188|137:198,1,68.2499979171754,0|0,1:0|0:0,0:0:0:0:
83,238,39493,1,2,0:0:0:0:
83,238,39702,1,0,3:0:0:0:
83,238,39910,1,0,1:0:0:0:
11,121,40327,6,0,P|21:49|31:10,1,102.374996875763,0|2,3:0|0:0,0:0:0:0:
134,13,40952,1,2,0:0:0:0:
134,13,41160,2,0,P|168:16|201:26,1,68.2499979171754,2|0,0:0|3:0,0:0:0:0:
232,86,41577,2,0,P|229:120|219:153,1,68.2499979171754,0|0,1:0|0:0,0:0:0:0:
187,212,41993,2,0,P|190:246|200:279,1,68.2499979171754,0|0,3:0|3:0,0:0:0:0:
260,310,42410,2,0,P|294:307|327:297,1,68.2499979171754,0|0,1:0|1:0,0:0:0:0:
376,249,42827,1,0,1:0:0:0:
396,184,43035,1,0,1:0:0:0:
412,117,43243,1,0,1:0:0:0:
311,15,43660,6,0,P|273:15|240:31,1,71.5000021820069,4|0,3:2|3:0,0:0:0:0:
226,101,44077,1,0,1:0:0:0:
226,101,44285,2,0,P|215:163|163:225,1,143.000004364014,2|0,0:0|3:0,0:0:0:0:
101,255,44910,2,0,P|63:255|30:239,2,71.5000021820069,0|2|0,1:0|0:0|3:0,0:0:0:0:
208,366,45743,1,0,1:0:0:0:
208,366,45952,1,2,0:0:0:0:
208,366,46160,1,2,0:0:0:0:
333,296,46577,2,0,P|323:259|299:231,1,71.5000021820069,0|2,1:0|0:0,0:0:0:0:
319,164,46993,2,0,P|267:127|186:119,1,143.000004364014,0|0,3:0|1:0,0:0:0:0:
152,62,47618,1,2,0:0:0:0:
291,29,48035,6,0,P|358:12|442:1,1,143.000004364014,0|2,3:0|0:0,0:0:0:0:
488,44,48660,2,0,P|478:81|454:109,1,71.5000021820069,0|0,3:0|3:0,0:0:0:0:
412,162,49077,2,0,P|422:199|446:227,1,71.5000021820069,0|2,1:0|0:0,0:0:0:0:
497,270,49493,1,0,3:0:0:0:
405,380,49910,2,0,P|366:375|335:356,1,71.5000021820069,0|2,1:0|0:0,0:0:0:0:
285,313,50326,1,0,3:0:0:0:
285,313,50535,2,0,P|233:350|152:358,1,143.000004364014,0|2,3:0|0:0,0:0:0:0:
56,256,51368,1,2,3:2:0:0:
256,192,51993,6,0,P|327:188|427:141,1,143.000004364014,0|0,3:0|1:0,0:0:0:0:
276,80,52827,2,0,P|205:76|105:29,1,143.000004364014,2|0,0:0|1:0,0:0:0:0:
0,0,53660,2,0,P|0:38|16:71,1,71.5000021820069,0|0,3:0|3:0,0:0:0:0:
42,129,54077,1,0,1:0:0:0:
42,129,54285,2,0,P|94:165|175:171,1,143.000004364014,2|0,0:0|3:0,0:0:0:0:
242,181,54910,2,0,P|262:219|273:262,1,71.5000021820069,0|0,1:0|3:0,0:0:0:0:
240,311,55327,1,4,0:2:0:0:
256,192,55535,12,4,57306,3:1:0:0:
