osu file format v14

[General]
AudioFilename: audio.ogg
AudioLeadIn: 0
PreviewTime: 43452
Countdown: 0
SampleSet: Soft
StackLeniency: 0.7
Mode: 0
LetterboxInBreaks: 0
WidescreenStoryboard: 1

[Editor]
DistanceSpacing: 1.3
BeatDivisor: 4
GridSize: 16
TimelineZoom: 1.5

[Metadata]
Title:The Chosen One (TV Size)
TitleUnicode:The Chosen One (TV Size)
Artist:Jonas Brothers
ArtistUnicode:Jonas Brothers
Creator:AJT
Version:Ascended's Hard
Source:American Dragon: Jake Long
Tags:english rock disney channel ascended aranel
BeatmapID:4368328
BeatmapSetID:2083844

[Difficulty]
HPDrainRate:4
CircleSize:4
OverallDifficulty:6
ApproachRate:7
SliderMultiplier:1.5
SliderTickRate:1

[Events]
//Background and Video events
0,0,"Lt4d2Bl.jpeg",0,0
Video,115,"s2.avi"
//Break Periods
//Storyboard Layer 0 (Background)
//Storyboard Layer 1 (Fail)
//Storyboard Layer 2 (Pass)
//Storyboard Layer 3 (Foreground)
//Storyboard Layer 4 (Overlay)
//Storyboard Sound Samples

[TimingPoints]
327,416.666666666667,4,2,1,70,1,0
1993,-90.9090909090909,4,2,1,85,0,0
15327,-90.9090909090909,4,2,1,90,0,0
23660,-90.9090909090909,4,2,1,95,0,0
43660,-90.9090909090909,4,2,1,100,0,0

[Colours]
Combo1 : 255,192,0
Combo2 : 128,0,255
Combo3 : 0,255,0
Combo4 : 242,24,57

[HitObjects]
221,372,327,6,0,L|298:365,2,75,2|2|2,0:0|0:0|0:0,0:0:0:0:
221,268,952,1,2,0:0:0:0:
221,268,1056,1,2,0:0:0:0:
221,268,1160,2,0,L|297:277,1,75,2|2,0:0|0:0,0:0:0:0:
291,160,1577,2,0,L|215:169,1,75,2|2,0:0|0:0,0:0:0:0:
112,221,1993,6,0,P|41:202|15:100,1,165.000005035401,0|0,3:0|1:0,0:0:0:0:
57,48,2618,1,2,0:0:0:0:
147,70,2827,2,0,P|188:65|233:56,1,82.5000025177003,2|0,0:0|0:0,0:0:0:0:
331,90,3243,2,0,P|323:49|318:8,1,82.5000025177003,0|2,1:0|0:0,0:0:0:0:
252,145,3660,6,0,P|249:192|242:237,1,82.5000025177003,0|0,3:0|3:0,0:0:0:0:
255,248,3972,1,2,0:0:0:0:
255,248,4077,1,0,1:0:0:0:
191,332,4285,1,2,0:0:0:0:
191,332,4389,2,0,B|262:318|254:361|329:350,1,123.75000377655,0|0,3:0|3:0,0:0:0:0:
388,309,4910,1,0,1:0:0:0:
388,309,5118,1,2,0:0:0:0:
465,366,5327,6,0,P|497:314|483:203,1,165.000005035401,0|0,3:0|1:0,0:0:0:0:
414,141,5952,1,2,0:0:0:0:
334,192,6160,2,0,P|291:198|246:211,1,82.5000025177003,2|0,0:0|3:0,0:0:0:0:
177,137,6577,1,0,1:0:0:0:
177,137,6785,1,2,0:0:0:0:
127,215,6993,6,0,P|138:255|145:295,1,82.5000025177003,0|0,3:0|3:0,0:0:0:0:
131,323,7306,1,2,0:0:0:0:
131,323,7410,1,0,1:0:0:0:
23,384,7618,1,2,0:0:0:0:
23,384,7722,2,0,L|40:257,1,123.75000377655,0|0,3:0|3:0,0:0:0:0:
0,184,8243,1,0,1:0:0:0:
54,118,8452,1,2,0:0:0:0:
12,16,8660,5,0,3:0:0:0:
12,16,8868,2,0,P|54:33|98:38,1,82.5000025177003,0|0,3:0|1:0,0:0:0:0:
166,114,9285,1,2,0:0:0:0:
166,114,9389,1,0,3:0:0:0:
166,114,9493,2,0,P|202:95|252:95,2,82.5000025177003,2|0|0,0:0|3:0|1:0,0:0:0:0:
113,202,10118,2,0,L|123:244,1,41.2500012588501,2|2,0:0|0:0,0:0:0:0:
114,272,10327,6,0,L|24:253,1,82.5000025177003,0|0,3:0|0:0,0:0:0:0:
101,358,10743,2,0,L|281:320,1,165.000005035401,0|2,1:0|0:0,0:0:0:0:
348,360,11368,1,0,3:0:0:0:
409,301,11577,1,0,1:0:0:0:
241,198,11993,6,0,P|229:164|229:107,1,82.5000025177003,2|2,3:2|3:2,0:0:0:0:
290,51,12410,1,2,1:2:0:0:
364,117,12618,1,2,0:0:0:0:
364,117,12722,2,0,B|435:128|394:151|478:164,1,123.75000377655,0|0,3:0|3:0,0:0:0:0:
426,238,13243,2,0,P|384:238|345:251,1,82.5000025177003,0|0,1:0|0:0,0:0:0:0:
255,291,13660,6,0,L|264:208,1,82.5000025177003,0|0,3:0|3:0,0:0:0:0:
159,151,14077,2,0,L|168:233,1,82.5000025177003,0|0,1:0|0:0,0:0:0:0:
162,252,14389,1,2,0:0:0:0:
162,252,14493,1,0,3:0:0:0:
73,237,14702,1,0,3:0:0:0:
54,324,14910,1,0,1:0:0:0:
248,375,15327,5,0,3:0:0:0:
248,375,15431,2,0,P|291:358|336:362,1,82.5000025177003,2|2,0:0|0:0,0:0:0:0:
365,378,15743,2,0,P|384:335|386:284,1,82.5000025177003,0|2,1:0|0:0,0:0:0:0:
324,235,16160,1,2,0:0:0:0:
324,235,16264,2,0,P|281:218|236:222,1,82.5000025177003,2|0,0:0|0:0,0:0:0:0:
207,238,16576,2,0,P|188:195|186:144,1,82.5000025177003,0|0,1:0|0:0,0:0:0:0:
104,97,16993,5,0,3:0:0:0:
104,97,17202,1,0,3:0:0:0:
163,20,17410,2,0,P|203:36|249:37,1,82.5000025177003,0|2,1:0|0:0,0:0:0:0:
316,79,17827,1,2,0:0:0:0:
396,22,18035,1,0,3:0:0:0:
396,22,18139,1,2,0:0:0:0:
396,22,18243,2,0,P|462:38|501:128,1,165.000005035401,0|0,1:0|3:0,0:0:0:0:
430,202,18868,5,0,3:0:0:0:
346,164,19077,2,0,L|167:190,1,165.000005035401,0|2,1:0|0:0,0:0:0:0:
120,250,19702,1,0,3:0:0:0:
178,321,19911,2,0,L|357:347,1,165.000005035401,0|0,1:0|3:0,0:0:0:0:
428,314,20535,1,0,3:0:0:0:
503,369,20743,2,0,P|514:324|507:267,1,82.5000025177003,0|2,1:0|0:0,0:0:0:0:
445,219,21160,1,2,0:0:0:0:
445,219,21368,1,0,3:0:0:0:
496,143,21577,1,0,1:0:0:0:
303,235,21993,5,4,0:0:0:0:
303,235,22827,1,2,0:0:0:0:
316,141,23035,1,2,0:0:0:0:
219,125,23243,1,2,0:0:0:0:
211,223,23452,5,2,0:0:0:0:
211,223,23556,1,0,0:0:0:0:
211,223,23660,2,0,P|164:230|127:243,1,82.5000025177003,4|0,3:2|3:0,0:0:0:0:
145,329,24077,1,0,1:0:0:0:
46,283,24285,1,2,0:0:0:0:
46,283,24389,2,0,P|34:222|43:149,1,123.75000377655,0|0,3:0|3:0,0:0:0:0:
105,68,24910,2,0,P|64:62|24:49,1,82.5000025177003,0|0,1:0|0:0,0:0:0:0:
147,157,25327,6,0,L|235:134,1,82.5000025177003,0|0,3:0|3:0,0:0:0:0:
302,70,25743,2,0,B|402:91|339:123|448:146,1,165.000005035401,0|2,1:0|0:0,0:0:0:0:
512,213,26368,1,0,3:0:0:0:
424,248,26577,2,0,P|382:251|343:263,1,82.5000025177003,0|0,1:0|0:0,0:0:0:0:
271,323,26993,6,0,P|258:283|252:242,1,82.5000025177003,0|0,3:0|3:0,0:0:0:0:
302,158,27410,1,0,1:0:0:0:
247,76,27618,1,2,0:0:0:0:
247,76,27722,2,0,P|173:81|136:136,1,123.75000377655,0|0,3:0|3:0,0:0:0:0:
57,176,28243,2,0,P|44:136|40:96,1,82.5000025177003,0|2,1:0|0:0,0:0:0:0:
158,212,28660,5,0,3:0:0:0:
158,212,28868,1,0,3:0:0:0:
158,212,29077,1,0,1:0:0:0:
78,283,29285,2,0,L|37:274,2,41.2500012588501,2|2|2,0:0|0:0|0:0,0:0:0:0:
127,366,29702,1,0,3:0:0:0:
208,321,29910,2,0,P|247:309|288:305,1,82.5000025177003,0|2,1:0|0:0,0:0:0:0:
388,349,30327,5,0,3:0:0:0:
388,349,30535,1,0,3:0:0:0:
388,349,30743,2,0,L|401:268,1,82.5000025177003,0|2,1:0|0:0,0:0:0:0:
313,207,31160,1,2,0:0:0:0:
313,207,31368,1,0,3:0:0:0:
313,207,31576,2,0,L|300:126,1,82.5000025177003,0|2,1:0|0:0,0:0:0:0:
403,64,31993,5,0,3:0:0:0:
403,64,32201,1,0,3:0:0:0:
403,64,32409,2,0,L|390:145,1,82.5000025177003,0|2,1:0|0:0,0:0:0:0:
315,24,32827,2,0,P|271:43|221:44,1,82.5000025177003,2|0,0:0|3:0,0:0:0:0:
186,125,33243,1,0,1:0:0:0:
186,125,33452,1,2,0:0:0:0:
102,76,33660,6,0,P|64:58|21:59,1,82.5000025177003,0|0,3:0|3:0,0:0:0:0:
59,151,34077,1,0,1:0:0:0:
0,240,34285,1,2,0:0:0:0:
0,240,34389,2,0,B|71:226|42:265|124:251,1,123.75000377655,0|0,3:0|3:0,0:0:0:0:
221,298,34910,5,0,1:0:0:0:
225,277,35014,1,0,3:0:0:0:
228,257,35118,1,0,3:0:0:0:
229,236,35222,1,0,3:0:0:0:
230,216,35326,1,0,3:0:0:0:
256,192,35431,12,0,36577,1:0:0:0:
262,109,36993,5,4,3:2:0:0:
262,109,37202,1,0,3:0:0:0:
338,153,37410,1,0,1:0:0:0:
338,153,37618,1,2,0:0:0:0:
432,105,37827,2,0,P|435:148|433:192,1,82.5000025177003,2|0,0:0|3:0,0:0:0:0:
459,208,38139,2,0,L|465:248,1,41.2500012588501,2|0,0:0|1:0,0:0:0:0:
293,335,38660,6,0,B|178:316|247:385|120:361,1,165.000005035401,0|0,3:0|1:0,0:0:0:0:
13,264,39389,1,0,3:0:0:0:
13,264,39493,2,0,P|21:217|19:173,1,82.5000025177003,2|0,0:0|3:0,0:0:0:0:
102,134,39910,1,0,1:0:0:0:
174,211,40118,5,0,3:0:0:0:
174,211,40222,1,2,0:0:0:0:
174,211,40327,2,0,P|217:208|261:210,1,82.5000025177003,0|0,3:0|3:0,0:0:0:0:
277,184,40639,2,0,L|317:177,1,41.2500012588501,2|0,0:0|1:0,0:0:0:0:
391,255,40952,1,0,3:0:0:0:
391,255,41056,1,0,3:0:0:0:
391,255,41160,1,2,0:0:0:0:
476,197,41368,1,0,3:0:0:0:
426,116,41577,2,0,P|418:73|416:29,1,82.5000025177003,0|0,1:0|0:0,0:0:0:0:
323,89,41993,5,0,3:0:0:0:
323,89,42202,1,0,3:0:0:0:
241,29,42410,1,0,1:0:0:0:
241,29,42514,1,0,1:0:0:0:
241,29,42618,1,0,1:0:0:0:
163,73,42827,2,0,L|156:126,1,41.2500012588501,0|0,1:0|1:0,0:0:0:0:
114,141,43035,2,0,L|107:194,1,41.2500012588501,0|0,1:0|1:0,0:0:0:0:
141,219,43243,1,0,1:0:0:0:
168,207,43347,1,0,1:0:0:0:
200,200,43452,1,0,1:0:0:0:
230,200,43556,1,0,1:0:0:0:
267,213,43660,6,0,L|352:200,1,82.5000025177003,4|0,3:2|3:0,0:0:0:0:
406,121,44077,1,0,1:0:0:0:
489,182,44285,1,2,0:0:0:0:
489,182,44389,2,0,P|500:252|486:320,1,123.75000377655,0|0,3:0|3:0,0:0:0:0:
414,364,44910,1,0,1:0:0:0:
414,364,45118,1,2,0:0:0:0:
305,319,45327,6,0,L|218:303,1,82.5000025177003,0|0,3:0|3:0,0:0:0:0:
148,242,45743,1,0,1:0:0:0:
148,242,45952,1,2,0:0:0:0:
222,179,46160,2,0,L|309:163,1,82.5000025177003,2|0,0:0|3:0,0:0:0:0:
379,102,46576,1,0,1:0:0:0:
379,102,46785,1,2,0:0:0:0:
307,26,46993,6,0,P|267:36|225:37,1,82.5000025177003,0|0,3:0|3:0,0:0:0:0:
145,87,47410,1,0,1:0:0:0:
66,35,47618,1,2,0:0:0:0:
66,35,47722,2,0,P|48:104|69:173,1,123.75000377655,0|0,3:0|3:0,0:0:0:0:
135,202,48243,1,0,1:0:0:0:
135,202,48451,1,2,0:0:0:0:
221,140,48660,5,0,3:0:0:0:
221,140,48868,1,0,3:0:0:0:
221,140,49077,2,0,L|305:156,1,82.5000025177003,0|2,1:0|0:0,0:0:0:0:
311,260,49493,1,0,3:0:0:0:
311,260,49701,1,0,3:0:0:0:
220,285,49910,1,0,1:0:0:0:
220,285,50118,1,2,0:0:0:0:
153,361,50327,6,0,P|111:347|69:347,1,82.5000025177003,0|0,3:0|3:0,0:0:0:0:
6,268,50743,1,0,1:0:0:0:
81,201,50952,1,2,0:0:0:0:
81,201,51056,2,0,P|73:147|81:64,1,123.75000377655,0|0,3:0|3:0,0:0:0:0:
174,10,51577,2,0,P|174:55|182:96,1,82.5000025177003,0|2,1:0|0:0,0:0:0:0:
213,194,51993,6,0,L|304:176,1,82.5000025177003,0|0,3:0|3:0,0:0:0:0:
260,282,52410,1,0,1:0:0:0:
260,282,52618,1,2,0:0:0:0:
212,359,52827,2,0,L|303:377,1,82.5000025177003,2|0,0:0|3:0,0:0:0:0:
364,316,53243,1,0,1:0:0:0:
471,349,53452,5,2,0:0:0:0:
471,349,53556,1,2,0:0:0:0:
471,349,53660,2,0,P|476:302|469:266,1,82.5000025177003,0|0,3:0|3:0,0:0:0:0:
498,179,54077,1,0,1:0:0:0:
419,136,54285,2,0,L|371:144,1,41.2500012588501,2|0,0:0|0:0,0:0:0:0:
356,183,54493,5,2,0:0:0:0:
356,183,54701,1,0,3:0:0:0:
356,183,54910,1,0,1:0:0:0:
270,134,55118,1,0,3:0:0:0:
196,217,55327,1,4,0:2:0:0:
256,192,55535,12,4,57306,3:1:0:0:
