osu file format v14

[General]
AudioFilename: Mama.mp3
AudioLeadIn: 0
PreviewTime: 63539
Countdown: 0
SampleSet: Soft
StackLeniency: 0.7
Mode: 3
LetterboxInBreaks: 0
SpecialStyle: 0
WidescreenStoryboard: 0

[Editor]
DistanceSpacing: 0.8
BeatDivisor: 8
GridSize: 4
TimelineZoom: 4.299998

[Metadata]
Title:Mama ft. William Singe
TitleUnicode:Mama ft. William Singe
Artist:Jonas Blue
ArtistUnicode:Jonas Blue
Creator:Nysrogh
Version:Achsan's 4K Home
Source:
Tags:Virgin EMI Records Universal Music single Syadow- ExNeko AchsanLovers LNP- AJIekceu
BeatmapID:1368483
BeatmapSetID:639660

[Difficulty]
HPDrainRate:8.5
CircleSize:4
OverallDifficulty:8
ApproachRate:5
SliderMultiplier:1.4
SliderTickRate:1

[Events]
//Background and Video events
0,0,"89993d6ea59ea6089a7156772d20274c.jpg",0,0
//Break Periods
//Storyboard Layer 0 (Background)
//Storyboard Layer 1 (Fail)
//Storyboard Layer 2 (Pass)
//Storyboard Layer 3 (Foreground)
//Storyboard Sound Samples

[TimingPoints]
78,576.923076923077,4,2,1,55,1,0
64404,-100,4,2,1,55,0,1
82866,-100,4,2,1,55,0,0

[HitObjects]
64,192,78,128,0,366:0:0:0:0:
192,192,78,1,0,0:0:0:0:
320,192,366,1,0,0:0:0:0:
192,192,654,1,0,0:0:0:0:
64,192,943,1,0,0:0:0:0:
320,192,943,128,0,1231:0:0:0:0:
192,192,2097,1,0,0:0:0:0:
320,192,2097,128,0,2385:0:0:0:0:
64,192,2385,1,0,0:0:0:0:
192,192,2385,128,0,2674:0:0:0:0:
448,192,2674,1,0,0:0:0:0:
64,192,2818,1,0,0:0:0:0:
192,192,2818,128,0,3106:0:0:0:0:
320,192,3106,1,0,0:0:0:0:
64,192,3251,1,0,0:0:0:0:
448,192,3251,128,0,3539:0:0:0:0:
192,192,4404,1,0,0:0:0:0:
320,192,4549,1,0,0:0:0:0:
64,192,4693,128,0,4981:0:0:0:0:
448,192,4693,1,0,0:0:0:0:
320,192,4981,1,0,0:0:0:0:
192,192,5270,1,0,0:0:0:0:
64,192,5558,1,0,0:0:0:0:
320,192,5558,128,0,5847:0:0:0:0:
64,192,6712,1,0,0:0:0:0:
320,192,6712,128,0,7001:0:0:0:0:
192,192,7001,1,0,0:0:0:0:
448,192,7001,128,0,7289:0:0:0:0:
320,192,7289,1,0,0:0:0:0:
192,192,7433,1,0,0:0:0:0:
64,192,7578,128,0,9164:0:0:0:0:
320,192,7866,1,0,0:0:0:0:
448,192,7866,128,0,9164:0:0:0:0:
192,192,9308,1,4,0:0:0:0:
320,192,9308,1,8,0:0:0:0:
448,192,9308,128,0,9453:0:0:0:0:
64,192,9597,128,0,9741:0:0:0:0:
320,192,9741,1,8,0:0:0:0:
448,192,9741,1,0,0:0:0:0:
64,192,9885,1,0,0:0:0:0:
192,192,9885,128,0,10029:0:0:0:85:Snap.wav
448,192,9885,1,0,0:0:0:0:
192,192,10174,1,2,0:0:0:0:
320,192,10174,128,0,10462:0:0:0:0:
64,192,10462,1,0,0:0:0:0:
448,192,10462,1,0,0:0:0:0:
192,192,10751,1,8,0:0:0:0:
448,192,10751,1,0,0:0:0:0:
64,192,10895,1,2,0:0:0:0:
320,192,10895,1,0,0:0:0:0:
64,192,11039,1,0,0:0:0:0:
192,192,11039,1,0,0:0:0:85:Snap.wav
448,192,11039,1,0,0:0:0:0:
192,192,11328,128,0,11472:0:0:0:0:
320,192,11328,1,0,0:0:0:0:
64,192,11616,128,8,11760:0:0:0:0:
320,192,11616,1,0,0:0:0:0:
192,192,11904,1,0,0:0:0:0:
64,192,12049,1,2,0:0:0:0:
448,192,12049,128,0,12193:0:0:0:0:
64,192,12193,1,0,0:0:0:0:
192,192,12193,1,0,0:0:0:85:Snap.wav
320,192,12193,1,0,0:0:0:0:
64,192,12481,1,8,0:0:0:0:
320,192,12481,128,0,12770:0:0:0:0:
192,192,12770,1,0,0:0:0:0:
320,192,12914,1,2,0:0:0:0:
448,192,12914,1,0,0:0:0:0:
64,192,13058,1,0,0:0:0:0:
192,192,13058,1,0,0:0:0:0:
320,192,13203,1,2,0:0:0:0:
448,192,13203,1,0,0:0:0:0:
64,192,13347,1,0,0:0:0:70:Snap.wav
192,192,13347,1,0,0:0:0:0:
448,192,13347,1,0,0:0:0:0:
64,192,13635,1,2,0:0:0:0:
320,192,13635,128,0,13779:0:0:0:0:
192,192,13779,128,0,13924:0:0:0:0:
64,192,13924,128,8,14068:0:0:0:0:
448,192,13924,1,0,0:0:0:0:
320,192,14212,128,0,14356:0:0:0:0:
64,192,14356,1,2,0:0:0:0:
192,192,14356,1,0,0:0:0:0:
64,192,14501,1,0,0:0:0:0:
320,192,14501,1,0,0:0:0:85:Snap.wav
448,192,14501,128,0,14645:0:0:0:0:
192,192,14789,128,2,15078:0:0:0:0:
320,192,14789,1,0,0:0:0:0:
64,192,15078,1,0,0:0:0:70:HH.wav
448,192,15078,1,0,0:0:0:0:
64,192,15366,1,8,0:0:0:0:
192,192,15366,1,0,0:0:0:0:
320,192,15510,1,2,0:0:0:0:
448,192,15510,1,0,0:0:0:0:
64,192,15654,1,0,0:0:0:0:
192,192,15654,1,0,0:0:0:85:Snap.wav
448,192,15654,1,0,0:0:0:0:
192,192,15943,128,2,16087:0:0:0:0:
320,192,15943,1,0,0:0:0:0:
64,192,16231,1,8,0:0:0:0:
448,192,16231,128,0,16376:0:0:0:0:
192,192,16520,128,0,16664:0:0:0:0:
320,192,16664,128,2,16808:0:0:0:0:
64,192,16808,1,0,0:0:0:0:
192,192,16808,1,0,0:0:0:85:Snap.wav
448,192,16808,1,0,0:0:0:0:
320,192,17097,1,2,0:0:0:0:
448,192,17097,128,0,17385:0:0:0:0:
64,192,17385,1,0,0:0:0:70:HH.wav
320,192,17385,1,0,0:0:0:0:
192,192,17529,1,2,0:0:0:0:
448,192,17529,1,0,0:0:0:0:
320,192,17674,1,0,0:0:0:0:
448,192,17674,1,0,0:0:0:0:
64,192,17818,1,2,0:0:0:0:
192,192,17818,1,0,0:0:0:0:
64,192,17962,1,0,0:0:0:70:Snap.wav
320,192,17962,1,0,0:0:0:0:
448,192,17962,1,0,0:0:0:0:
64,192,18251,1,2,0:0:0:0:
448,192,18251,1,0,0:0:0:0:
64,192,18539,128,8,18683:0:0:0:0:
192,192,18539,1,0,0:0:0:0:
448,192,18539,1,0,0:0:0:0:
320,192,18828,128,0,18972:0:0:0:0:
64,192,18972,1,2,0:0:0:0:
192,192,18972,1,0,0:0:0:0:
64,192,19116,1,0,0:0:0:0:
320,192,19116,1,0,0:0:0:85:Snap.wav
448,192,19116,128,0,19260:0:0:0:0:
64,192,19404,128,2,19693:0:0:0:0:
448,192,19404,1,0,0:0:0:0:
320,192,19693,1,0,0:0:0:0:
192,192,19981,1,8,0:0:0:0:
448,192,19981,1,0,0:0:0:0:
64,192,20126,1,2,0:0:0:0:
320,192,20126,1,0,0:0:0:0:
64,192,20270,1,0,0:0:0:0:
192,192,20270,1,0,0:0:0:85:Snap.wav
448,192,20270,1,0,0:0:0:0:
320,192,20558,1,2,0:0:0:0:
448,192,20558,128,0,20703:0:0:0:0:
64,192,20847,128,8,20991:0:0:0:0:
192,192,20847,1,0,0:0:0:0:
320,192,21135,1,0,0:0:0:0:
64,192,21279,1,2,0:0:0:0:
448,192,21279,128,0,21424:0:0:0:0:
64,192,21424,1,0,0:0:0:0:
192,192,21424,1,0,0:0:0:85:Snap.wav
320,192,21424,1,0,0:0:0:0:
64,192,21712,128,2,22001:0:0:0:0:
320,192,21712,1,0,0:0:0:0:
192,192,22001,1,0,0:0:0:70:HH.wav
320,192,22145,1,2,0:0:0:0:
448,192,22145,1,0,0:0:0:0:
64,192,22289,1,0,0:0:0:0:
192,192,22289,1,0,0:0:0:0:
320,192,22433,1,2,0:0:0:0:
448,192,22433,1,0,0:0:0:0:
64,192,22578,1,0,0:0:0:70:Snap.wav
192,192,22578,1,0,0:0:0:0:
448,192,22578,1,0,0:0:0:0:
64,192,22866,1,2,0:0:0:0:
320,192,22866,128,0,23010:0:0:0:0:
448,192,23010,128,0,23154:0:0:0:0:
192,192,23154,1,8,0:0:0:0:
320,192,23154,128,0,23299:0:0:0:0:
64,192,23443,128,0,23587:0:0:0:0:
192,192,23587,1,2,0:0:0:0:
448,192,23587,1,0,0:0:0:0:
64,192,23731,1,0,0:0:0:0:
320,192,23731,128,0,23876:0:0:0:85:Snap.wav
448,192,23731,1,0,0:0:0:0:
192,192,24020,1,2,0:0:0:0:
448,192,24020,128,0,24308:0:0:0:0:
64,192,24308,1,0,0:0:0:70:HH.wav
192,192,24597,1,8,0:0:0:0:
448,192,24597,1,0,0:0:0:0:
64,192,24741,1,2,0:0:0:0:
320,192,24741,1,0,0:0:0:0:
64,192,24885,1,0,0:0:0:0:
192,192,24885,1,0,0:0:0:85:Snap.wav
448,192,24885,1,0,0:0:0:0:
320,192,25174,1,2,0:0:0:0:
448,192,25174,128,0,25318:0:0:0:0:
64,192,25462,128,8,25606:0:0:0:0:
320,192,25462,1,0,0:0:0:0:
192,192,25751,128,0,25895:0:0:0:0:
320,192,25895,128,2,26039:0:0:0:0:
64,192,26039,1,0,0:0:0:0:
192,192,26039,1,0,0:0:0:85:Snap.wav
448,192,26039,1,0,0:0:0:0:
64,192,26328,1,2,0:0:0:0:
320,192,26328,128,0,26616:0:0:0:0:
192,192,26616,1,0,0:0:0:0:
448,192,26616,1,0,0:0:0:0:
64,192,26760,1,2,0:0:0:0:
320,192,26760,1,0,0:0:0:0:
192,192,26904,1,0,0:0:0:0:
64,192,26904,1,0,0:0:0:0:
448,192,27049,1,2,0:0:0:0:
320,192,27049,1,0,0:0:0:0:
64,192,27193,1,0,0:0:0:70:Snap.wav
192,192,27193,1,0,0:0:0:0:
448,192,27193,1,0,0:0:0:0:
192,192,27481,1,2,0:0:0:0:
320,192,27481,1,0,0:0:0:0:
64,192,27770,128,8,30078:0:0:0:0:
192,192,27770,1,0,0:0:0:0:
448,192,27770,1,0,0:0:0:0:
320,192,28058,1,0,0:0:0:0:
192,192,28203,1,0,0:0:0:0:
448,192,28203,1,0,0:0:0:85:HH.wav
192,192,28347,1,0,0:0:0:0:
320,192,28347,1,0,0:0:0:0:
320,192,28635,1,0,0:0:0:0:
448,192,28635,1,0,0:0:0:85:HH.wav
192,192,28924,1,8,0:0:0:0:
448,192,28924,1,0,0:0:0:85:HH.wav
448,192,29212,1,0,0:0:0:0:
192,192,29356,1,0,0:0:0:0:
320,192,29356,1,0,0:0:0:85:HH.wav
320,192,29501,1,0,0:0:0:0:
448,192,29501,1,0,0:0:0:0:
192,192,29789,1,0,0:0:0:0:
448,192,29789,1,0,0:0:0:85:HH.wav
192,192,30078,1,8,0:0:0:0:
320,192,30078,1,0,0:0:0:85:HH.wav
448,192,30078,128,0,32385:0:0:0:0:
64,192,30366,1,0,0:0:0:0:
192,192,30510,1,0,0:0:0:0:
320,192,30510,1,0,0:0:0:85:HH.wav
64,192,30654,1,0,0:0:0:0:
192,192,30654,1,0,0:0:0:0:
64,192,30943,1,0,0:0:0:0:
320,192,30943,1,0,0:0:0:85:HH.wav
64,192,31231,1,8,0:0:0:0:
192,192,31231,1,0,0:0:0:85:HH.wav
192,192,31376,1,0,0:0:0:0:
320,192,31376,1,0,0:0:0:0:
64,192,31520,1,0,0:0:0:0:
192,192,31664,1,0,0:0:0:0:
320,192,31664,1,0,0:0:0:85:HH.wav
64,192,31808,1,0,0:0:0:0:
192,192,31808,1,0,0:0:0:0:
320,192,31953,1,0,0:0:0:0:
64,192,32097,1,0,0:0:0:85:HH.wav
320,192,32169,1,0,0:0:0:0:
192,192,32241,1,0,0:0:0:0:
64,192,32313,1,0,0:0:0:0:
192,192,32385,128,8,34693:0:0:0:0:
320,192,32385,1,0,0:0:0:70:HH.wav
448,192,32674,1,0,0:0:0:0:
64,192,32818,1,0,0:0:0:0:
320,192,32818,1,0,0:0:0:85:HH.wav
320,192,32962,1,0,0:0:0:0:
448,192,32962,1,0,0:0:0:0:
64,192,33251,1,0,0:0:0:0:
448,192,33251,1,0,0:0:0:85:HH.wav
320,192,33539,1,8,0:0:0:0:
448,192,33539,1,0,0:0:0:85:HH.wav
320,192,33828,1,0,0:0:0:0:
64,192,33972,1,0,0:0:0:0:
448,192,33972,1,0,0:0:0:85:HH.wav
64,192,34116,1,0,0:0:0:0:
320,192,34116,1,0,0:0:0:0:
320,192,34404,1,0,0:0:0:0:
448,192,34404,1,0,0:0:0:85:HH.wav
64,192,34693,1,8,0:0:0:0:
320,192,34693,128,0,37001:0:0:0:0:
192,192,34981,1,0,0:0:0:0:
64,192,35126,1,0,0:0:0:0:
448,192,35126,1,0,0:0:0:85:HH.wav
192,192,35270,1,0,0:0:0:0:
448,192,35270,1,0,0:0:0:0:
64,192,35558,1,0,0:0:0:0:
192,192,35558,1,0,0:0:0:85:HH.wav
192,192,35847,1,8,0:0:0:0:
448,192,35847,1,0,0:0:0:85:HH.wav
64,192,35991,1,0,0:0:0:0:
192,192,35991,1,0,0:0:0:0:
448,192,36135,1,0,0:0:0:0:
64,192,36279,1,0,0:0:0:0:
192,192,36279,1,0,0:0:0:85:HH.wav
64,192,36424,1,0,0:0:0:0:
448,192,36424,1,0,0:0:0:0:
64,192,36712,1,0,0:0:0:0:
448,192,36712,1,0,0:0:0:85:HH.wav
192,192,36856,1,0,0:0:0:0:
448,192,36928,1,0,0:0:0:0:
64,192,37001,1,0,0:0:0:70:HH.wav
192,192,37001,1,0,0:0:0:85:HH.wav
320,192,37145,1,0,0:0:0:0:
192,192,37289,1,0,0:0:0:0:
64,192,37433,1,0,0:0:0:0:
320,192,37433,1,0,0:0:0:85:HH.wav
448,192,37433,1,0,0:0:0:0:
192,192,37578,1,0,0:0:0:0:
64,192,37722,1,0,0:0:0:0:
192,192,37866,1,0,0:0:0:0:
320,192,37866,1,0,0:0:0:85:HH.wav
448,192,37866,1,0,0:0:0:0:
64,192,38010,1,0,0:0:0:0:
192,192,38154,1,0,0:0:0:0:
320,192,38154,1,0,0:0:0:85:HH.wav
448,192,38154,1,0,0:0:0:0:
320,192,38299,1,0,0:0:0:0:
64,192,38443,1,0,0:0:0:0:
192,192,38587,1,0,0:0:0:0:
320,192,38587,1,0,0:0:0:85:HH.wav
448,192,38587,1,0,0:0:0:0:
64,192,38731,1,0,0:0:0:0:
448,192,38876,1,0,0:0:0:0:
64,192,39020,1,0,0:0:0:0:
192,192,39020,1,0,0:0:0:85:HH.wav
320,192,39020,1,0,0:0:0:0:
448,192,39164,1,0,0:0:0:0:
64,192,39308,1,0,0:0:0:0:
192,192,39308,1,0,0:0:0:85:HH.wav
320,192,39308,1,0,0:0:0:0:
192,192,39453,1,0,0:0:0:0:
320,192,39597,1,0,0:0:0:0:
64,192,39741,1,0,0:0:0:0:
192,192,39741,1,0,0:0:0:85:HH.wav
448,192,39741,1,0,0:0:0:0:
320,192,39885,1,0,0:0:0:0:
192,192,40029,1,0,0:0:0:0:
64,192,40174,1,0,0:0:0:0:
320,192,40174,1,0,0:0:0:85:HH.wav
448,192,40174,1,0,0:0:0:0:
192,192,40318,1,0,0:0:0:0:
64,192,40462,1,0,0:0:0:0:
320,192,40462,1,0,0:0:0:85:HH.wav
448,192,40462,1,0,0:0:0:0:
320,192,40606,1,0,0:0:0:0:
64,192,40751,1,0,0:0:0:0:
192,192,40895,1,0,0:0:0:0:
320,192,40895,1,0,0:0:0:85:HH.wav
448,192,40895,1,0,0:0:0:0:
64,192,41039,1,0,0:0:0:0:
192,192,41183,1,0,0:0:0:0:
64,192,41328,1,0,0:0:0:0:
320,192,41328,1,0,0:0:0:85:HH.wav
448,192,41328,1,0,0:0:0:0:
320,192,41472,1,0,0:0:0:0:
64,192,41616,1,0,0:0:0:70:HH.wav
192,192,41616,1,0,0:0:0:0:
448,192,41616,1,0,0:0:0:0:
320,192,41760,1,0,0:0:0:0:
448,192,41760,1,0,0:0:0:0:
64,192,41904,1,0,0:0:0:0:
192,192,41904,1,0,0:0:0:0:
64,192,42049,1,0,0:0:0:70:HH.wav
320,192,42049,1,0,0:0:0:0:
448,192,42049,1,0,0:0:0:0:
192,192,42193,1,0,0:0:0:0:
448,192,42193,1,0,0:0:0:0:
64,192,42337,1,0,0:0:0:0:
320,192,42337,1,0,0:0:0:0:
64,192,42481,1,0,0:0:0:70:HH.wav
192,192,42481,1,0,0:0:0:0:
448,192,42481,1,0,0:0:0:0:
192,192,42626,1,0,0:0:0:0:
320,192,42626,1,0,0:0:0:0:
64,192,42770,1,0,0:0:0:70:HH.wav
192,192,42770,1,0,0:0:0:0:
448,192,42770,1,0,0:0:0:0:
64,192,42914,1,0,0:0:0:0:
320,192,42914,1,0,0:0:0:0:
192,192,43058,1,0,0:0:0:0:
448,192,43058,1,0,0:0:0:0:
64,192,43203,1,0,0:0:0:70:HH.wav
320,192,43203,1,0,0:0:0:0:
448,192,43203,1,0,0:0:0:0:
64,192,43347,1,0,0:0:0:0:
192,192,43347,1,0,0:0:0:0:
320,192,43491,1,0,0:0:0:0:
448,192,43491,1,0,0:0:0:0:
64,192,43635,1,0,0:0:0:70:HH.wav
192,192,43635,1,0,0:0:0:0:
448,192,43635,1,0,0:0:0:0:
64,192,43779,1,0,0:0:0:0:
320,192,43779,1,0,0:0:0:0:
192,192,43924,1,0,0:0:0:0:
320,192,43924,1,0,0:0:0:70:Build Up.wav
448,192,43996,1,0,0:0:0:0:
320,192,44068,1,0,0:0:0:70:Build Up.wav
64,192,44140,1,0,0:0:0:0:
192,192,44212,1,0,0:0:0:70:Build Up.wav
448,192,44284,1,0,0:0:0:0:
64,192,44356,1,0,0:0:0:70:Build Up.wav
320,192,44356,1,0,0:0:0:0:
192,192,44428,1,0,0:0:0:0:
448,192,44501,1,0,0:0:0:70:Build Up.wav
320,192,44573,1,0,0:0:0:0:
192,192,44645,1,0,0:0:0:70:Build Up.wav
64,192,44717,1,0,0:0:0:0:
320,192,44789,1,0,0:0:0:70:Build Up.wav
448,192,44789,1,0,0:0:0:0:
64,192,44861,1,0,0:0:0:0:
192,192,44933,1,0,0:0:0:70:Build Up.wav
320,192,45005,1,0,0:0:0:0:
64,192,45078,1,4,0:0:0:0:
192,192,45078,1,0,0:0:0:0:
448,192,45078,1,0,0:0:0:0:
64,192,46231,1,8,0:0:0:0:
192,192,46231,128,0,46520:0:0:0:0:
448,192,46231,1,0,0:0:0:0:
320,192,46520,1,0,0:0:0:0:
192,192,46808,1,0,0:0:0:0:
448,192,46808,1,0,0:0:0:85:Snap.wav
64,192,47097,128,0,47385:0:0:0:0:
320,192,47097,1,0,0:0:0:0:
64,192,47962,1,0,0:0:0:85:Snap.wav
448,192,47962,1,0,0:0:0:0:
192,192,48251,128,0,48539:0:0:0:0:
448,192,48251,1,0,0:0:0:0:
64,192,48539,128,0,48828:0:0:0:0:
320,192,48539,1,0,0:0:0:0:
64,192,48972,128,0,49260:0:0:0:0:
320,192,48972,1,0,0:0:0:0:
448,192,49116,1,0,0:0:0:85:Snap.wav
192,192,49404,1,0,0:0:0:0:
320,192,49404,128,0,49693:0:0:0:0:
64,192,50270,1,0,0:0:0:85:Snap.wav
448,192,50270,1,0,0:0:0:0:
320,192,50558,1,0,0:0:0:0:
192,192,50703,1,0,0:0:0:0:
64,192,50847,1,0,0:0:0:0:
448,192,50847,128,0,51135:0:0:0:0:
320,192,51135,1,0,0:0:0:0:
192,192,51424,1,0,0:0:0:0:
448,192,51424,1,0,0:0:0:85:Snap.wav
64,192,51712,128,0,52001:0:0:0:0:
448,192,51712,1,0,0:0:0:0:
320,192,52001,1,0,0:0:0:0:
192,192,52578,1,0,0:0:0:0:
320,192,52578,1,0,0:0:0:85:Snap.wav
64,192,52866,128,0,53154:0:0:0:0:
192,192,52866,1,0,0:0:0:0:
448,192,53154,1,0,0:0:0:0:
64,192,53443,1,0,0:0:0:0:
192,192,53587,1,0,0:0:0:0:
320,192,53731,1,0,0:0:0:85:Snap.wav
448,192,53731,1,0,0:0:0:0:
192,192,54020,128,0,54308:0:0:0:0:
320,192,54020,1,0,0:0:0:0:
64,192,54308,1,0,0:0:0:0:
64,192,54885,1,0,0:0:0:0:
448,192,54885,1,0,0:0:0:85:Snap.wav
64,192,55462,1,0,0:0:0:0:
192,192,55462,1,0,0:0:0:70:Build Up.wav
448,192,55751,1,0,0:0:0:0:
64,192,55895,1,0,0:0:0:0:
192,192,55895,1,0,0:0:0:70:Build Up.wav
64,192,56039,1,0,0:0:0:0:
320,192,56039,1,0,0:0:0:0:
448,192,56039,1,0,0:0:0:0:
192,192,56328,1,0,0:0:0:0:
320,192,56328,1,0,0:0:0:70:Build Up.wav
64,192,56616,1,0,0:0:0:0:
448,192,56616,1,0,0:0:0:70:Build Up.wav
64,192,57049,1,0,0:0:0:0:
192,192,57049,1,0,0:0:0:70:Build Up.wav
64,192,57193,1,0,0:0:0:0:
320,192,57193,1,0,0:0:0:0:
448,192,57193,1,0,0:0:0:0:
64,192,57481,1,0,0:0:0:0:
448,192,57481,1,0,0:0:0:70:Build Up.wav
192,192,57770,1,0,0:0:0:0:
320,192,57770,1,0,0:0:0:70:Build Up.wav
192,192,58203,1,0,0:0:0:0:
320,192,58203,1,0,0:0:0:70:Build Up.wav
64,192,58347,1,0,0:0:0:0:
320,192,58347,1,0,0:0:0:0:
448,192,58347,1,0,0:0:0:0:
192,192,58635,1,0,0:0:0:0:
448,192,58635,1,0,0:0:0:70:Build Up.wav
64,192,58924,1,0,0:0:0:0:
320,192,58924,1,0,0:0:0:70:Build Up.wav
64,192,59356,1,0,0:0:0:0:
320,192,59356,1,0,0:0:0:70:Build Up.wav
64,192,59501,1,0,0:0:0:0:
192,192,59501,1,0,0:0:0:0:
448,192,59501,1,0,0:0:0:0:
320,192,59789,1,0,0:0:0:0:
448,192,59789,1,0,0:0:0:70:Build Up.wav
192,192,59933,1,0,0:0:0:0:
64,192,60078,1,0,0:0:0:70:Build Up.wav
448,192,60078,1,0,0:0:0:0:
192,192,60222,1,0,0:0:0:70:Build Up.wav
448,192,60222,1,0,0:0:0:0:
64,192,60366,1,0,0:0:0:70:Build Up.wav
320,192,60366,1,0,0:0:0:0:
192,192,60510,1,0,0:0:0:70:Build Up.wav
448,192,60510,1,0,0:0:0:0:
64,192,60654,1,0,0:0:0:70:Build Up.wav
320,192,60654,1,0,0:0:0:0:
448,192,60654,1,0,0:0:0:0:
64,192,60799,1,0,0:0:0:70:Build Up.wav
192,192,60799,1,0,0:0:0:0:
192,192,60943,1,0,0:0:0:70:Build Up.wav
448,192,60943,1,0,0:0:0:0:
64,192,61087,1,0,0:0:0:70:Build Up.wav
320,192,61087,1,0,0:0:0:0:
64,192,61231,1,0,0:0:0:70:Build Up.wav
448,192,61231,1,0,0:0:0:0:
320,192,61376,1,0,0:0:0:70:Build Up.wav
448,192,61376,1,0,0:0:0:0:
64,192,61520,1,0,0:0:0:70:Build Up.wav
192,192,61520,1,0,0:0:0:0:
192,192,61664,1,0,0:0:0:70:Build Up.wav
320,192,61664,1,0,0:0:0:0:
64,192,61808,1,0,0:0:0:70:Build Up.wav
320,192,61808,1,0,0:0:0:0:
448,192,61808,1,0,0:0:0:0:
192,192,61953,1,0,0:0:0:70:Build Up.wav
448,192,61953,1,0,0:0:0:0:
64,192,62097,1,0,0:0:0:70:Build Up.wav
320,192,62097,1,0,0:0:0:0:
192,192,62241,1,0,0:0:0:70:Build Up.wav
448,192,62241,1,0,0:0:0:0:
64,192,62385,1,0,0:0:0:0:
192,192,62385,1,0,0:0:0:70:Build Up.wav
448,192,62457,1,0,0:0:0:0:
320,192,62529,1,0,0:0:0:0:
192,192,62602,1,0,0:0:0:0:
64,192,62674,1,0,0:0:0:0:
448,192,62746,1,0,0:0:0:0:
64,192,62818,1,0,0:0:0:0:
192,192,62890,1,0,0:0:0:0:
320,192,62962,1,0,0:0:0:0:
448,192,62962,1,0,0:0:0:0:
64,192,63034,1,0,0:0:0:0:
192,192,63106,1,0,0:0:0:0:
448,192,63178,1,0,0:0:0:0:
320,192,63251,1,0,0:0:0:0:
192,192,63323,1,0,0:0:0:0:
64,192,63395,1,0,0:0:0:0:
320,192,63467,1,0,0:0:0:0:
448,192,63539,1,0,0:0:0:70:Build Up.wav
64,192,63828,1,0,0:0:0:30:Snappy Snare.wav
192,192,63828,1,0,0:0:0:0:
320,192,63900,1,0,0:0:0:0:
448,192,63900,1,0,0:0:0:0:
64,192,63972,1,0,0:0:0:0:
192,192,63972,1,0,0:0:0:0:
320,192,64008,1,0,0:0:0:0:
64,192,64116,1,0,0:0:0:0:
448,192,64116,1,0,0:0:0:0:
64,192,64404,1,0,0:0:0:0:
448,192,64404,128,0,64549:0:0:0:0:
320,192,64549,128,0,64693:0:0:0:0:
64,192,64693,1,8,0:0:0:0:
192,192,64693,128,4,64837:0:0:0:0:
448,192,64693,1,0,0:0:0:0:
320,192,64837,1,0,0:0:0:0:
64,192,64981,128,0,65270:0:0:0:0:
448,192,64981,1,0,0:0:0:0:
320,192,65126,1,2,0:0:0:0:
448,192,65126,1,0,0:0:0:0:
192,192,65270,128,8,65847:0:0:0:0:
320,192,65270,1,0,0:0:0:0:
64,192,65414,1,0,0:0:0:0:
320,192,65558,128,2,65847:0:0:0:0:
448,192,65558,1,0,0:0:0:0:
64,192,65703,1,0,0:0:0:0:
64,192,65847,1,8,0:0:0:0:
448,192,65847,128,0,66135:0:0:0:0:
192,192,65991,1,0,0:0:0:0:
64,192,66135,1,0,0:0:0:0:
192,192,66279,1,2,0:0:0:0:
320,192,66279,1,0,0:0:0:0:
448,192,66279,1,0,0:0:0:0:
64,192,66424,1,8,0:0:0:0:
320,192,66424,128,0,66712:0:0:0:0:
192,192,66568,1,0,0:0:0:0:
64,192,66712,128,2,67001:0:0:0:0:
192,192,66712,1,0,0:0:0:0:
448,192,66712,1,0,0:0:0:0:
320,192,66856,1,0,0:0:0:0:
192,192,67001,1,8,0:0:0:0:
448,192,67001,1,0,0:0:0:0:
320,192,67145,1,0,0:0:0:0:
64,192,67289,1,0,0:0:0:0:
448,192,67289,1,0,0:0:0:0:
192,192,67433,1,0,0:0:0:0:
320,192,67433,1,0,0:0:0:0:
448,192,67433,1,0,0:0:0:0:
64,192,67578,1,8,0:0:0:0:
320,192,67578,1,0,0:0:0:0:
192,192,67722,1,0,0:0:0:0:
64,192,67866,1,0,0:0:0:0:
320,192,67866,1,0,0:0:0:0:
448,192,67866,1,0,0:0:0:0:
192,192,68010,1,0,0:0:0:0:
64,192,68154,1,8,0:0:0:0:
448,192,68154,1,0,0:0:0:0:
320,192,68299,1,0,0:0:0:0:
192,192,68443,1,0,0:0:0:0:
64,192,68587,1,0,0:0:0:0:
320,192,68587,1,0,0:0:0:0:
448,192,68587,1,0,0:0:0:0:
192,192,68731,1,8,0:0:0:0:
448,192,68731,1,0,0:0:0:0:
64,192,68876,1,0,0:0:0:0:
192,192,69020,1,2,0:0:0:0:
320,192,69020,1,0,0:0:0:0:
448,192,69020,1,0,0:0:0:0:
64,192,69092,1,0,0:0:0:0:
192,192,69164,1,0,0:0:0:0:
320,192,69236,1,0,0:0:0:0:
64,192,69308,1,8,0:0:0:0:
448,192,69308,128,0,69597:0:0:0:0:
192,192,69453,1,0,0:0:0:0:
320,192,69597,128,0,70174:0:0:0:0:
64,192,69741,1,2,0:0:0:0:
448,192,69741,1,0,0:0:0:0:
192,192,69885,128,8,70174:0:0:0:0:
448,192,69885,1,0,0:0:0:0:
64,192,70029,1,0,0:0:0:0:
64,192,70174,128,2,70462:0:0:0:0:
448,192,70174,1,0,0:0:0:0:
320,192,70318,1,0,0:0:0:0:
192,192,70462,1,8,0:0:0:0:
448,192,70462,128,0,70751:0:0:0:0:
320,192,70606,1,0,0:0:0:0:
192,192,70751,1,0,0:0:0:0:
64,192,70895,1,2,0:0:0:0:
320,192,70895,1,0,0:0:0:0:
448,192,70895,1,0,0:0:0:0:
192,192,71039,128,8,71328:0:0:0:0:
320,192,71039,1,0,0:0:0:0:
64,192,71183,1,0,0:0:0:0:
64,192,71328,1,2,0:0:0:0:
320,192,71328,128,0,71616:0:0:0:0:
448,192,71328,1,0,0:0:0:0:
192,192,71472,1,0,0:0:0:0:
64,192,71616,1,8,0:0:0:0:
448,192,71616,1,0,0:0:0:0:
192,192,71760,1,0,0:0:0:0:
320,192,71904,1,0,0:0:0:0:
64,192,72049,1,2,0:0:0:0:
192,192,72049,1,0,0:0:0:0:
448,192,72049,1,0,0:0:0:0:
64,192,72193,1,0,0:0:0:0:
320,192,72193,1,0,0:0:0:0:
192,192,72337,1,0,0:0:0:0:
64,192,72481,1,2,0:0:0:0:
320,192,72481,1,0,0:0:0:0:
448,192,72481,1,0,0:0:0:0:
320,192,72626,1,0,0:0:0:0:
64,192,72770,1,8,0:0:0:0:
448,192,72770,1,0,0:0:0:0:
192,192,72914,1,0,0:0:0:0:
320,192,73058,1,0,0:0:0:0:
64,192,73203,1,2,0:0:0:0:
320,192,73203,1,0,0:0:0:0:
448,192,73203,1,0,0:0:0:0:
64,192,73347,1,8,0:0:0:0:
192,192,73347,1,0,0:0:0:0:
448,192,73443,1,0,0:0:0:0:
320,192,73539,1,0,0:0:0:0:
64,192,73635,1,2,0:0:0:0:
448,192,73635,1,0,0:0:0:0:
192,192,73635,128,0,73779:0:0:0:0:
320,192,73779,128,0,73924:0:0:0:0:
64,192,73924,128,8,74212:0:0:0:0:
448,192,73924,1,0,0:0:0:0:
320,192,74068,1,0,0:0:0:0:
192,192,74212,128,0,74501:0:0:0:0:
64,192,74356,1,2,0:0:0:0:
448,192,74356,1,0,0:0:0:0:
64,192,74501,1,8,0:0:0:0:
320,192,74501,128,0,75078:0:0:0:0:
192,192,74645,1,0,0:0:0:0:
64,192,74789,1,2,0:0:0:0:
448,192,74789,128,0,75078:0:0:0:0:
192,192,74933,1,0,0:0:0:0:
64,192,75078,128,8,75366:0:0:0:0:
192,192,75078,1,0,0:0:0:0:
448,192,75222,1,0,0:0:0:0:
320,192,75366,1,0,0:0:0:0:
64,192,75510,1,2,0:0:0:0:
192,192,75510,1,0,0:0:0:0:
448,192,75510,1,0,0:0:0:0:
192,192,75654,1,8,0:0:0:0:
320,192,75654,1,0,0:0:0:0:
448,192,75799,1,0,0:0:0:0:
64,192,75943,1,2,0:0:0:0:
192,192,75943,1,0,0:0:0:0:
320,192,75943,1,0,0:0:0:0:
192,192,76087,1,0,0:0:0:0:
64,192,76231,1,8,0:0:0:0:
448,192,76231,1,0,0:0:0:0:
320,192,76376,1,0,0:0:0:0:
192,192,76520,1,0,0:0:0:0:
64,192,76664,1,0,0:0:0:0:
320,192,76664,1,0,0:0:0:0:
448,192,76664,1,0,0:0:0:0:
192,192,76808,1,8,0:0:0:0:
448,192,76808,1,0,0:0:0:0:
320,192,76953,1,0,0:0:0:0:
64,192,77097,1,0,0:0:0:0:
320,192,77097,1,0,0:0:0:0:
448,192,77097,1,0,0:0:0:0:
192,192,77241,1,0,0:0:0:0:
64,192,77385,1,8,0:0:0:0:
448,192,77385,1,0,0:0:0:0:
320,192,77529,1,0,0:0:0:0:
192,192,77674,1,0,0:0:0:0:
64,192,77818,1,0,0:0:0:0:
192,192,77818,1,0,0:0:0:0:
448,192,77818,1,0,0:0:0:0:
64,192,77962,1,8,0:0:0:0:
320,192,77962,1,0,0:0:0:0:
192,192,78106,1,0,0:0:0:0:
320,192,78251,1,2,0:0:0:0:
448,192,78251,1,0,0:0:0:0:
192,192,78323,1,0,0:0:0:0:
64,192,78395,1,0,0:0:0:0:
320,192,78467,1,0,0:0:0:0:
64,192,78539,1,8,0:0:0:0:
448,192,78539,128,0,78828:0:0:0:0:
192,192,78683,1,0,0:0:0:0:
320,192,78828,128,0,79116:0:0:0:0:
64,192,78972,1,2,0:0:0:0:
448,192,78972,1,0,0:0:0:0:
192,192,79116,128,8,79693:0:0:0:0:
448,192,79116,1,0,0:0:0:0:
320,192,79260,1,0,0:0:0:0:
64,192,79404,128,2,79693:0:0:0:0:
448,192,79404,1,0,0:0:0:0:
320,192,79549,1,0,0:0:0:0:
320,192,79693,1,8,0:0:0:0:
448,192,79693,128,0,79981:0:0:0:0:
192,192,79837,1,0,0:0:0:0:
64,192,79981,1,0,0:0:0:0:
64,192,80126,1,2,0:0:0:0:
320,192,80126,1,0,0:0:0:0:
448,192,80126,1,0,0:0:0:0:
192,192,80270,1,8,0:0:0:0:
320,192,80270,1,0,0:0:0:0:
448,192,80414,1,0,0:0:0:0:
64,192,80558,1,2,0:0:0:0:
192,192,80558,1,0,0:0:0:0:
320,192,80558,1,0,0:0:0:0:
192,192,80703,1,0,0:0:0:0:
64,192,80847,1,8,0:0:0:0:
448,192,80847,1,0,0:0:0:0:
320,192,80991,1,0,0:0:0:0:
192,192,81135,1,0,0:0:0:0:
64,192,81279,1,2,0:0:0:0:
320,192,81279,1,0,0:0:0:0:
448,192,81279,1,0,0:0:0:0:
192,192,81424,1,0,0:0:0:0:
320,192,81424,1,0,0:0:0:0:
448,192,81568,1,0,0:0:0:0:
64,192,81712,1,2,0:0:0:0:
192,192,81712,1,0,0:0:0:0:
320,192,81712,1,0,0:0:0:0:
448,192,81856,1,0,0:0:0:0:
64,192,82001,1,8,0:0:0:0:
192,192,82001,1,0,0:0:0:0:
448,192,82145,1,0,0:0:0:0:
320,192,82289,1,0,0:0:0:0:
64,192,82433,1,2,0:0:0:0:
320,192,82433,1,0,0:0:0:0:
448,192,82433,1,0,0:0:0:0:
64,192,82578,1,8,0:0:0:0:
192,192,82578,1,0,0:0:0:0:
448,192,82674,1,0,0:0:0:0:
320,192,82770,1,0,0:0:0:0:
64,192,82866,1,2,0:0:0:0:
192,192,82866,1,0,0:0:0:0:
448,192,82866,1,0,0:0:0:0:
