osu file format v14

[General]
AudioFilename: Titenic- The JonSong (Ft.mp3
AudioLeadIn: 0
PreviewTime: 67922
Countdown: 1
SampleSet: Soft
StackLeniency: 0.7
Mode: 0
LetterboxInBreaks: 1
WidescreenStoryboard: 1

[Editor]
Bookmarks: 19872,130895,154076
DistanceSpacing: 0.8
BeatDivisor: 4
GridSize: 4
TimelineZoom: 1

[Metadata]
Title:Titenic: The JonSong
TitleUnicode:Titenic: The JonSong
Artist:JonTron ft. Schmoyoho
ArtistUnicode:JonTron ft. Schmoyoho
Creator:Med-Draak
Version:In Southampton
Source:
Tags:Birds vs Camel, JonTron, Titenic, Schmoyoho
BeatmapID:723742
BeatmapSetID:324862

[Difficulty]
HPDrainRate:3
CircleSize:3
OverallDifficulty:2
ApproachRate:3
SliderMultiplier:1.4
SliderTickRate:1

[Events]
//Background and Video events
0,0,"maxresdefault.jpg",0,0
Video,0,"titanic.avi"
//Break Periods
2,50373,51189
2,126270,145262
//Storyboard Layer 0 (Background)
//Storyboard Layer 1 (Fail)
//Storyboard Layer 2 (Pass)
//Storyboard Layer 3 (Foreground)
//Storyboard Sound Samples

[TimingPoints]
3506,491.239561159325,4,2,1,100,1,0
62486,-100,4,2,1,100,0,0
83849,-100,4,2,1,75,0,0
86804,-100,4,2,1,100,0,0
92713,-100,4,2,1,35,0,0
95554,-100,4,2,1,100,0,0
148508,-100,4,2,1,51,0,0
152145,-100,4,2,1,100,0,0
162258,-100,4,2,1,100,0,1
178167,-100,4,2,1,100,0,0

[Colours]
Combo1 : 0,158,0
Combo2 : 202,0,101
Combo3 : 0,131,193
Combo4 : 242,121,0

[HitObjects]
16,28,20945,6,0,L|108:28,1,70
260,32,21690,1,2,3:0:0:0:
372,32,22173,1,2,3:0:0:0:
384,228,22909,5,8,0:0:0:0:
384,228,23646,1,8,0:0:0:0:
384,228,24138,1,8,0:0:0:0:
384,228,24383,1,8,0:0:0:0:
372,312,24629,5,0,0:0:0:0:
316,312,24874,1,2,1:0:0:0:
176,312,25366,1,0,0:0:0:0:
120,312,25611,2,0,L|44:312,5,70,0|0|0|0|0|2,0:0|0:0|0:0|0:0|0:0|2:0,0:0:0:0:
492,356,28804,6,0,L|408:356,1,70
252,356,29541,1,2,3:0:0:0:
140,356,30032,1,2,3:0:0:0:
148,156,30769,5,8,0:0:0:0:
148,156,31506,1,8,0:0:0:0:
148,156,31997,1,8,0:0:0:0:
140,156,32243,1,8,0:0:0:0:
140,72,32486,5,0,0:0:0:0:
196,72,32734,1,2,1:0:0:0:
308,72,33225,1,0,0:0:0:0:
392,72,33471,2,0,L|468:72,5,70,0|0|0|0|0|2,0:0|0:0|0:0|0:0|0:0|2:0,0:0:0:0:
40,352,36910,6,0,L|104:352,1,35
140,352,37155,2,0,L|216:352,1,70
264,352,37647,2,0,L|344:352,2,70,0|2|0,0:0|0:0|0:0,0:0:0:0:
260,240,38629,5,0,0:0:0:0:
260,184,38875,1,0,0:0:0:0:
260,100,39243,1,0,0:0:0:0:
372,100,39612,1,2,3:0:0:0:
388,292,40594,5,2,1:0:0:0:
248,292,41085,1,0,0:0:0:0:
192,292,41331,2,0,L|116:292,2,70,0|0|2,0:0|0:0|2:0,0:0:0:0:
196,124,42559,2,0,L|196:224,1,70
196,284,43050,2,0,L|360:284,1,140,2|2,3:0|3:0,3:0:0:0:
504,292,44278,6,0,L|504:204,6,70,0|0|4|0|2|0|4,0:0|0:0|3:0|0:0|0:0|0:0|3:0,0:0:0:0:
496,152,46243,1,6,0:0:0:0:
492,68,46612,2,0,L|424:68,1,35
364,68,46980,2,0,L|288:68,1,70
264,68,47349,2,0,B|224:68|224:68|136:228,1,210
152,296,48454,5,0,0:0:0:0:
236,296,48700,1,0,0:0:0:0:
292,296,48945,2,0,L|392:296,1,70
452,296,49682,2,0,B|484:224|484:224|456:140,1,140
176,24,52629,6,0,L|136:104,2,70
316,24,53612,1,0,0:0:0:0:
172,196,54594,5,0,0:0:0:0:
256,200,54963,1,0,0:0:0:0:
340,200,55331,1,12,0:0:0:0:
500,16,56559,5,0,0:0:0:0:
388,16,57051,1,0,0:0:0:0:
276,16,57542,2,0,L|184:16,1,70
88,16,58156,2,0,L|48:60,1,35
20,84,58524,1,6,1:0:0:0:
20,168,58770,1,0,0:0:0:0:
20,276,59261,1,2,0:0:0:0:
20,356,59998,5,0,0:0:0:0:
132,356,60489,2,0,L|232:356,1,70
292,356,60981,2,0,L|376:356,2,70
256,192,61963,12,4,63437,2:0:0:0:
32,24,63928,6,0,L|32:108,1,70
32,180,64417,2,0,L|32:264,1,70,2|2,1:0|1:0,1:0:0:0:
36,308,64910,2,0,L|36:388,2,70,0|0|2,0:0|0:0|0:0,0:0:0:0:
92,308,65647,2,0,L|144:352,3,35
408,36,67981,6,0,L|360:80,2,35
352,36,68349,2,0,P|304:76|280:168,2,140,2|2|2,0:0|0:0|3:0,0:0:0:0:
232,192,70068,5,8,0:0:0:0:
132,328,70805,1,8,0:0:0:0:
244,328,71297,1,8,0:0:0:0:
188,268,71542,1,8,0:0:0:0:
124,212,71788,5,0,0:0:0:0:
128,156,72031,2,2,B|256:156|256:156|288:180,1,140,2|2,3:0|3:0,3:0:0:0:
348,168,72770,2,0,P|380:144|380:112,5,70
408,348,75841,6,0,L|360:304,2,35
352,348,76209,2,2,P|304:308|288:208,2,140,2|2|2,1:0|1:0|1:0,1:0:0:0:
232,192,77928,5,8,0:0:0:0:
132,56,78665,1,8,0:0:0:0:
244,56,79156,1,8,0:0:0:0:
188,116,79402,1,8,0:0:0:0:
124,172,79645,5,0,0:0:0:0:
128,228,79893,2,2,B|256:228|256:228|288:204,1,140,2|2,1:0|1:0,1:0:0:0:
348,216,80630,2,0,P|380:240|380:272,5,70
20,24,84069,6,8,P|16:96|24:112,1,70
148,236,85051,5,8,0:0:0:0:
348,332,86034,5,8,0:0:0:0:
468,176,86771,5,8,0:0:0:0:
476,32,87507,6,0,L|376:32,2,70
480,116,88244,1,0,0:0:0:0:
480,172,88490,2,0,L|480:268,1,70
320,192,89472,5,12,0:0:0:0:
296,112,89964,2,2,P|264:148|260:180,3,70
32,24,91929,6,0,L|32:240,1,210
88,224,92911,2,2,B|147:136|342:102|400:204,2,350,2|2|2,1:0|1:0|1:0,1:0:0:0:
80,284,95859,6,0,L|164:284,3,70,0|0|0|2,0:0|0:0|0:0|1:0,0:0:0:0:
348,284,97455,6,0,L|408:284,1,35
448,228,97823,2,0,L|448:64,1,140
392,52,98560,1,2,3:0:0:0:
104,348,99420,6,0,L|152:304,2,35
160,348,99788,2,0,P|208:308|224:208,2,140,2|2|2,0:0|0:0|3:0,0:0:0:0:
280,192,101508,5,8,0:0:0:0:
380,56,102245,1,8,0:0:0:0:
268,56,102736,1,8,0:0:0:0:
324,116,102982,1,8,0:0:0:0:
388,172,103227,5,0,0:0:0:0:
384,228,103473,2,2,B|256:228|256:228|224:204,1,140,2|2,3:0|3:0,3:0:0:0:
164,216,104210,2,0,P|132:240|132:272,5,70
104,36,107280,6,0,L|152:80,2,35
160,36,107648,2,2,P|208:76|224:176,2,140,2|2|2,1:0|1:0|1:0,1:0:0:0:
280,192,109368,5,8,0:0:0:0:
380,328,110104,1,8,0:0:0:0:
268,328,110596,1,8,0:0:0:0:
324,268,110841,1,8,0:0:0:0:
388,212,111087,5,0,0:0:0:0:
384,156,111333,2,2,B|256:156|256:156|224:172,1,140,2|2,1:0|1:0,1:0:0:0:
164,168,112069,2,0,P|132:144|132:112,5,70
36,28,115508,5,0,0:0:0:0:
260,28,116491,1,0,0:0:0:0:
260,244,117473,1,0,0:0:0:0:
32,244,118210,1,0,0:0:0:0:
188,80,119192,6,0,P|224:88|252:124,6,70,0|0|0|0|0|2|2,0:0|0:0|0:0|0:0|0:0|3:0|3:0,0:0:0:0:
240,224,121157,5,0,0:0:0:0:
236,316,121649,6,0,P|284:304|328:324,4,70,0|0|0|2|2,0:0|0:0|0:0|3:0|3:0,0:0:0:0:
152,312,123000,6,0,L|104:312,2,35
180,312,123368,2,0,P|252:312|304:248,1,140
300,156,124350,1,0,0:0:0:0:
220,76,124842,2,0,L|144:76,1,70
152,132,125333,1,0,0:0:0:0:
152,300,126070,1,0,0:0:0:0:
84,72,146702,6,0,L|148:112,2,70
80,184,147439,1,0,0:0:0:0:
80,296,147930,1,0,0:0:0:0:
248,296,148667,5,8,0:0:0:0:
444,292,149404,1,8,0:0:0:0:
444,180,149895,1,8,0:0:0:0:
444,96,150141,1,8,0:0:0:0:
248,88,150877,6,0,L|156:200,2,140
108,92,152351,6,0,L|64:168,3,70
72,236,153334,2,0,L|72:324,1,70
296,248,154562,6,0,L|360:248,1,35
392,248,154807,2,0,P|392:180|368:100,2,140,4|4|2,3:0|3:0|0:0,0:0:0:0:
296,136,156281,6,0,L|384:136,1,70
392,136,156772,2,0,P|392:204|368:284,2,140,4|4|2,3:0|3:0|0:0,0:0:0:0:
224,120,158369,5,0,0:0:0:0:
196,120,158492,2,0,L|152:120,1,35
132,120,158737,2,0,P|152:200|104:264,1,140,0|4,0:0|0:0,0:0:0:0:
132,120,159720,2,0,P|64:176|64:252,1,140,0|4,0:0|0:0,0:0:0:0:
256,192,160702,12,0,162176,0:0:0:0:
264,36,162667,6,4,L|128:144,2,140,4|4|4,3:0|3:0|3:0,3:0:0:0:
260,204,164386,5,8,0:0:0:0:
428,60,165123,1,8,0:0:0:0:
424,144,165615,1,8,0:0:0:0:
424,200,165860,1,8,0:0:0:0:
424,284,166106,5,0,0:0:0:0:
424,368,166349,2,2,B|296:368|296:368|272:340,1,140,2|2,3:0|3:0,3:0:0:0:
204,364,167088,2,0,P|216:312|248:288,5,70,0|0|2|4|2|2,0:0|0:0|3:0|3:0|3:0|0:0,0:0:0:0:
492,344,170159,5,0,0:0:0:0:
464,344,170281,2,0,L|408:344,1,35
364,344,170527,2,4,L|228:236,2,140,4|4|4,3:0|3:0|3:0,3:0:0:0:
260,180,172246,5,8,0:0:0:0:
424,324,172983,1,8,0:0:0:0:
424,240,173474,1,8,0:0:0:0:
424,184,173720,1,8,0:0:0:0:
424,100,173966,5,0,0:0:0:0:
424,16,174211,2,2,B|280:16|280:16|256:24,1,140,2|2,1:0|1:0,1:0:0:0:
204,20,174948,2,0,P|204:64|244:96,5,70,0|0|2|4|2|2,0:0|0:0|3:0|3:0|3:0|0:0,0:0:0:0:
384,96,177159,5,2,0:0:0:0:
500,20,177650,1,6,0:0:0:0:
