osu file format v14

[General]
AudioFilename: audio.mp3
AudioLeadIn: 0
PreviewTime: 90998
Countdown: 1
SampleSet: Soft
StackLeniency: 0.7
Mode: 0
LetterboxInBreaks: 0
WidescreenStoryboard: 0

[Editor]
DistanceSpacing: 1.5
BeatDivisor: 4
GridSize: 16
TimelineZoom: 2.1

[Metadata]
Title:Firework
TitleUnicode:Firework
Artist:JonTron
ArtistUnicode:JonTron
Creator:-Helium-
Version:Hard
Source:
Tags:
BeatmapID:1203939
BeatmapSetID:568091

[Difficulty]
HPDrainRate:5
CircleSize:4
OverallDifficulty:4
ApproachRate:7
SliderMultiplier:1.4
SliderTickRate:1

[Events]
//Background and Video events
0,0,"big_1473930756_image.jpg",0,0
Video,0,"FIREWORK FULL COVER (JONTRON OFFICIAL)(2).mp4"
//Break Periods
2,198859,213969
//Storyboard Layer 0 (Background)
//Storyboard Layer 1 (Fail)
//Storyboard Layer 2 (Pass)
//Storyboard Layer 3 (Foreground)
//Storyboard Sound Samples

[TimingPoints]
30273,483.870967741935,4,1,0,100,1,0
33902,-133.333333333333,4,2,0,100,0,0
34002,-133.333333333333,4,2,0,100,0,0
34002,-133.333333333333,4,2,0,100,0,0
34002,-114.942528735632,4,2,0,100,0,0
34506,-100,4,2,0,100,0,0
35595,-133.333333333333,4,2,0,100,0,0
36316,-100,4,2,0,100,0,0
38498,-133.333333333333,4,2,0,100,0,0
60998,-133.333333333333,4,3,0,100,0,0
76724,-100,4,3,1,100,0,0
90998,-66.6666666666667,4,2,0,100,0,0
92208,-66.6666666666667,4,2,0,100,0,1
107692,-100,4,3,0,100,0,0
138176,-133.333333333333,4,2,0,100,0,0
152934,-66.6666666666667,4,2,0,100,0,1
185111,-100,4,2,0,100,0,0
214869,-66.6666666666667,4,2,0,100,0,1
247047,-133.333333333333,4,2,0,100,0,0

[HitObjects]
354,123,30272,6,0,P|402:107|434:75,2,70
256,192,30998,1,0,0:0:0:0:
160,128,31240,2,0,P|112:96|96:64,2,70
256,192,31966,1,0,0:0:0:0:
356,256,32208,2,0,P|404:288|436:320,2,70
256,192,32934,1,0,0:0:0:0:
151,256,33176,2,0,P|119:288|92:321,2,70
305,312,33902,6,0,P|381:303|401:264,1,105.000004005432
464,134,34627,2,0,P|445:92|413:76,1,70
256,64,35111,1,0,0:0:0:0:
96,96,35353,1,0,0:0:0:0:
187,223,35595,2,0,P|219:287|267:303,1,105.000004005432
391,267,36320,2,0,P|423:235|423:187,1,70
308,70,36805,1,0,0:0:0:0:
130,71,37047,2,0,P|98:103|98:151,2,70
270,76,38014,5,0,0:0:0:0:
424,141,38498,1,0,0:0:0:0:
375,261,38740,1,0,0:0:0:0:
240,267,38982,2,0,P|176:251|176:251,2,52.5000020027161
443,249,39950,1,0,0:0:0:0:
297,61,40434,1,0,0:0:0:0:
138,51,40676,1,0,0:0:0:0:
81,182,40918,2,0,P|52:206|20:222,2,52.5000020027161
256,176,41885,5,0,0:0:0:0:
391,91,42369,1,0,0:0:0:0:
448,232,42611,1,0,0:0:0:0:
272,320,42853,2,0,P|224:320|208:304,2,52.5000020027161
355,183,43821,5,0,0:0:0:0:
302,92,44063,1,0,0:0:0:0:
190,87,44305,1,0,0:0:0:0:
136,182,44547,1,0,0:0:0:0:
148,280,44789,2,0,P|178:304|202:310,1,52.5000020027161
293,271,45272,2,0,B|354:261|329:229|392:213,1,105.000004005432
22,251,46240,5,0,0:0:0:0:
133,339,46482,1,0,0:0:0:0:
304,309,46724,2,0,P|357:279|363:272,1,52.5000020027161
405,203,47208,2,0,B|428:141|405:142|425:86,1,105.000004005432
268,29,47934,1,0,0:0:0:0:
147,62,48176,1,0,0:0:0:0:
84,156,48418,1,0,0:0:0:0:
123,263,48660,2,0,P|150:317|163:324,1,52.5000020027161
281,328,49143,1,0,0:0:0:0:
434,183,49627,5,0,0:0:0:0:
280,27,50111,1,0,0:0:0:0:
161,69,50353,1,0,0:0:0:0:
111,169,50595,1,0,0:0:0:0:
171,269,50837,1,0,0:0:0:0:
283,265,51080,2,0,P|324:232|328:214,2,52.5000020027161
152,266,51805,1,0,0:0:0:0:
95,148,52047,1,0,0:0:0:0:
129,31,52289,1,0,0:0:0:0:
263,56,52531,2,0,P|305:63|325:72,1,52.5000020027161
401,161,53014,2,0,B|445:222|395:222|427:281,1,105.000004005432
84,86,53982,5,0,0:0:0:0:
95,200,54224,1,0,0:0:0:0:
175,295,54466,1,0,0:0:0:0:
283,297,54708,1,0,0:0:0:0:
389,216,54950,2,0,B|454:180|408:151|462:122,1,105.000004005432
331,30,55918,5,0,0:0:0:0:
218,77,56160,1,0,0:0:0:0:
156,171,56402,1,0,0:0:0:0:
173,280,56643,1,0,0:0:0:0:
306,302,56885,2,0,P|351:301|396:261,1,105.000004005432
401,22,57853,5,0,0:0:0:0:
288,69,58095,1,0,0:0:0:0:
226,163,58337,1,0,0:0:0:0:
243,272,58578,1,0,0:0:0:0:
376,294,58820,2,0,P|421:293|466:253,1,105.000004005432
252,28,59789,5,0,0:0:0:0:
152,94,60031,1,0,0:0:0:0:
115,215,60272,1,0,0:0:0:0:
196,326,60514,1,0,0:0:0:0:
331,341,60756,1,0,0:0:0:0:
421,253,60998,6,0,B|420:169|501:125|501:125|422:115|387:26,1,315.000012016297
341,154,62692,1,0,0:0:0:0:
258,256,62934,2,0,B|259:172|178:128|178:128|257:118|292:29,1,315.000012016297
160,32,64627,1,0,0:0:0:0:
100,123,64869,2,0,B|44:148|44:148|72:221|158:228|208:182|208:182|153:136,1,315.000012016297
196,75,66563,1,0,0:0:0:0:
281,51,66805,2,0,B|349:54|354:56|370:209|264:173|431:126|458:65|434:208|436:239|441:272,1,315.000012016297
333,297,68498,1,0,0:0:0:0:
195,306,68740,2,0,B|198:232|198:232|137:231|137:231|139:159|139:159|204:159|204:159|205:97,1,315.000012016297
249,41,70434,1,0,0:0:0:0:
336,35,70676,2,0,B|405:35|405:35|406:98|406:98|354:98|354:98|354:163|354:163|436:162|436:162,1,315.000012016297
383,274,72369,1,0,0:0:0:0:
286,311,72611,2,0,B|174:309|174:309|173:187,1,210.000008010865
403,157,74305,2,0,B|403:84|403:84|339:83|339:83|340:159,1,210.000008010865
371,274,75514,5,0,0:0:0:0:
214,333,75756,1,0,0:0:0:0:
123,213,75998,1,0,0:0:0:0:
191,70,76240,1,0,0:0:0:0:
387,68,76482,1,0,0:0:0:0:
441,278,76724,6,0,B|389:253|354:275|354:275|325:313|325:357|325:357|325:314|296:273|296:273|274:248|225:254|225:254|275:248|304:221|304:221|300:178|283:139|283:139|299:166|348:218|348:218|400:201|422:157|422:157,1,700
225,333,79627,5,0,0:0:0:0:
82,258,79869,1,0,0:0:0:0:
107,140,80111,1,0,0:0:0:0:
246,54,80353,1,0,0:0:0:0:
281,87,80595,2,0,B|328:119|361:115|361:115|390:77|390:33|390:33|390:76|419:117|419:117|441:142|490:144|490:144|440:142|411:169|411:169|404:222|411:253|411:253|406:225|367:172|367:172|326:174|271:222|271:222,1,700
311,307,83498,6,0,P|259:271|243:263,1,70
140,227,83982,1,0,0:0:0:0:
140,83,84466,2,0,P|186:53|283:65,1,140
403,128,85192,2,0,P|425:170|390:262,1,140
257,292,85918,2,0,P|200:278|146:200,1,140
131,77,86885,5,0,0:0:0:0:
266,52,87127,1,0,0:0:0:0:
391,54,87369,1,0,0:0:0:0:
419,184,87611,2,0,P|431:224|417:254,1,70
259,250,88095,1,0,0:0:0:0:
109,218,88337,2,0,P|121:164|171:89,1,140
356,45,89063,2,0,P|398:57|448:149,1,140
366,237,89789,2,0,P|331:275|296:278,2,70
256,48,90998,6,0,P|336:64|368:96,1,105.000004005432
422,270,91482,2,0,P|400:325|334:333,1,105.000004005432
237,347,91966,1,0,0:0:0:0:
144,256,92208,2,0,B|224:144|112:80|112:80|240:112|256:0|256:0|272:112|416:80|416:80|288:144|352:272|352:272|256:160|144:256|144:256,1,1050.00004005432
93,283,95111,6,0,P|62:219|92:153,1,105.000004005432
105,108,95595,2,0,P|155:62|211:52,1,105.000004005432
336,0,96079,2,0,B|352:144|495:131|495:131|368:192|432:304|432:304|336:208|256:304|256:304|304:192|188:128|188:128|320:144|336:0|336:0,1,1050.00004005432
112,80,98982,6,0,P|91:156|112:192,1,105.000004005432
272,288,99466,1,0,0:0:0:0:
426,144,99950,2,0,P|464:100|445:40,1,105.000004005432
170,41,100676,2,0,P|103:82|88:125,1,105.000004005432
200,290,101402,2,0,P|258:321|305:297,1,105.000004005432
393,233,102127,5,0,0:0:0:0:
414,148,102369,1,0,0:0:0:0:
389,58,102611,1,0,0:0:0:0:
296,43,102853,2,0,P|236:30|188:60,3,105.000004005432
121,141,103821,2,0,P|124:197|163:231,1,105.000004005432
407,253,104546,2,0,P|446:206|437:155,1,105.000004005432
288,60,105272,2,0,B|217:98|219:41|92:147,2,210.000008010865
407,122,106724,6,0,P|462:202|403:302,1,210.000008010865
370,211,107692,1,0,0:0:0:0:
243,303,108176,5,0,0:0:0:0:
92,284,108418,1,0,0:0:0:0:
47,152,108660,1,0,0:0:0:0:
135,48,108902,1,0,0:0:0:0:
269,51,109143,2,0,P|324:125|297:253,1,210
189,317,110111,5,0,0:0:0:0:
135,186,110353,1,0,0:0:0:0:
216,60,110595,1,0,0:0:0:0:
366,46,110837,1,0,0:0:0:0:
435,176,111079,2,0,P|411:289|374:326,1,140
215,306,112047,6,0,P|163:255|161:230,1,70
139,118,112531,1,0,0:0:0:0:
254,49,112772,1,0,0:0:0:0:
377,107,113014,2,0,P|404:176|374:237,1,140
234,307,113982,1,0,0:0:0:0:
127,205,114224,1,0,0:0:0:0:
237,58,114466,1,0,0:0:0:0:
380,246,114950,2,0,P|375:250|170:303,1,210
297,184,115918,5,0,0:0:0:0:
231,70,116160,1,0,0:0:0:0:
108,52,116402,1,0,0:0:0:0:
87,269,116885,2,0,P|96:278|285:275,1,210
408,179,117853,1,0,0:0:0:0:
345,85,118095,1,0,0:0:0:0:
241,43,118337,1,0,0:0:0:0:
112,60,118579,1,0,0:0:0:0:
51,165,118821,2,0,P|11:229|40:308,1,140
219,309,119547,5,0,0:0:0:0:
319,270,119789,1,0,0:0:0:0:
393,193,120031,1,0,0:0:0:0:
384,78,120272,2,0,P|311:42|238:53,2,140
366,259,121724,1,0,0:0:0:0:
231,316,121966,1,0,0:0:0:0:
138,189,122208,2,0,B|182:106|336:90|386:202,1,280
258,199,123418,5,0,0:0:0:0:
177,308,123660,1,0,0:0:0:0:
57,216,123902,1,0,0:0:0:0:
143,72,124143,2,0,B|214:166|338:-11|398:119,1,280
458,239,125595,1,0,0:0:0:0:
325,304,125837,1,0,0:0:0:0:
207,232,126079,2,0,L|207:152,1,70
76,169,126563,2,0,B|47:247|47:247|77:305,1,140
245,327,127289,5,0,0:0:0:0:
362,223,127531,1,0,0:0:0:0:
311,64,127772,1,0,0:0:0:0:
150,71,128014,2,0,P|97:95|85:120,2,70
311,64,128740,5,0,0:0:0:0:
404,178,128982,1,0,0:0:0:0:
325,283,129224,1,0,0:0:0:0:
157,227,129466,1,0,0:0:0:0:
179,73,129708,1,0,0:0:0:0:
376,90,129950,2,0,B|410:123|421:154|420:154|422:154|418:149|421:156|402:197|351:212,2,140
91,47,131402,5,0,0:0:0:0:
156,184,131643,1,0,0:0:0:0:
264,49,131885,2,0,B|245:141|245:141|312:124|312:124|283:239,1,280
347,254,133579,1,0,0:0:0:0:
265,304,133821,1,0,0:0:0:0:
214,230,134063,1,0,0:0:0:0:
290,159,134305,2,0,P|269:111|170:55,1,140
105,96,135031,1,0,0:0:0:0:
93,212,135272,1,0,0:0:0:0:
188,306,135514,2,0,P|226:328|261:309,1,70
380,247,135998,1,0,0:0:0:0:
362,95,136240,2,0,P|299:56|212:42,1,140
132,37,137208,5,0,0:0:0:0:
98,102,137450,1,0,0:0:0:0:
105,177,137692,1,0,0:0:0:0:
125,245,137934,1,0,0:0:0:0:
208,163,138176,6,0,B|302:164|302:164|303:308|303:308|238:345|183:293,1,367.500014019013
131,175,140111,1,0,0:0:0:0:
287,32,140353,2,0,P|308:147|255:43,1,315.000012016297
389,151,142047,1,0,0:0:0:0:
264,217,142289,2,0,B|259:314|259:314|183:225|183:225|182:329,1,315.000012016297
165,98,143982,1,0,0:0:0:0:
301,60,144466,5,0,0:0:0:0:
404,209,144950,1,0,0:0:0:0:
303,303,145434,2,0,P|205:297|200:293,1,105.000004005432
86,116,146402,6,0,P|120:64|172:47,1,105.000004005432
352,81,147369,2,0,P|381:135|370:183,1,105.000004005432
216,301,148337,2,0,P|163:282|135:231,1,105.000004005432
83,106,149305,2,0,P|119:46|174:34,1,105.000004005432
310,48,150272,5,0,0:0:0:0:
425,195,150756,1,0,0:0:0:0:
230,305,151240,1,0,0:0:0:0:
373,79,151724,2,0,L|375:194,1,105.000004005432
372,277,152692,1,0,0:0:0:0:
217,321,152934,5,0,0:0:0:0:
90,243,153176,1,0,0:0:0:0:
122,73,153418,1,0,0:0:0:0:
246,63,153660,2,0,P|316:54|368:94,1,105.000004005432
358,196,154143,2,0,B|223:191|209:74|209:74|176:200|52:189|52:189|161:232|117:266|107:365|107:365|197:248|292:369|292:369|232:244|359:196|359:196,1,1050.00004005432
357,89,157047,1,0,0:0:0:0:
196,29,157289,1,0,0:0:0:0:
81,103,157531,2,0,P|60:167|73:243,1,105.000004005432
138,311,158014,2,0,B|304:138|304:137|300:135|300:135|216:65|216:65|395:41|395:41|410:209|410:209|330:154|330:154|164:349,1,1050.00004005432
77,222,160918,2,0,P|80:145|190:64,1,210.000008010865
275,226,161885,6,0,L|179:180,1,105.000004005432
467,160,162611,6,0,L|357:140,1,105.000004005432
204,281,163336,6,0,L|87:277,1,105.000004005432
59,166,164305,1,0,0:0:0:0:
195,36,164547,1,0,0:0:0:0:
391,56,164789,1,0,0:0:0:0:
405,211,165031,2,0,P|388:260|309:278,1,105.000004005432
170,271,165514,1,0,0:0:0:0:
52,171,165756,6,0,P|90:166|53:172,1,105.000004005432
411,172,166482,6,0,P|449:167|412:173,1,105.000004005432
210,82,167208,6,0,P|262:216|187:113,1,420.000016021729
88,172,168418,5,0,0:0:0:0:
200,323,168660,1,0,0:0:0:0:
407,306,168902,1,0,0:0:0:0:
464,102,169143,2,0,P|398:82|352:54,1,105.000004005432
274,47,169627,2,0,B|177:145|95:46|95:46|148:166|24:205|24:205|154:198|147:345|147:345|188:208|312:242|312:242|198:173|274:47|274:47,1,1050.00004005432
337,90,172531,6,0,P|335:167|388:189,1,105.000004005432
366,297,173014,1,0,0:0:0:0:
480,192,173256,1,0,0:0:0:0:
416,80,173498,2,0,B|447:144|416:192|416:192|303:192|303:192|304:256|192:256|191:192|191:192|80:192|80:192|47:144|95:48,1,630.000024032594
153,80,175192,2,0,P|253:-20|348:103,1,315.000012016297
381,111,176402,6,0,P|433:164|420:222,1,105.000004005432
350,284,176885,1,0,0:0:0:0:
129,276,177369,2,0,L|237:243,1,105.000004005432
367,169,178095,2,0,L|263:132,1,105.000004005432
100,80,178821,2,0,L|205:27,1,105.000004005432
313,58,179547,5,0,0:0:0:0:
449,152,179789,1,0,0:0:0:0:
306,232,180031,1,0,0:0:0:0:
454,284,180272,2,0,P|399:325|317:332,1,105.000004005432
203,285,180756,2,0,P|158:209|178:159,1,105.000004005432
220,47,181240,2,0,L|105:84,1,105.000004005432
316,137,181966,2,0,L|426:167,1,105.000004005432
216,227,182692,2,0,B|101:250|101:250|12:207,1,210.000008010865
165,64,183660,5,0,0:0:0:0:
343,67,184143,2,0,P|354:160|249:184,1,210.000008010865
112,165,185111,6,0,P|66:185|47:293,1,140
266,173,185837,2,0,P|305:110|271:53,1,140
122,47,186562,2,0,P|61:103|80:170,1,140
236,130,187530,2,0,P|241:91|287:53,1,70
427,56,188014,2,0,P|459:94|459:135,1,70
396,232,188497,2,0,P|355:241|327:226,1,70
226,47,188982,6,0,P|151:93|142:161,1,140
231,132,189708,2,0,P|273:173|270:251,1,140
205,207,190434,2,0,P|144:249|146:318,1,140
316,314,191160,5,0,0:0:0:0:
412,221,191402,1,0,0:0:0:0:
398,89,191643,1,0,0:0:0:0:
291,58,191885,2,0,P|238:42|211:38,1,70
124,94,192369,1,0,0:0:0:0:
131,229,192611,1,0,0:0:0:0:
259,165,192853,2,0,P|338:169|348:225,1,140
90,261,193579,2,0,P|80:187|122:129,1,140
296,41,194305,2,0,P|358:48|414:118,1,140
356,268,195031,6,0,P|329:312|293:319,1,70
166,237,195514,1,0,0:0:0:0:
101,107,195756,2,0,P|127:71|155:49,1,70
334,61,196240,2,0,B|376:88|388:94|382:125,1,70
286,278,196724,2,0,B|195:76|195:76|141:32|75:86|121:151|121:151|202:318,1,560
399,227,214869,5,0,0:0:0:0:
429,104,215111,2,0,P|388:58|336:55,1,105.000004005432
151,51,215595,2,0,P|86:78|73:119,1,105.000004005432
144,256,216079,2,0,B|224:144|112:80|112:80|240:112|256:0|256:0|272:112|416:80|416:80|288:144|352:272|352:272|256:160|144:256|144:256,1,1050.00004005432
192,49,218982,2,0,P|109:73|86:113,1,105.000004005432
86,242,219466,2,0,P|137:318|171:321,1,105.000004005432
293,329,219950,2,0,B|431:286|457:213|457:213|244:214|244:214|340:101|447:62,2,630.000024032594
146,295,223337,1,0,0:0:0:0:
145,160,223821,6,0,P|106:105|116:65,1,105.000004005432
181,98,224546,2,0,P|194:48|252:21,1,105.000004005432
251,92,225272,2,0,P|314:74|382:107,1,105.000004005432
368,186,226240,2,0,B|370:222|345:233|370:226|370:234|350:221|370:230|380:253|355:222|345:221|345:228|360:216|360:234|369:210|345:215|345:208|360:209|360:227|395:254|393:215|360:222|386:242,1,105.000004005432
334,309,226724,2,0,P|268:317|211:303,1,105.000004005432
122,227,227208,1,0,0:0:0:0:
140,88,227450,1,0,0:0:0:0:
268,92,227692,2,0,P|318:62|386:74,1,105.000004005432
335,174,228418,2,0,P|401:177|446:219,1,105.000004005432
313,283,229143,2,0,B|277:373|128:367|69:74,1,420.000016021729
176,70,230353,6,0,P|236:43|272:58,1,105.000004005432
413,142,230837,1,0,0:0:0:0:
383,305,231079,2,0,P|333:286|307:222,1,105.000004005432
269,162,231563,2,0,B|197:245|216:339|216:339|150:227|50:192|50:192|177:145|190:51|190:51|300:93|400:37|400:37|451:112|426:236,1,1050.00004005432
338,266,234466,2,0,B|276:280|261:270|284:261|270:259|271:270|265:255|284:272|276:278|269:266|281:252|291:287|261:265|268:244|291:271|285:291|265:273|269:260|260:257|260:257|268:274|267:266|257:253|285:243|266:268|272:258|275:253|276:233|284:268|259:259|259:257,1,105.000004005432
41,219,234950,2,0,P|72:155|117:134,1,105.000004005432
291,130,235434,2,0,B|385:91|371:130|375:86|425:101|403:161|373:103|443:160|375:155|412:122|412:122|422:166|422:166|333:202|286:327|286:327|211:224|102:225|102:225|170:137|172:43|172:43|269:70|416:32,1,1050.00004005432
456,138,238337,5,0,0:0:0:0:
391,269,238579,1,0,0:0:0:0:
228,282,238821,2,0,P|154:258|117:197,1,105.000004005432
134,89,239305,2,0,P|173:39|223:21,1,105.000004005432
288,114,240031,2,0,P|354:107|403:130,1,105.000004005432
331,240,240756,2,0,P|385:269|387:319,1,105.000004005432
202,310,241482,5,0,0:0:0:0:
106,219,241724,1,0,0:0:0:0:
100,95,241966,1,0,0:0:0:0:
209,128,242208,2,0,P|245:181|208:221,1,105.000004005432
59,157,242692,2,0,P|55:87|91:62,1,105.000004005432
243,47,243177,2,0,P|305:67|334:117,1,105.000004005432
265,276,243902,2,0,P|221:310|156:278,1,105.000004005432
111,135,244627,2,0,P|126:79|186:50,2,105.000004005432
102,227,245353,5,0,0:0:0:0:
179,278,245595,1,0,0:0:0:0:
273,254,245837,1,0,0:0:0:0:
233,103,246079,5,0,0:0:0:0:
321,70,246321,1,0,0:0:0:0:
391,132,246563,1,0,0:0:0:0:
395,290,246805,5,0,0:0:0:0:
256,192,247047,12,0,248498,0:0:0:0:
