osu file format v14

[General]
AudioFilename: audio.mp3
AudioLeadIn: 0
PreviewTime: 32258
Countdown: 0
SampleSet: Soft
StackLeniency: 0.7
Mode: 0
LetterboxInBreaks: 0
WidescreenStoryboard: 1

[Editor]
Bookmarks: 12055
DistanceSpacing: 1
BeatDivisor: 4
GridSize: 8
TimelineZoom: 1

[Metadata]
Title:BRING ME TO LIFE VOCAL COVER 2016 (OFFICIAL)
TitleUnicode:BRING ME TO LIFE VOCAL COVER 2016 (OFFICIAL)
Artist:Jon Sudano
ArtistUnicode:Jon Sudano
Creator:Seto Kousuke
Version:Enerugi's Hard
Source:
Tags:save me evanescence smash mouth all star shrek english rock trynna mismagius enerugi
BeatmapID:2253533
BeatmapSetID:1076923

[Difficulty]
HPDrainRate:5
CircleSize:3.5
OverallDifficulty:6
ApproachRate:7
SliderMultiplier:1.4
SliderTickRate:1

[Events]
//Background and Video events
0,0,"god himself.jpg",0,0
//Break Periods
2,53151,53945
//Storyboard Layer 0 (Background)
//Storyboard Layer 1 (Fail)
//Storyboard Layer 2 (Pass)
//Storyboard Layer 3 (Foreground)
//Storyboard Layer 4 (Overlay)
//Storyboard Sound Samples

[TimingPoints]
11726,645.161290322581,4,2,2,40,1,0
12375,641.711229946524,4,2,2,40,1,0
22660,641.711229946524,4,2,2,40,1,0
27817,641.711229946524,4,2,2,40,1,0
32308,-76.9230769230769,4,2,2,40,0,0
32951,645.161290322581,4,2,2,50,1,0
32951,-66.6666666666667,4,2,2,50,0,0
53596,-100,4,2,2,50,0,0
54845,322.58064516129,4,2,1,65,1,1
54845,-100,4,2,1,65,0,1
55358,322.58064516129,4,2,1,65,1,1
55358,-100,4,2,1,65,0,1
57454,322.58064516129,4,2,1,65,1,1
57454,-100,4,2,1,65,0,1
70328,-89.2857142857143,4,2,1,65,0,1
71647,-100,4,2,1,5,0,0

[Colours]
Combo1 : 135,217,243
Combo2 : 248,112,112
Combo3 : 251,215,140
Combo4 : 139,243,141

[HitObjects]
173,68,11725,5,2,0:0:0:0:
173,68,12375,6,0,L|265:73,1,70,4|0,0:1|0:0,0:0:0:0:
321,103,13016,2,0,L|413:98,1,70,2|0,0:0|0:0,0:0:0:0:
461,53,13658,2,0,P|474:81|470:130,1,70,2|0,0:0|0:0,0:0:0:0:
414,179,14300,1,0,0:0:0:0:
448,255,14620,6,0,B|380:279|380:231|304:255,1,140,2|0,0:0|0:0,0:0:0:0:
251,313,15583,2,0,P|230:282|226:249,1,70,2|0,0:0|0:0,0:0:0:0:
270,178,16225,1,2,0:0:0:0:
213,115,16546,1,0,0:0:0:0:
213,115,17187,1,0,0:0:0:0:
155,53,17508,6,0,P|119:45|81:55,1,70,2|0,0:0|0:0,0:0:0:0:
30,114,18150,2,0,P|21:150|31:188,1,70,2|0,0:0|0:0,0:0:0:0:
82,247,18792,2,0,P|90:283|80:321,1,70,2|0,0:0|0:0,0:0:0:0:
6,280,19433,1,0,0:0:0:0:
161,221,19754,6,0,P|175:286|157:354,1,140,2|0,0:0|0:0,0:0:0:0:
233,380,20717,2,0,L|284:384,2,35,2|2|2,0:0|0:0|0:0,0:0:0:0:
214,299,21358,1,2,0:0:0:0:
195,218,21679,2,0,L|144:222,2,35,2|2|2,0:0|0:0|0:0,0:0:0:0:
214,137,22321,1,2,0:0:0:0:
278,191,22660,6,0,B|312:202|312:202|358:195,1,70,4|0,3:1|0:0,0:0:0:0:
425,169,23301,2,0,B|459:158|459:158|505:165,1,70,2|0,0:0|0:0,0:0:0:0:
465,243,23943,2,0,L|469:334,1,70,2|0,0:0|0:0,0:0:0:0:
400,363,24585,1,0,0:0:0:0:
328,319,24905,6,0,P|276:302|182:348,1,140,2|0,0:0|0:0,0:0:0:0:
123,369,25868,2,0,P|114:322|124:290,1,70,2|0,0:0|0:0,0:0:0:0:
180,243,26510,2,0,P|185:208|175:175,1,70,2|0,0:0|0:0,0:0:0:0:
103,131,27151,1,2,0:0:0:0:
100,215,27472,1,0,0:0:0:0:
178,92,27817,6,0,L|258:86,1,70,4|2,3:1|0:0,0:0:0:0:
331,79,28458,1,0,0:0:0:0:
295,155,28779,2,0,B|281:208|281:208|313:297,1,140,2|2,0:0|0:0,0:0:0:0:
344,364,29742,1,0,0:0:0:0:
393,296,30062,2,0,P|444:282|523:318,1,140,2|2,0:0|0:0,0:0:0:0:
161,145,32308,6,0,P|206:157|255:146,1,90.9999958343508
328,131,32790,1,0,0:0:0:0:
328,131,32951,6,0,L|323:198,1,52.5000020027161,2|0,0:0|0:0,0:0:0:0:
378,239,33273,2,0,L|384:324,1,52.5000020027161,2|0,0:0|0:0,0:0:0:0:
438,346,33596,1,8,0:2:0:0:
494,291,33757,1,0,0:0:0:0:
494,291,33918,2,0,L|502:213,2,52.5000020027161,2|2|2,0:0|0:0|0:0,0:0:0:0:
357,370,34563,2,0,L|279:359,1,52.5000020027161,2|0,0:0|0:0,0:0:0:0:
226,354,34886,1,8,0:2:0:0:
226,354,35047,1,2,0:0:0:0:
2,275,35531,6,0,P|48:252|98:264,1,105.000004005432,2|0,0:0|0:0,0:0:0:0:
150,323,36015,1,2,0:0:0:0:
191,255,36176,2,0,L|199:133,1,105.000004005432,8|0,0:2|0:0,0:0:0:0:
206,71,36660,1,2,0:0:0:0:
206,71,36821,2,0,L|289:68,1,52.5000020027161,2|0,0:0|0:0,0:0:0:0:
329,33,37144,2,0,L|412:36,1,52.5000020027161,2|0,0:0|0:0,0:0:0:0:
438,89,37467,1,8,0:2:0:0:
391,152,37628,2,0,B|374:190|374:190|405:280,1,105.000004005432,2|0,0:0|0:0,0:0:0:0:
424,323,38112,6,0,P|373:327|336:303,2,52.5000020027161,2|0|2,0:0|0:0|0:0,0:0:0:0:
464,181,38757,2,0,P|468:130|437:88,1,105.000004005432,8|2,0:2|0:0,0:0:0:0:
369,49,39241,1,2,0:0:0:0:
369,49,39402,2,0,L|308:53,1,52.5000020027161,2|0,0:0|0:0,0:0:0:0:
249,93,39725,2,0,L|188:89,1,52.5000020027161,2|0,0:0|0:0,0:0:0:0:
134,40,40047,2,0,P|115:89|131:137,1,105.000004005432,8|0,0:2|0:0,0:0:0:0:
187,193,40531,1,0,0:0:0:0:
187,193,40692,6,0,L|190:282,1,52.5000020027161,2|0,0:0|0:0,0:0:0:0:
242,303,41015,2,0,L|240:355,1,52.5000020027161,2|0,0:0|0:0,0:0:0:0:
300,247,41338,2,0,P|361:225|419:242,1,105.000004005432,10|2,0:2|0:0,0:0:0:0:
467,270,41821,1,2,0:0:0:0:
473,191,41983,2,0,P|456:172|428:156,1,52.5000020027161,2|0,0:0|0:0,0:0:0:0:
364,120,42305,2,0,P|381:100|409:84,1,52.5000020027161,2|0,0:0|0:0,0:0:0:0:
478,62,42628,2,0,P|446:20|391:10,1,105.000004005432,8|0,0:2|0:0,0:0:0:0:
266,97,43273,5,2,0:0:0:0:
266,97,43434,2,0,B|275:123|275:123|270:149,2,52.5000020027161,2|0|0,0:0|0:0|0:0,0:0:0:0:
207,43,43918,2,0,L|91:47,1,105.000004005432,8|2,0:2|0:0,0:0:0:0:
28,76,44402,2,0,B|19:50|19:50|24:24,2,52.5000020027161,2|0|2,0:0|0:0|0:0,0:0:0:0:
89,125,44886,2,0,P|109:186|83:246,1,105.000004005432,2|8,0:0|0:2,0:0:0:0:
57,300,45370,2,0,L|135:301,1,52.5000020027161,0|0,0:0|0:0,0:0:0:0:
176,341,45692,1,2,0:0:0:0:
176,341,45854,6,0,P|237:317|301:331,1,105.000004005432,0|0,0:0|0:0,0:0:0:0:
341,363,46338,2,0,L|345:244,1,105.000004005432,2|2,0:0|0:0,0:0:0:0:
430,126,46983,1,2,0:0:0:0:
430,126,47144,2,0,P|378:132|340:123,1,52.5000020027161,2|0,0:0|0:0,0:0:0:0:
306,98,47467,2,0,P|254:92|216:101,1,52.5000020027161,2|0,0:0|0:0,0:0:0:0:
187,133,47789,1,8,0:2:0:0:
10,384,48434,6,0,L|15:307,1,52.5000020027161,2|0,0:0|0:0,0:0:0:0:
1,253,48757,2,0,P|73:272|129:248,1,105.000004005432,2|8,0:0|0:2,0:0:0:0:
159,211,49241,2,0,L|248:203,1,52.5000020027161,0|2,0:0|0:0,0:0:0:0:
337,300,49725,2,0,B|349:247|349:247|334:188,1,105.000004005432,2|0,0:0|0:0,0:0:0:0:
241,72,50370,1,8,0:2:0:0:
512,9,51015,6,0,L|435:14,1,52.5000020027161,2|2,0:0|0:0,0:0:0:0:
381,0,51338,2,0,P|400:72|376:128,1,105.000004005432,2|8,0:0|0:2,0:0:0:0:
339,158,51822,2,0,L|331:247,1,52.5000020027161,2|2,0:0|0:0,0:0:0:0:
221,320,52306,2,0,B|274:332|274:332|333:317,1,105.000004005432,2|0,0:0|0:0,0:0:0:0:
471,266,52951,1,8,0:2:0:0:
416,292,54845,6,0,P|360:259|279:291,1,140,6|0,3:1|0:0,0:0:0:0:
229,335,55358,1,0,3:0:0:0:
156,291,55519,2,0,B|129:252|129:252|153:149,1,140,8|2,0:2|0:2,0:0:0:0:
199,84,56003,1,0,3:0:0:0:
199,84,56164,2,0,L|117:83,1,70,2|0,3:2|0:0,0:0:0:0:
95,3,56486,2,0,L|177:4,1,70,2|0,3:2|0:0,0:0:0:0:
281,44,56809,2,0,B|286:99|286:99|271:133|271:133|275:180,1,140,10|2,0:2|0:2,0:0:0:0:
292,263,57293,1,0,0:0:0:0:
359,212,57454,6,0,P|417:203|479:249,1,140,2|2,3:2|0:2,0:0:0:0:
453,329,57938,1,0,3:0:0:0:
453,329,58099,2,0,L|350:342,1,70,10|0,0:2|0:0,0:0:0:0:
306,371,58422,2,0,P|267:311|179:315,1,140,2|2,0:2|3:2,0:0:0:0:
123,330,58906,1,0,0:0:0:0:
134,247,59067,2,0,P|106:181|18:169,1,140,2|10,3:2|0:2,0:0:0:0:
160,40,59712,2,0,L|248:35,1,70,2|0,0:2|0:0,0:0:0:0:
311,14,60035,6,0,P|290:64|333:140,1,140,6|2,3:1|0:2,0:0:0:0:
409,149,60519,1,0,3:0:0:0:
409,149,60680,2,0,L|413:249,1,70,8|0,0:2|0:0,0:0:0:0:
481,266,61003,2,0,L|478:335,1,70,2|0,0:2|3:0,0:0:0:0:
399,308,61325,6,0,P|353:298|313:309,1,70,2|0,3:2|0:0,0:0:0:0:
275,365,61648,2,0,P|229:375|189:363,1,70,2|0,3:2|0:0,0:0:0:0:
126,347,61970,2,0,L|123:207,1,140,10|2,0:2|0:2,0:0:0:0:
79,134,62454,1,0,0:0:0:0:
79,134,62615,2,0,B|169:125,1,70,4|0,3:1|0:0,0:0:0:0:
217,78,62938,2,0,B|201:126|201:126|234:223,1,140,2|10,0:2|0:2,0:0:0:0:
372,298,63583,2,0,P|301:277|243:322,1,140,2|2,0:2|3:2,0:0:0:0:
455,342,64228,6,0,B|477:303|464:261|455:278|441:236|462:199,1,140,2|10,3:2|0:2,0:0:0:0:
512,50,64873,2,0,L|433:45,1,70,2|8,0:2|0:2,0:0:0:0:
366,83,65196,2,0,B|309:87|309:87|282:111|282:111|206:116,1,140,6|2,3:1|0:2,0:0:0:0:
164,68,65680,1,0,3:0:0:0:
126,142,65841,2,0,P|120:179|186:250,1,140,8|2,0:2|0:2,0:0:0:0:
265,268,66325,1,0,3:0:0:0:
265,268,66486,6,0,L|265:352,1,70,2|0,3:2|0:0,0:0:0:0:
348,346,66809,2,0,L|348:276,1,70,2|0,3:2|0:0,0:0:0:0:
397,207,67132,2,0,P|448:218|484:203,1,70,10|0,0:2|0:0,0:0:0:0:
474,130,67454,2,0,P|441:118|406:123,1,70,2|0,0:2|0:0,0:0:0:0:
327,152,67777,6,0,P|272:153|157:138,1,140,2|2,3:2|0:2,0:0:0:0:
119,94,68261,1,0,3:0:0:0:
119,94,68422,2,0,B|97:134|97:134|119:253,1,140,10|2,0:2|0:2,0:0:0:0:
132,309,68906,1,0,3:0:0:0:
193,252,69067,6,0,P|231:239|293:247,1,70,2|0,3:2|0:0,0:0:0:0:
316,301,69390,2,0,P|354:314|416:306,1,70,2|0,3:2|0:0,0:0:0:0:
456,272,69712,1,10,0:2:0:0:
157,85,70357,6,0,P|256:26|350:86,1,235.200002871094,6|0,1:0|0:0,0:0:0:0:
396,172,71003,2,0,B|368:176|344:160|344:160|304:176|292:204|292:204|256:196|220:204|220:204|208:176|168:160|168:160|144:176|112:172,1,313.600003828125,6|0,1:0|0:0,0:0:0:0:
