osu file format v14

[General]
AudioFilename: audio.mp3
AudioLeadIn: 0
PreviewTime: 32258
Countdown: 0
SampleSet: Soft
StackLeniency: 0.7
Mode: 0
LetterboxInBreaks: 0
WidescreenStoryboard: 0

[Editor]
Bookmarks: 12055
DistanceSpacing: 0.8
BeatDivisor: 4
GridSize: 16
TimelineZoom: 1

[Metadata]
Title:BRING ME TO LIFE VOCAL COVER 2016 (OFFICIAL)
TitleUnicode:BRING ME TO LIFE VOCAL COVER 2016 (OFFICIAL)
Artist:Jon Sudano
ArtistUnicode:Jon Sudano
Creator:Seto Kousuke
Version:Bring me to Life (OFFICIAL)
Source:
Tags:save me evanescence smash mouth all star shrek english rock trynna mismagius enerugi
BeatmapID:2253530
BeatmapSetID:1076923

[Difficulty]
HPDrainRate:4
CircleSize:4
OverallDifficulty:7
ApproachRate:8.5
SliderMultiplier:1.8
SliderTickRate:1

[Events]
//Background and Video events
0,0,"god himself.jpg",0,0
//Break Periods
//Storyboard Layer 0 (Background)
//Storyboard Layer 1 (Fail)
//Storyboard Layer 2 (Pass)
//Storyboard Layer 3 (Foreground)
//Storyboard Layer 4 (Overlay)
//Storyboard Sound Samples

[TimingPoints]
11726,645.161290322581,4,2,2,40,1,0
12375,641.711229946524,4,2,2,40,1,0
22660,641.711229946524,4,2,2,40,1,0
27817,641.711229946524,4,2,2,40,1,0
32951,645.161290322581,4,2,2,50,1,0
32951,-66.6666666666667,4,2,2,50,0,0
53596,-222.222222222221,4,2,2,50,0,0
54845,322.58064516129,4,2,1,65,1,1
54845,-83.3333333333333,4,2,1,65,0,1
55358,322.58064516129,4,2,1,65,1,1
55358,-83.3333333333333,4,2,1,65,0,1
57454,322.58064516129,4,2,1,65,1,1
57454,-83.3333333333333,4,2,1,65,0,1
71647,-83.3333333333333,4,2,1,5,0,0

[Colours]
Combo1 : 135,217,243
Combo2 : 248,112,112
Combo3 : 251,215,140
Combo4 : 139,243,141

[HitObjects]
90,111,11725,5,2,0:0:0:0:
117,129,12375,2,0,P|164:141|218:110,1,90,4|0,0:1|0:0,0:0:0:0:
264,69,13016,2,0,P|305:54|348:66,1,90,2|0,0:0|0:0,0:0:0:0:
420,124,13658,2,0,L|424:235,1,90,2|0,0:0|0:0,0:0:0:0:
494,293,14300,1,0,0:0:0:0:
494,293,14620,2,0,P|430:252|343:303,1,180,2|0,0:0|0:0,0:0:0:0:
263,345,15583,2,0,P|270:297|259:248,1,90,2|0,0:0|0:0,0:0:0:0:
195,196,16225,2,0,L|88:197,1,90,2|0,0:0|0:0,0:0:0:0:
73,206,17187,1,0,0:0:0:0:
117,125,17508,6,0,P|121:84|115:29,1,90,2|0,0:0|0:0,0:0:0:0:
207,38,18150,2,0,P|202:82|206:127,1,90,2|0,0:0|0:0,0:0:0:0:
258,192,18792,2,0,L|352:193,1,90,2|0,0:0|0:0,0:0:0:0:
400,123,19433,1,0,0:0:0:0:
400,123,19754,6,0,P|375:189|415:298,1,180,2|0,0:0|0:0,0:0:0:0:
474,357,20717,2,0,L|527:355,2,45,2|2|2,0:0|0:0|0:0,0:0:0:0:
317,361,21358,1,2,0:0:0:0:
317,361,21679,2,0,L|264:359,2,45,2|2|2,0:0|0:0|0:0,0:0:0:0:
384,301,22321,1,2,0:0:0:0:
292,185,22660,6,0,P|217:171|173:189,1,90,4|0,3:1|0:0,0:0:0:0:
156,101,23301,2,0,P|122:141|120:192,1,90,2|0,0:0|0:0,0:0:0:0:
163,248,23943,2,0,L|165:351,1,90,2|0,0:0|0:0,0:0:0:0:
68,375,24585,1,0,0:0:0:0:
68,375,24905,6,0,L|64:173,1,180,2|0,0:0|0:0,0:0:0:0:
9,123,25868,2,0,P|57:120|102:95,1,90,2|0,0:0|0:0,0:0:0:0:
170,147,26510,2,0,P|182:110|172:54,1,90,2|0,0:0|0:0,0:0:0:0:
103,29,27151,1,2,0:0:0:0:
242,9,27472,1,0,0:0:0:0:
327,184,27817,5,4,3:1:0:0:
327,184,28137,1,2,0:0:0:0:
411,162,28458,1,0,0:0:0:0:
458,240,28779,1,2,0:0:0:0:
458,240,29421,1,2,0:0:0:0:
496,324,29742,1,0,0:0:0:0:
420,369,30062,2,0,L|226:354,1,180,2|2,0:0|0:0,0:0:0:0:
256,192,31025,12,0,32308,0:0:0:0:
69,145,32790,5,0,0:0:0:0:
69,145,32951,6,0,P|111:152|172:140,1,67.5000025749208,2|0,0:0|0:0,0:0:0:0:
210,182,33273,2,0,P|214:148|210:115,1,67.5000025749208,2|0,0:0|0:0,0:0:0:0:
290,23,33596,2,0,P|286:56|290:89,1,67.5000025749208,8|0,0:2|0:0,0:0:0:0:
355,155,33918,1,2,0:0:0:0:
442,156,34080,1,2,0:0:0:0:
505,94,34241,2,0,P|509:60|505:27,1,67.5000025749208,2|0,0:0|0:0,0:0:0:0:
439,167,34563,2,0,P|429:234|442:305,1,135.000005149842,2|8,0:0|0:2,0:0:0:0:
500,358,35047,1,2,0:0:0:0:
483,363,35531,6,0,P|401:343|293:372,1,135.000005149842,2|0,0:0|0:0,0:0:0:0:
270,375,36015,1,2,0:0:0:0:
346,319,36176,2,0,P|361:246|335:166,1,135.000005149842,8|0,0:2|0:0,0:0:0:0:
290,127,36660,1,2,0:0:0:0:
223,185,36821,2,0,P|217:218|220:284,1,67.5000025749208,2|0,0:0|0:0,0:0:0:0:
121,332,37144,2,0,P|120:298|114:265,1,67.5000025749208,2|0,0:0|0:0,0:0:0:0:
18,145,37467,1,8,0:2:0:0:
96,114,37628,2,0,L|289:113,1,135.000005149842,2|0,0:0|0:0,0:0:0:0:
418,37,38112,6,0,P|318:47|271:24,2,135.000005149842,2|2|8,0:0|0:0|0:2,0:0:0:0:
451,19,39080,1,2,0:0:0:0:
506,87,39241,1,2,0:0:0:0:
473,166,39402,2,0,L|382:163,1,67.5000025749208,2|0,0:0|0:0,0:0:0:0:
324,296,39725,2,0,L|320:229,1,67.5000025749208,2|0,0:0|0:0,0:0:0:0:
207,73,40047,2,0,P|189:159|211:216,1,135.000005149842,8|0,0:2|0:0,0:0:0:0:
77,297,40531,1,0,0:0:0:0:
77,297,40692,6,0,P|89:209|48:158,2,135.000005149842,2|2|10,0:0|0:0|0:2,0:0:0:0:
47,322,41660,1,2,0:0:0:0:
170,294,41821,1,2,0:0:0:0:
246,374,41983,2,0,L|335:373,1,67.5000025749208,2|0,0:0|0:0,0:0:0:0:
498,304,42305,2,0,P|419:341|383:268,1,135.000005149842,2|8,0:0|0:2,0:0:0:0:
440,61,43273,5,2,0:0:0:0:
440,61,43434,2,0,L|437:213,1,135.000005149842,2|0,0:0|0:0,0:0:0:0:
316,274,43918,2,0,P|260:235|174:276,1,135.000005149842,8|2,0:2|0:0,0:0:0:0:
78,138,44402,2,0,L|84:298,1,135.000005149842,2|2,0:0|0:0,0:0:0:0:
257,357,44886,2,0,L|433:360,1,135.000005149842,2|8,0:0|0:2,0:0:0:0:
485,315,45370,1,0,0:0:0:0:
485,315,45692,6,0,L|481:95,1,202.500007724762,2|0,0:0|0:0,0:0:0:0:
380,30,46338,2,0,P|364:98|268:114,2,135.000005149842,2|2|2,0:0|0:0|0:0,0:0:0:0:
281,28,47144,2,0,L|174:30,1,67.5000025749208,2|0,0:0|0:0,0:0:0:0:
95,129,47467,2,0,L|259:124,1,135.000005149842,2|8,0:0|0:2,0:0:0:0:
35,51,48112,1,2,0:0:0:0:
3,138,48273,1,2,0:0:0:0:
46,223,48434,6,0,L|145:227,1,67.5000025749208,2|0,0:0|0:0,0:0:0:0:
258,225,48757,2,0,P|184:281|205:334,1,135.000005149842,2|8,0:0|0:2,0:0:0:0:
295,323,49241,1,0,0:0:0:0:
355,211,49402,2,0,L|350:106,1,67.5000025749208,2|0,0:0|0:0,0:0:0:0:
473,67,49725,2,0,L|466:201,1,135.000005149842,2|0,0:0|0:0,0:0:0:0:
486,363,50209,1,0,0:0:0:0:
417,302,50370,2,0,P|340:284|263:308,1,135.000005149842,8|0,0:2|0:0,0:0:0:0:
113,290,50854,1,2,0:0:0:0:
153,369,51015,6,0,L|255:369,2,67.5000025749208,2|2|2,0:0|0:0|0:0,0:0:0:0:
24,219,51660,1,8,0:2:0:0:
100,171,51821,1,2,0:0:0:0:
178,222,51983,2,0,L|263:219,1,67.5000025749208,2|0,0:0|0:0,0:0:0:0:
339,60,52305,2,0,P|320:142|408:180,1,135.000005149842,2|0,0:0|0:0,0:0:0:0:
439,218,52789,1,2,0:0:0:0:
508,152,52951,2,0,L|510:6,1,135.000005149842,8|0,0:2|0:0,0:0:0:0:
421,113,53434,1,0,0:0:0:0:
437,219,53596,6,0,L|440:358,1,121.499996292114,2|0,0:3|0:0,0:0:0:0:
448,360,54845,6,0,P|347:325|250:372,1,215.999993408203,6|0,3:1|0:0,0:0:0:0:
37,286,55358,1,0,3:0:0:0:
144,242,55519,2,0,P|156:298|126:359,2,107.999996704102,8|0|2,0:2|0:0|0:2,0:0:0:0:
77,65,56003,1,0,3:0:0:0:
211,180,56164,2,0,P|254:188|320:171,1,107.999996704102,2|0,3:2|0:0,0:0:0:0:
406,6,56486,2,0,P|383:46|400:112,1,107.999996704102,2|0,3:2|0:0,0:0:0:0:
480,343,56809,1,10,0:2:0:0:
490,362,57132,5,2,0:2:0:0:
479,188,57293,1,0,0:0:0:0:
330,347,57454,2,0,P|233:380|117:326,1,215.999993408203,2|2,3:2|0:2,0:0:0:0:
82,90,57938,1,0,3:0:0:0:
14,196,58099,2,0,L|15:350,2,107.999996704102,10|0|2,0:2|0:0|0:2,0:0:0:0:
88,67,58583,1,0,3:0:0:0:
166,186,58744,2,0,P|222:201|282:180,1,107.999996704102,2|0,3:2|0:0,0:0:0:0:
454,100,59067,2,0,P|398:85|338:106,1,107.999996704102,2|0,3:2|0:0,0:0:0:0:
262,366,59390,1,10,0:2:0:0:
262,366,59712,1,2,0:2:0:0:
82,309,60035,6,0,P|65:218|142:121,1,215.999993408203,6|2,3:1|0:2,0:0:0:0:
257,18,60519,1,0,3:0:0:0:
330,157,60680,2,0,L|330:300,2,107.999996704102,8|0|2,0:2|0:0|0:2,0:0:0:0:
461,48,61164,1,0,3:0:0:0:
512,142,61325,2,0,P|461:163|403:133,1,107.999996704102,2|0,3:2|0:0,0:0:0:0:
257,18,61648,2,0,P|278:69|248:127,1,107.999996704102,2|0,3:2|0:0,0:0:0:0:
70,252,61970,1,10,0:2:0:0:
44,264,62293,1,2,0:2:0:0:
133,159,62454,1,0,0:0:0:0:
211,327,62615,6,0,P|296:353|338:237,1,215.999993408203,4|2,3:1|0:2,0:0:0:0:
505,312,63099,1,0,3:0:0:0:
443,230,63261,2,0,P|442:171|478:129,2,107.999996704102,10|0|2,0:2|0:0|0:2,0:0:0:0:
386,372,63744,1,0,3:0:0:0:
346,246,63906,2,0,P|282:222|223:243,1,107.999996704102,2|0,3:2|0:0,0:0:0:0:
95,384,64228,2,0,P|128:341|104:265,1,107.999996704102,2|0,3:2|0:0,0:0:0:0:
76,152,64551,5,10,0:2:0:0:
175,113,64712,1,0,0:0:0:0:
163,225,64873,1,2,0:2:0:0:
59,151,65035,1,8,0:2:0:0:
92,36,65196,6,0,P|195:20|323:45,1,215.999993408203,6|2,3:1|0:2,0:0:0:0:
465,32,65680,1,0,3:0:0:0:
465,32,65841,2,0,P|420:94|474:221,1,215.999993408203,8|2,0:2|0:2,0:0:0:0:
445,371,66325,1,0,3:0:0:0:
360,311,66486,2,0,P|277:299|210:321,1,107.999996704102,2|0,3:2|0:0,0:0:0:0:
191,114,66809,2,0,P|154:150|139:221,1,107.999996704102,2|0,3:2|0:0,0:0:0:0:
25,366,67132,2,0,P|52:284|19:134,1,215.999993408203,10|2,0:2|0:2,0:0:0:0:
11,144,67777,6,0,P|93:167|212:101,1,215.999993408203,2|2,3:2|0:2,0:0:0:0:
339,80,68261,1,0,3:0:0:0:
488,226,68422,2,0,P|406:249|287:183,1,215.999993408203,10|2,0:2|0:2,0:0:0:0:
85,258,68906,1,0,3:0:0:0:
171,360,69067,6,0,P|224:369|301:342,2,107.999996704102,2|0|2,3:2|0:0|3:2,0:0:0:0:
39,43,69712,1,10,0:2:0:0:
39,43,70035,1,2,0:2:0:0:
88,350,70357,6,0,B|148:179|26:198|97:36,1,323.999990112305,6|0,1:0|0:0,0:0:0:0:
493,185,71003,2,0,B|462:176|447:156|447:156|410:188|410:188|367:163|367:163|330:187|330:187|302:158|302:158|256:183|256:183|231:151|231:151|198:188|198:188|189:155|162:124,1,431.999986816407,6|0,1:0|0:0,0:0:0:0:
