osu file format v14

[General]
AudioFilename: audio.mp3
AudioLeadIn: 0
PreviewTime: 32258
Countdown: 0
SampleSet: Soft
StackLeniency: 0.7
Mode: 0
LetterboxInBreaks: 0
WidescreenStoryboard: 1

[Editor]
Bookmarks: 12055
DistanceSpacing: 0.5
BeatDivisor: 4
GridSize: 16
TimelineZoom: 2.5

[Metadata]
Title:BRING ME TO LIFE VOCAL COVER 2016 (OFFICIAL)
TitleUnicode:BRING ME TO LIFE VOCAL COVER 2016 (OFFICIAL)
Artist:Jon Sudano
ArtistUnicode:Jon Sudano
Creator:Seto Kousuke
Version:Bring Trynna to Life (OFFICIAL)
Source:
Tags:save me evanescence smash mouth all star shrek english rock trynna mismagius enerugi
BeatmapID:2253532
BeatmapSetID:1076923

[Difficulty]
HPDrainRate:4
CircleSize:4
OverallDifficulty:7
ApproachRate:8.5
SliderMultiplier:1.8
SliderTickRate:1

[Events]
//Background and Video events
0,0,"god himself.jpg",0,0
//Break Periods
//Storyboard Layer 0 (Background)
//Storyboard Layer 1 (Fail)
//Storyboard Layer 2 (Pass)
//Storyboard Layer 3 (Foreground)
//Storyboard Layer 4 (Overlay)
//Storyboard Sound Samples

[TimingPoints]
11726,645.161290322581,4,2,2,40,1,0
12375,641.711229946524,4,2,2,40,1,0
22660,641.711229946524,4,2,2,40,1,0
27817,641.711229946524,4,2,2,40,1,0
32951,645.161290322581,4,2,2,50,1,0
32951,-66.6666666666667,4,2,2,50,0,0
53596,-222.222222222221,4,2,2,50,0,0
54845,322.58064516129,4,2,1,65,1,1
54845,-83.3333333333333,4,2,1,65,0,1
55358,322.58064516129,4,2,1,65,1,1
55458,-83.3333333333333,4,2,1,65,0,1
57454,322.58064516129,4,2,1,65,1,1
57454,-83.3333333333333,4,2,1,65,0,1
59792,-83.3333333333333,4,2,1,5,0,1
59873,-83.3333333333333,4,2,1,65,0,1
59954,-83.3333333333333,4,2,1,5,0,1
60034,-83.3333333333333,4,2,1,65,0,1
71647,-83.3333333333333,4,2,1,5,0,0

[Colours]
Combo1 : 135,217,243
Combo2 : 248,112,112
Combo3 : 251,215,140
Combo4 : 139,243,141

[HitObjects]
48,103,11725,6,0,B|119:108|96:66|175:68,1,135,2|2,0:0|0:0,0:0:0:0:
189,85,12375,2,0,P|175:172|172:208,1,90,4|0,0:1|0:0,0:0:0:0:
116,303,13016,2,0,B|147:296|173:270|173:270|197:297|229:306,1,135,2|0,0:0|0:0,0:0:0:0:
252,318,13658,1,2,0:0:0:0:
391,265,13979,1,0,0:0:0:0:
348,360,14300,1,0,0:0:0:0:
291,227,14620,6,0,L|278:76,1,135,2|0,0:0|0:0,0:0:0:0:
298,71,15262,1,0,0:0:0:0:
313,245,15583,1,2,0:0:0:0:
155,169,15904,1,0,0:0:0:0:
248,162,16225,1,2,0:0:0:0:
62,176,16546,2,0,P|66:127|143:78,1,135,0|0,0:0|0:0,0:0:0:0:
156,78,17187,5,0,0:0:0:0:
248,162,17508,1,2,0:0:0:0:
337,79,17829,1,0,0:0:0:0:
245,135,18150,5,2,0:0:0:0:
430,164,18471,1,0,0:0:0:0:
328,56,18792,1,2,0:0:0:0:
351,236,19112,1,0,0:0:0:0:
443,297,19433,5,0,0:0:0:0:
283,313,19754,2,0,B|179:301|218:373|115:356,1,180,2|0,0:0|0:0,0:0:0:0:
117,212,20717,1,2,0:0:0:0:
127,232,20877,1,2,0:0:0:0:
133,253,21038,1,2,0:0:0:0:
27,268,21358,1,2,0:0:0:0:
201,129,21679,2,0,L|144:119,1,45,2|2,0:0|0:0,0:0:0:0:
137,94,22000,1,2,0:0:0:0:
229,235,22321,1,2,0:0:0:0:
46,124,22660,6,0,L|53:34,1,90,4|0,3:1|0:0,0:0:0:0:
156,121,23301,2,0,L|163:31,1,90,2|0,0:0|0:0,0:0:0:0:
252,158,23943,1,2,0:0:0:0:
345,95,24264,2,0,P|302:102|283:142,1,90,0|0,0:0|0:0,0:0:0:0:
342,231,24905,6,0,B|442:214|411:297|508:270,1,180,2|0,0:0|0:0,0:0:0:0:
358,318,25868,1,2,0:0:0:0:
488,189,26189,1,0,0:0:0:0:
336,338,26510,2,0,L|232:317,1,90,2|0,0:0|0:0,0:0:0:0:
106,286,27151,1,2,0:0:0:0:
191,234,27472,1,0,0:0:0:0:
42,340,27817,6,0,P|22:300|29:256,1,90,4|2,3:1|0:0,0:0:0:0:
100,187,28458,1,0,0:0:0:0:
70,36,28779,2,0,L|83:170,1,135,2|0,0:0|0:0,0:0:0:0:
100,187,29421,1,2,0:0:0:0:
258,134,29742,1,0,0:0:0:0:
163,49,30062,6,0,L|171:145,1,90,2|0,0:0|0:0,0:0:0:0:
334,189,30704,2,0,L|326:285,1,90,2|0,0:0|0:0,0:0:0:0:
254,342,31346,1,0,0:0:0:0:
254,342,31667,1,0,0:0:0:0:
429,277,32308,2,0,P|475:286|463:329,1,90,0|0,0:0|0:0,0:0:0:0:
401,265,32790,1,0,0:0:0:0:
401,265,32951,6,0,L|389:167,1,67.5000025749208,2|0,0:0|0:0,0:0:0:0:
446,137,33273,2,0,L|434:39,1,67.5000025749208,2|0,0:0|0:0,0:0:0:0:
365,18,33596,1,8,0:2:0:0:
322,38,33757,1,0,0:0:0:0:
306,82,33918,1,2,0:0:0:0:
276,118,34080,1,2,0:0:0:0:
229,124,34241,2,0,P|201:105|189:74,1,67.5000025749208,2|0,0:0|0:0,0:0:0:0:
100,73,34563,2,0,P|102:39|123:14,1,67.5000025749208,2|0,0:0|0:0,0:0:0:0:
132,166,34886,1,8,0:2:0:0:
132,166,35047,2,0,L|119:311,1,135.000005149842,2|0,0:0|0:0,0:0:0:0:
203,318,35531,6,0,P|132:332|107:392,1,135.000005149842,2|0,0:0|0:0,0:0:0:0:
269,380,36015,1,2,0:0:0:0:
269,380,36176,2,0,L|361:369,1,67.5000025749208,8|0,0:2|0:0,0:0:0:0:
332,259,36499,2,0,L|240:248,1,67.5000025749208,0|2,0:0|0:0,0:0:0:0:
409,314,36821,1,2,0:0:0:0:
428,270,36983,1,0,0:0:0:0:
414,224,37144,1,2,0:0:0:0:
497,84,37467,1,8,0:2:0:0:
496,83,37628,2,0,P|520:146|510:212,1,135.000005149842,2|0,0:0|0:0,0:0:0:0:
383,121,38112,6,0,L|302:104,1,67.5000025749208,2|0,0:0|0:0,0:0:0:0:
219,63,38434,2,0,L|152:76,1,67.5000025749208,2|0,0:0|0:0,0:0:0:0:
328,40,38757,2,0,L|299:199,1,135.000005149842,8|2,0:2|0:0,0:0:0:0:
236,228,39241,1,2,0:0:0:0:
236,228,39402,2,0,P|204:218|173:231,1,67.5000025749208,2|0,0:0|0:0,0:0:0:0:
206,305,39725,2,0,P|236:317|268:308,1,67.5000025749208,2|0,0:0|0:0,0:0:0:0:
119,166,40047,2,0,P|86:222|108:284,1,135.000005149842,8|0,0:2|0:0,0:0:0:0:
142,151,40531,5,0,0:0:0:0:
142,151,40692,2,0,L|135:68,1,67.5000025749208,2|0,0:0|0:0,0:0:0:0:
49,108,41015,2,0,L|42:25,1,67.5000025749208,2|0,0:0|0:0,0:0:0:0:
162,62,41338,2,0,B|239:71|215:28|291:38,1,135.000005149842,10|2,0:2|0:0,0:0:0:0:
356,105,41821,1,2,0:0:0:0:
356,105,41983,1,2,0:0:0:0:
402,112,42144,1,0,0:0:0:0:
445,94,42305,1,2,0:0:0:0:
292,167,42628,2,0,L|268:313,1,135.000005149842,8|0,0:2|0:0,0:0:0:0:
477,357,43273,5,2,0:0:0:0:
497,279,43434,2,0,P|463:278|431:289,1,67.5000025749208,2|0,0:0|0:0,0:0:0:0:
389,363,43757,1,0,0:0:0:0:
389,363,43918,2,0,B|398:286|360:308|366:232,1,135.000005149842,8|2,0:2|0:0,0:0:0:0:
433,183,44402,2,0,L|447:99,1,67.5000025749208,2|0,0:0|0:0,0:0:0:0:
391,43,44725,1,2,0:0:0:0:
391,43,44886,2,0,P|302:58|296:104,1,135.000005149842,2|8,0:0|0:2,0:0:0:0:
237,149,45370,2,0,L|158:156,1,67.5000025749208,0|0,0:0|0:0,0:0:0:0:
86,134,45692,5,2,0:0:0:0:
86,134,45854,2,0,L|94:200,1,67.5000025749208,0|0,0:0|0:0,0:0:0:0:
179,240,46176,1,0,0:0:0:0:
132,315,46338,2,0,P|195:276|262:306,1,135.000005149842,2|2,0:0|0:0,0:0:0:0:
327,337,46821,2,0,L|421:326,1,67.5000025749208,0|2,0:0|0:0,0:0:0:0:
491,347,47144,2,0,B|492:268|454:291|456:219,1,135.000005149842,2|2,0:0|0:0,0:0:0:0:
494,139,47789,1,8,0:2:0:0:
297,58,48273,5,2,0:0:0:0:
380,34,48434,2,0,L|372:125,1,67.5000025749208,2|0,0:0|0:0,0:0:0:0:
284,147,48757,2,0,P|223:113|202:47,1,135.000005149842,2|8,0:0|0:2,0:0:0:0:
181,38,49241,1,0,0:0:0:0:
181,38,49402,1,2,0:0:0:0:
32,173,49725,2,0,P|67:145|97:138,1,67.5000025749208,2|0,0:0|0:0,0:0:0:0:
176,152,50047,1,0,0:0:0:0:
143,297,50370,1,8,0:2:0:0:
416,377,50854,5,2,0:0:0:0:
349,320,51015,2,0,L|342:249,1,67.5000025749208,2|2,0:0|0:0,0:0:0:0:
464,308,51338,2,0,L|450:156,1,135.000005149842,2|8,0:0|0:2,0:0:0:0:
434,152,51821,1,2,0:0:0:0:
434,152,51983,1,2,0:0:0:0:
259,49,52305,2,0,L|326:54,1,67.5000025749208,2|0,0:0|0:0,0:0:0:0:
402,20,52628,1,0,0:0:0:0:
300,147,52951,1,8,0:2:0:0:
256,192,53596,12,6,54845,3:1:0:0:
459,70,55167,6,0,B|400:70|416:106|355:100,1,107.999996704102
461,160,55519,2,0,B|483:217|483:217|461:315,1,161.999995056153,8|0,0:2|0:0,0:0:0:0:
473,343,55841,1,2,0:2:0:0:
281,281,56003,1,0,3:0:0:0:
387,233,56164,6,0,L|357:337,1,107.999996704102,2|0,3:2|0:0,0:0:0:0:
210,331,56486,2,0,P|189:256|242:200,1,161.999995056153,2|0,3:2|0:0,0:0:0:0:
263,183,56809,2,0,B|265:124|265:124|250:83|250:83|250:21,1,161.999995056153,10|0,0:2|0:0,0:0:0:0:
271,10,57132,1,2,0:2:0:0:
158,102,57293,1,0,0:0:0:0:
344,74,57454,6,0,L|472:97,1,107.999996704102,2|0,3:2|0:0,0:0:0:0:
172,125,57777,2,0,L|44:148,1,107.999996704102,2|0,0:2|3:0,0:0:0:0:
273,211,58099,1,10,0:2:0:0:
469,362,58422,6,0,L|479:254,1,107.999996704102,2|0,0:2|3:0,0:0:0:0:
371,202,58745,2,0,P|300:231|292:308,1,161.999995056153,2|0,3:2|0:0,0:0:0:0:
275,331,59067,2,0,B|194:352|222:274|128:290,1,161.999995056153,2|0,3:2|0:0,0:0:0:0:
57,326,59390,1,10,0:2:0:0:
180,183,59712,2,0,L|193:108,1,53.9999983520508,2|0,0:2|0:0,0:0:0:0:
157,162,59873,2,0,L|170:87,1,53.9999983520508,0|0,0:0|0:0,0:0:0:0:
267,173,60035,5,6,3:1:0:0:
70,108,60357,2,0,P|83:56|126:25,1,107.999996704102,2|0,0:2|3:0,0:0:0:0:
245,66,60680,2,0,L|425:52,1,161.999995056153,8|0,0:2|0:0,0:0:0:0:
433,74,61003,5,2,0:2:0:0:
348,169,61164,1,0,3:0:0:0:
464,303,61325,2,0,L|471:183,1,107.999996704102,2|0,3:2|0:0,0:0:0:0:
357,294,61648,2,0,L|364:174,1,107.999996704102,2|0,3:2|0:0,0:0:0:0:
486,326,61970,1,10,0:2:0:0:
254,242,62293,5,2,0:2:0:0:
202,256,62454,1,0,0:0:0:0:
174,302,62615,2,0,P|90:298|89:223,1,161.999995056153,4|0,3:1|0:0,0:0:0:0:
105,213,62938,2,0,L|78:53,1,161.999995056153,2|0,0:2|0:0,0:0:0:0:
139,1,63261,1,10,0:2:0:0:
258,79,63583,2,0,L|429:54,1,161.999995056153,2|0,0:2|0:0,0:0:0:0:
442,68,63906,1,2,3:2:0:0:
398,298,64228,6,0,P|340:247|367:176,1,161.999995056153,2|0,3:2|0:0,0:0:0:0:
383,156,64551,1,10,0:2:0:0:
466,191,64712,1,0,0:0:0:0:
481,282,64873,1,2,0:2:0:0:
405,322,65035,1,8,0:2:0:0:
339,376,65196,6,0,P|252:334|148:331,1,161.999995056153,6|0,3:1|0:0,0:0:0:0:
172,349,65519,2,0,L|154:218,1,107.999996704102,2|0,0:2|3:0,0:0:0:0:
79,365,65841,2,0,L|56:139,1,215.999993408203,8|2,0:2|0:2,0:0:0:0:
143,93,66325,1,0,3:0:0:0:
234,149,66486,6,0,P|282:126|293:71,1,107.999996704102,2|0,3:2|0:0,0:0:0:0:
400,16,66809,2,0,P|395:69|438:106,1,107.999996704102,2|0,3:2|0:0,0:0:0:0:
432,226,67132,2,0,P|388:195|334:213,1,107.999996704102,10|0,0:2|0:0,0:0:0:0:
296,304,67454,2,0,L|463:332,1,161.999995056153,2|0,0:2|0:0,0:0:0:0:
474,355,67777,1,2,3:2:0:0:
269,322,68099,5,2,0:2:0:0:
180,363,68261,1,0,3:0:0:0:
187,266,68422,2,0,L|170:131,1,107.999996704102,10|0,0:2|0:0,0:0:0:0:
263,79,68744,2,0,L|277:187,1,107.999996704102,2|0,0:2|3:0,0:0:0:0:
72,170,69067,6,0,P|93:94|184:66,1,161.999995056153,2|0,3:2|0:0,0:0:0:0:
188,43,69390,2,0,P|102:30|53:14,1,107.999996704102,2|0,3:2|0:0,0:0:0:0:
23,121,69712,2,0,L|33:228,1,107.999996704102,10|0,0:2|0:0,0:0:0:0:
53,363,70035,1,2,0:2:0:0:
119,286,70196,1,0,0:0:0:0:
218,351,70357,6,0,P|362:303|362:151,1,323.999990112305,6|0,1:0|0:0,0:0:0:0:
436,60,71003,2,0,B|321:4|243:102|243:102|155:205|52:142,1,431.999986816407,6|0,1:0|0:0,0:0:0:0:
