osu file format v14

[General]
AudioFilename: BelowTheAsteroids_cut128.mp3
AudioLeadIn: 3000
PreviewTime: 52417
Countdown: 0
SampleSet: Soft
StackLeniency: 0.7
Mode: 0
LetterboxInBreaks: 1
WidescreenStoryboard: 1

[Editor]
Bookmarks: 20,26732,35978,45841,98239,100088,105225,118356
DistanceSpacing: 0.87
BeatDivisor: 2
GridSize: 4
TimelineZoom: 1.7

[Metadata]
Title:Below the Asteroids
TitleUnicode:Below the Asteroids
Artist:Jon Hallur
ArtistUnicode:Jón Hallur
Creator:a1mighty
Version:Hard
Source:EVE Online
Tags:
BeatmapID:722625
BeatmapSetID:296692

[Difficulty]
HPDrainRate:6
CircleSize:4.5
OverallDifficulty:7
ApproachRate:8
SliderMultiplier:1.50000000596047
SliderTickRate:2

[Events]
//Background and Video events
0,0,"e1cd94f19db0f0b0ab6e2b43d293b2712b50fecf.jpg",0,0
//Break Periods
//Storyboard Layer 0 (Background)
//Storyboard Layer 1 (Fail)
//Storyboard Layer 2 (Pass)
//Storyboard Layer 3 (Foreground)
//Storyboard Sound Samples

[TimingPoints]
20,410.958904109589,4,2,0,25,1,0
52417,-66.6666666666667,4,2,0,25,0,1
78924,-66.6666666666667,4,2,0,25,0,0

[HitObjects]
128,72,20,6,0,P|80:108|64:200,1,150.000000596047
80,256,636,1,0,0:0:0:0:
132,296,841,1,0,0:0:0:0:
252,348,1252,2,0,P|296:356|376:316,1,75.0000002980235
384,320,1663,1,0,0:0:0:0:
480,232,2074,5,0,0:0:0:0:
492,168,2280,1,0,0:0:0:0:
472,40,2691,5,0,0:0:0:0:
408,36,2896,1,0,0:0:0:0:
472,40,3102,1,0,0:0:0:0:
436,96,3307,1,0,0:0:0:0:
324,160,3718,6,0,P|256:180|192:144,1,75.0000002980235
192,152,4129,1,0,0:0:0:0:
264,44,4540,2,0,P|200:32|132:56,1,75.0000002980235
128,52,4951,1,0,0:0:0:0:
48,156,5362,5,0,0:0:0:0:
80,212,5567,1,0,0:0:0:0:
176,300,5978,1,0,0:0:0:0:
236,324,6184,2,0,P|281:321|316:299,1,75.0000002980235
364,276,6595,5,0,0:0:0:0:
424,160,7006,1,0,0:0:0:0:
408,96,7211,1,0,0:0:0:0:
360,52,7417,1,0,0:0:0:0:
424,160,7828,5,0,0:0:0:0:
408,224,8033,1,0,0:0:0:0:
368,276,8239,1,0,0:0:0:0:
248,332,8650,5,0,0:0:0:0:
184,328,8855,1,0,0:0:0:0:
80,252,9266,1,0,0:0:0:0:
48,196,9472,1,0,0:0:0:0:
52,132,9677,1,0,0:0:0:0:
76,72,9883,1,0,0:0:0:0:
204,44,10293,6,0,P|248:32|288:32,1,75.0000002980235
340,52,10704,1,0,0:0:0:0:
224,112,11115,1,0,0:0:0:0:
284,136,11321,2,0,P|332:140|372:120,1,75.0000002980235
256,216,11937,2,0,L|256:348,1,75.0000002980235
68,152,13170,5,0,0:0:0:0:
160,60,13581,2,0,P|200:48|260:52,1,75.0000002980235
300,52,13992,1,0,0:0:0:0:
412,120,14403,2,0,B|456:196|436:240,1,75.0000002980235
436,256,14814,1,0,0:0:0:0:
336,340,15225,5,0,0:0:0:0:
272,340,15430,2,0,L|272:184,1,150.000000596047
216,172,16047,1,0,0:0:0:0:
216,108,16252,1,0,0:0:0:0:
268,68,16458,1,0,0:0:0:0:
400,84,16869,5,0,0:0:0:0:
376,144,17074,1,0,0:0:0:0:
328,188,17280,1,0,0:0:0:0:
308,316,17691,1,0,0:0:0:0:
248,292,17896,1,0,0:0:0:0:
200,248,18102,1,0,0:0:0:0:
128,140,18513,2,0,P|112:104|160:28,1,75.0000002980235
236,40,19129,5,0,0:0:0:0:
300,40,19335,1,0,0:0:0:0:
236,40,19540,1,0,0:0:0:0:
172,40,19746,1,0,0:0:0:0:
236,152,20156,2,0,L|236:264,1,75.0000002980235
236,292,20567,1,0,0:0:0:0:
388,304,20978,6,0,P|437:257|422:194,1,75.0000002980235
468,196,21389,1,0,0:0:0:0:
424,72,21800,2,0,L|324:72,1,75.0000002980235
220,44,22417,1,0,0:0:0:0:
164,80,22622,1,0,0:0:0:0:
188,140,22828,1,0,0:0:0:0:
244,108,23033,1,0,0:0:0:0:
280,232,23444,5,0,0:0:0:0:
344,228,23650,1,0,0:0:0:0:
400,260,23855,1,0,0:0:0:0:
300,340,24266,2,0,P|276:337|214:309,1,75.0000002980235
168,292,24677,2,0,P|128:272|88:232,1,75.0000002980235
60,204,25088,1,0,0:0:0:0:
44,140,25293,1,0,0:0:0:0:
468,316,26321,5,0,0:0:0:0:
468,316,26732,1,0,0:0:0:0:
472,184,27143,1,0,0:0:0:0:
444,124,27348,1,0,0:0:0:0:
340,48,27759,2,0,P|248:32|152:72,1,150.000000596047
80,104,28581,2,0,L|92:208,1,75.0000002980235
116,240,28992,1,0,0:0:0:0:
160,288,29198,2,0,P|200:304|268:288,1,75.0000002980235
296,308,29609,6,0,P|384:272|428:192,1,150.000000596047
460,108,30430,2,0,P|416:68|344:56,1,75.0000002980235
272,40,31047,1,0,0:0:0:0:
144,52,31458,2,0,P|92:124|72:220,1,150.000000596047
88,248,32074,1,0,0:0:0:0:
140,288,32280,1,0,0:0:0:0:
196,324,32485,2,0,P|240:344|328:336,1,75.0000002980235
332,352,32896,1,0,0:0:0:0:
420,256,33307,5,0,0:0:0:0:
436,128,33718,2,0,P|408:96|352:56,1,75.0000002980235
260,32,34335,1,0,0:0:0:0:
136,76,34746,2,0,P|60:100|48:188,1,150.000000596047
76,216,35362,1,0,0:0:0:0:
108,272,35567,1,0,0:0:0:0:
148,324,35773,1,0,0:0:0:0:
208,344,35978,1,0,0:0:0:0:
404,336,36595,5,0,0:0:0:0:
464,312,36800,1,0,0:0:0:0:
472,248,37006,1,0,0:0:0:0:
460,116,37417,5,0,0:0:0:0:
412,72,37622,1,0,0:0:0:0:
352,44,37828,2,0,P|304:44|224:88,1,75.0000002980235
204,84,38239,1,0,0:0:0:0:
204,84,38444,1,0,0:0:0:0:
472,268,39472,6,0,P|440:312|308:296,1,150.000000596047
284,316,40088,1,0,0:0:0:0:
220,304,40293,1,0,0:0:0:0:
350,325,40704,5,0,0:0:0:0:
284,316,40910,1,0,0:0:0:0:
220,304,41115,2,0,P|128:272|56:192,1,150.000000596047
60,180,41732,1,0,0:0:0:0:
128,68,42143,5,0,0:0:0:0:
188,40,42348,1,0,0:0:0:0:
252,36,42554,1,0,0:0:0:0:
316,44,42759,2,0,P|396:76|456:136,1,150.000000596047
476,176,43376,1,0,0:0:0:0:
472,240,43581,2,0,P|376:328|304:332,1,150.000000596047
296,344,44198,1,0,0:0:0:0:
232,336,44403,1,0,0:0:0:0:
108,292,44814,5,0,0:0:0:0:
68,240,45019,1,0,0:0:0:0:
48,112,45430,1,0,0:0:0:0:
96,68,45636,2,0,P|136:44|172:40,1,75.0000002980235
228,40,46047,6,0,L|408:40,1,150.000000596047
464,140,46869,2,0,L|464:312,1,150.000000596047
340,328,47691,2,0,B|156:328,1,150.000000596047
132,212,48513,2,0,B|132:48,1,150.000000596047
256,56,49335,5,0,0:0:0:0:
256,316,50156,1,0,0:0:0:0:
58,192,50978,5,0,0:0:0:0:
190,192,51389,1,0,0:0:0:0:
322,192,51800,1,0,0:0:0:0:
454,192,52211,1,0,0:0:0:0:
461,63,52622,6,0,P|392:48|220:64,1,225.00000947714
144,88,53239,1,0,0:0:0:0:
68,148,53444,1,0,0:0:0:0:
68,248,53650,1,0,0:0:0:0:
136,316,53855,2,0,P|228:340|352:316,1,112.50000473857
412,236,54472,5,0,0:0:0:0:
436,140,54677,1,0,0:0:0:0:
412,40,54883,1,0,0:0:0:0:
216,44,55293,5,0,0:0:0:0:
128,84,55499,2,0,P|68:188|156:260,1,225.00000947714
324,276,56321,5,0,0:0:0:0:
412,236,56526,1,0,0:0:0:0:
324,192,56732,1,0,0:0:0:0:
412,152,56937,1,0,0:0:0:0:
324,108,57143,2,0,L|420:48,1,112.50000473857
220,32,57759,5,0,0:0:0:0:
128,68,57965,2,0,P|80:108|68:188,1,112.50000473857
120,344,58581,1,0,0:0:0:0:
216,352,58787,1,0,0:0:0:0:
404,300,59198,6,0,P|460:248|480:84,1,225.00000947714
400,60,59814,1,0,0:0:0:0:
360,148,60019,1,0,0:0:0:0:
314,61,60225,1,0,0:0:0:0:
360,148,60430,1,0,0:0:0:0:
260,148,60636,1,0,0:0:0:0:
104,32,61047,6,0,P|65:89|78:184,1,112.50000473857
76,228,61458,1,0,0:0:0:0:
232,344,61869,1,0,0:0:0:0:
328,344,62074,1,0,0:0:0:0:
412,292,62280,1,0,0:0:0:0:
460,208,62485,6,0,B|484:120|388:20|280:32,1,225.00000947714
248,40,63102,1,0,0:0:0:0:
152,52,63307,1,0,0:0:0:0:
72,112,63513,1,0,0:0:0:0:
52,208,63718,1,0,0:0:0:0:
80,304,63924,1,0,0:0:0:0:
276,324,64335,5,0,0:0:0:0:
372,308,64540,2,0,P|408:300|472:220,1,112.50000473857
468,56,65156,1,0,0:0:0:0:
368,56,65362,1,0,0:0:0:0:
216,180,65773,6,0,P|208:80|80:80,1,225.00000947714
48,144,66389,1,0,0:0:0:0:
72,240,66595,2,0,P|112:280|196:280,1,112.50000473857
264,284,67006,2,0,P|320:260|340:176,1,112.50000473857
184,96,67622,5,0,0:0:0:0:
255,29,67828,1,0,0:0:0:0:
328,96,68033,1,0,0:0:0:0:
256,276,68444,1,0,0:0:0:0:
256,176,68650,1,0,0:0:0:0:
448,216,69061,5,0,0:0:0:0:
292,336,69472,1,0,0:0:0:0:
196,316,69677,1,0,0:0:0:0:
264,244,69883,1,0,0:0:0:0:
292,336,70088,1,0,0:0:0:0:
196,316,70293,1,0,0:0:0:0:
112,264,70499,1,0,0:0:0:0:
44,80,70910,5,0,0:0:0:0:
132,40,71115,2,0,B|172:24|280:36,1,112.50000473857
432,88,71732,1,0,0:0:0:0:
480,176,71937,1,0,0:0:0:0:
352,324,72348,6,0,B|176:340|88:220,1,225.00000947714
68,200,72965,1,0,0:0:0:0:
156,156,73170,2,0,L|304:156,1,112.50000473857
264,56,73581,2,0,L|100:56,1,112.50000473857
256,224,74198,5,0,0:0:0:0:
256,320,74403,1,0,0:0:0:0:
256,224,74609,1,0,0:0:0:0:
256,28,75020,1,0,0:0:0:0:
256,124,75225,1,0,0:0:0:0:
340,72,75430,5,0,0:0:0:0:
440,72,75636,1,0,0:0:0:0:
460,268,76047,1,0,0:0:0:0:
376,316,76252,1,0,0:0:0:0:
280,324,76458,1,0,0:0:0:0:
184,316,76663,1,0,0:0:0:0:
96,272,76869,1,0,0:0:0:0:
52,184,77074,1,0,0:0:0:0:
192,44,77485,5,0,0:0:0:0:
96,60,77691,2,0,P|132:124|204:148,1,112.50000473857
336,44,78307,1,0,0:0:0:0:
436,44,78513,1,0,0:0:0:0:
468,236,78924,6,0,P|436:276|248:316,1,225.00000947714
184,288,79540,1,0,0:0:0:0:
236,204,79746,1,0,0:0:0:0:
328,240,79951,1,0,0:0:0:0:
275,323,80156,1,0,0:0:0:0:
184,288,80362,1,0,0:0:0:0:
56,140,80773,5,0,0:0:0:0:
124,68,80978,1,0,0:0:0:0:
216,32,81184,1,0,0:0:0:0:
412,48,81595,2,0,P|476:120|479:208,1,112.50000473857
436,324,82211,5,0,0:0:0:0:
356,168,82622,2,0,P|348:128|240:108,1,112.50000473857
292,168,83033,2,0,P|284:208|184:228,1,112.50000473857
228,168,83444,2,0,P|220:128|104:108,1,112.50000473857
48,212,84061,5,0,0:0:0:0:
100,292,84266,1,0,0:0:0:0:
192,328,84472,1,0,0:0:0:0:
388,328,84883,1,0,0:0:0:0:
468,268,85088,1,0,0:0:0:0:
428,76,85499,6,0,B|360:12|292:8|172:60,1,225.00000947714
132,84,86115,1,0,0:0:0:0:
76,164,86321,2,0,P|100:232|144:268,2,112.50000473857
176,164,86937,1,0,0:0:0:0:
300,316,87348,5,0,0:0:0:0:
376,256,87554,1,0,0:0:0:0:
444,184,87759,1,0,0:0:0:0:
300,316,88170,1,0,0:0:0:0:
376,256,88376,1,0,0:0:0:0:
444,184,88581,1,0,0:0:0:0:
408,92,88787,6,0,P|392:75|164:80,1,225.00000947714
272,120,89403,1,0,0:0:0:0:
360,164,89609,2,0,P|268:224|220:212,1,112.50000473857
352,276,90020,2,0,P|260:336|212:324,1,112.50000473857
84,272,90636,5,0,0:0:0:0:
76,176,90841,1,0,0:0:0:0:
132,96,91047,1,0,0:0:0:0:
320,36,91458,1,0,0:0:0:0:
408,76,91663,1,0,0:0:0:0:
432,272,92074,5,0,0:0:0:0:
292,136,92485,1,0,0:0:0:0:
192,160,92691,1,0,0:0:0:0:
228,252,92896,1,0,0:0:0:0:
324,224,93102,1,0,0:0:0:0:
292,136,93307,1,0,0:0:0:0:
192,160,93513,1,0,0:0:0:0:
348,40,93924,6,0,P|408:68|440:132,1,112.50000473857
460,200,94335,1,0,0:0:0:0:
328,344,94746,1,0,0:0:0:0:
232,336,94951,1,0,0:0:0:0:
100,192,95362,5,0,0:0:0:0:
284,128,95773,2,0,L|400:92,1,112.50000473857
284,192,96184,2,0,L|432:192,1,112.50000473857
284,252,96595,2,0,L|424:288,1,112.50000473857
476,104,97211,5,0,0:0:0:0:
480,200,97417,2,0,P|468:288|416:320,1,112.50000473857
260,332,98033,1,0,0:0:0:0:
160,332,98239,1,0,0:0:0:0:
64,164,98650,6,0,B|104:60|232:132|268:36,1,225.00000947714
344,24,99266,1,0,0:0:0:0:
412,92,99472,2,0,B|432:172|348:112|364:272,1,112.50000473857
464,188,99883,2,0,B|484:268|400:208|416:368,1,112.50000473857
236,332,100499,5,0,0:0:0:0:
140,308,100704,1,0,0:0:0:0:
68,240,100910,1,0,0:0:0:0:
124,52,101321,1,0,0:0:0:0:
220,32,101526,1,0,0:0:0:0:
312,68,101732,1,0,0:0:0:0:
404,100,101937,6,0,B|440:188|424:264|376:296|304:296,1,225.00000947714
256,324,102554,1,0,0:0:0:0:
160,336,102759,1,0,0:0:0:0:
68,304,102965,1,0,0:0:0:0:
44,208,103170,1,0,0:0:0:0:
72,112,103376,1,0,0:0:0:0:
248,28,103787,5,0,0:0:0:0:
340,56,103992,2,0,P|399:106|417:175,1,112.50000473857
384,332,104609,1,0,0:0:0:0:
288,332,104814,1,0,0:0:0:0:
256,192,105225,12,0,108102,0:0:0:0:
