osu file format v14

[General]
AudioFilename: audio.mp3
AudioLeadIn: 0
PreviewTime: -1
Countdown: 0
SampleSet: Soft
StackLeniency: 0.7
Mode: 3
LetterboxInBreaks: 0
SpecialStyle: 0
WidescreenStoryboard: 1

[Editor]
DistanceSpacing: 1
BeatDivisor: 8
GridSize: 4
TimelineZoom: 1

[Metadata]
Title:All Time Low
TitleUnicode:All Time Low
Artist:Jon Bellion
ArtistUnicode:Jon Bellion
Creator:LandDolphin
Version:Insane
Source:
Tags:English Pop
BeatmapID:1148482
BeatmapSetID:541319

[Difficulty]
HPDrainRate:9
CircleSize:7
OverallDifficulty:5
ApproachRate:5
SliderMultiplier:1.4
SliderTickRate:1

[Events]
//Background and Video events
0,0,"scenery.jpg",0,0
//Break Periods
2,67167,76461
2,131280,151170
//Storyboard Layer 0 (Background)
//Storyboard Layer 1 (Fail)
//Storyboard Layer 2 (Pass)
//Storyboard Layer 3 (Foreground)
//Storyboard Sound Samples

[TimingPoints]
0,387.096774193548,4,2,0,0,1,0

[HitObjects]
64,192,3145,128,0,3725:0:0:0:0:
192,192,3725,1,0,0:0:0:0:
256,192,3725,1,0,0:0:0:0:
448,192,5080,128,0,5709:0:0:0:0:
320,192,5080,1,0,0:0:0:0:
64,192,5419,1,0,0:0:0:0:
192,192,5709,128,0,6193:0:0:0:0:
64,192,5709,1,0,0:0:0:0:
256,192,5709,1,0,0:0:0:0:
448,192,5999,1,0,0:0:0:0:
448,192,6193,1,0,0:0:0:0:
64,192,6629,1,0,0:0:0:0:
256,192,6629,1,0,0:0:0:0:
64,192,6967,1,0,0:0:0:0:
320,192,7161,128,0,7741:0:0:0:0:
448,192,7161,1,0,0:0:0:0:
192,192,7741,1,0,0:0:0:0:
109,192,8032,1,0,0:0:0:0:
64,192,8419,128,0,9048:0:0:0:0:
402,192,8419,1,0,0:0:0:0:
448,192,8709,1,0,0:0:0:0:
192,192,9048,1,0,0:0:0:0:
64,192,10306,1,0,0:0:0:0:
192,192,10306,128,0,10983:0:0:0:0:
256,192,10306,1,0,0:0:0:0:
402,192,10596,1,0,0:0:0:0:
320,192,10983,1,0,0:0:0:0:
448,192,10983,128,0,11419:0:0:0:0:
109,192,11225,1,0,0:0:0:0:
64,192,11419,1,0,0:0:0:0:
448,192,11854,1,0,0:0:0:0:
192,192,12241,1,0,0:0:0:0:
64,192,12483,128,0,13161:0:0:0:0:
402,192,12870,1,0,0:0:0:0:
448,192,13161,1,0,0:0:0:0:
256,192,13161,1,0,0:0:0:0:
192,192,13403,1,0,0:0:0:0:
192,192,13693,1,0,0:0:0:0:
448,192,13693,128,0,14322:0:0:0:0:
192,192,14322,1,0,0:0:0:0:
320,192,14322,1,0,0:0:0:0:
256,192,14322,1,0,0:0:0:0:
192,192,15725,128,0,16354:0:0:0:0:
402,192,15725,1,0,0:0:0:0:
448,192,16016,1,0,0:0:0:0:
320,192,16354,128,0,16935:0:0:0:0:
109,192,16354,1,0,0:0:0:0:
256,192,16596,1,0,0:0:0:0:
64,192,16935,1,0,0:0:0:0:
109,192,16935,1,0,0:0:0:0:
182,192,16935,1,0,0:0:0:0:
192,192,17274,1,0,0:0:0:0:
448,192,17564,1,0,0:0:0:0:
402,192,17564,1,0,0:0:0:0:
448,192,17806,128,0,18290:0:0:0:0:
320,192,17806,1,0,0:0:0:0:
64,192,17951,1,0,0:0:0:0:
256,192,17951,1,0,0:0:0:0:
64,192,18290,1,0,0:0:0:0:
109,192,18290,1,0,0:0:0:0:
192,192,18580,1,0,0:0:0:0:
329,192,18822,1,0,0:0:0:0:
64,192,19016,128,0,19693:0:0:0:0:
448,192,19016,1,0,0:0:0:0:
192,192,19258,1,0,0:0:0:0:
256,192,19258,1,0,0:0:0:0:
320,192,19693,1,0,0:0:0:0:
448,192,19693,1,0,0:0:0:0:
256,192,19693,1,0,0:0:0:0:
320,192,20999,1,0,0:0:0:0:
64,192,20999,128,0,21580:0:0:0:0:
192,192,21290,1,0,0:0:0:0:
320,192,21580,1,0,0:0:0:0:
448,192,21580,128,0,22209:0:0:0:0:
64,192,21870,1,0,0:0:0:0:
192,192,22209,1,0,0:0:0:0:
192,192,22548,1,0,0:0:0:0:
329,192,22548,1,0,0:0:0:0:
320,192,22935,1,0,0:0:0:0:
64,192,23274,128,0,23903:0:0:0:0:
192,192,23564,1,0,0:0:0:0:
448,192,23903,1,0,0:0:0:0:
448,192,24096,1,0,0:0:0:0:
64,192,24387,128,0,24967:0:0:0:0:
192,192,24387,1,0,0:0:0:0:
192,192,24967,1,0,0:0:0:0:
320,192,24967,1,0,0:0:0:0:
256,192,24967,1,0,0:0:0:0:
448,192,25693,1,0,0:0:0:0:
192,192,26370,1,0,0:0:0:0:
448,192,26370,128,0,26903:0:0:0:0:
320,192,26564,1,0,0:0:0:0:
64,192,26903,128,0,27580:0:0:0:0:
402,192,27290,1,0,0:0:0:0:
192,192,27580,1,0,0:0:0:0:
256,192,27580,1,0,0:0:0:0:
320,192,27870,1,0,0:0:0:0:
192,192,28209,1,0,0:0:0:0:
64,192,28645,1,0,0:0:0:0:
192,192,28645,1,0,0:0:0:0:
320,192,28790,1,0,0:0:0:0:
448,192,29129,1,0,0:0:0:0:
64,192,29564,128,0,30338:0:0:0:0:
182,192,29564,1,0,0:0:0:0:
448,192,29999,1,0,0:0:0:0:
448,192,30338,1,0,0:0:0:0:
402,192,30338,1,0,0:0:0:0:
329,192,30338,1,0,0:0:0:0:
192,192,31596,1,0,0:0:0:0:
320,192,31596,1,0,0:0:0:0:
64,192,31887,1,0,0:0:0:0:
448,192,32129,1,0,0:0:0:0:
320,192,32564,1,0,0:0:0:0:
64,192,32564,1,0,0:0:0:0:
320,192,34983,1,0,0:0:0:0:
192,192,34983,128,0,35709:0:0:0:0:
64,192,35709,1,0,0:0:0:0:
256,192,35709,1,0,0:0:0:0:
109,192,35709,1,0,0:0:0:0:
192,192,36435,1,0,0:0:0:0:
448,192,36435,1,0,0:0:0:0:
192,192,36967,128,0,37354:0:0:0:0:
320,192,37354,128,0,37596:0:0:0:0:
64,192,37354,1,0,0:0:0:0:
448,192,37596,128,0,37935:0:0:0:0:
192,192,37596,1,0,0:0:0:0:
64,192,37935,1,0,0:0:0:0:
109,192,38177,1,0,0:0:0:0:
256,192,38564,1,0,0:0:0:0:
402,192,38903,1,0,0:0:0:0:
192,192,39387,1,0,0:0:0:0:
320,192,39629,1,0,0:0:0:0:
448,192,39629,1,0,0:0:0:0:
64,192,39967,1,0,0:0:0:0:
192,192,40258,1,0,0:0:0:0:
64,192,40596,1,0,0:0:0:0:
320,192,42629,1,0,0:0:0:0:
256,192,42629,1,0,0:0:0:0:
320,192,43112,1,0,0:0:0:0:
402,192,43112,1,0,0:0:0:0:
64,192,43596,1,0,0:0:0:0:
109,192,43596,1,0,0:0:0:0:
192,192,44032,1,0,0:0:0:0:
256,192,44032,1,0,0:0:0:0:
448,192,44419,1,0,0:0:0:0:
402,192,44419,1,0,0:0:0:0:
192,192,45048,1,0,0:0:0:0:
64,192,45048,1,0,0:0:0:0:
320,192,45725,128,0,46064:0:0:0:0:
448,192,45725,1,0,0:0:0:0:
192,192,45725,1,0,0:0:0:0:
256,192,45725,1,0,0:0:0:0:
192,192,46064,1,0,0:0:0:0:
109,192,46064,128,0,46403:0:0:0:0:
192,192,46403,1,0,0:0:0:0:
402,192,46403,128,0,46548:0:0:0:0:
192,192,46548,128,0,46693:0:0:0:0:
329,192,46548,1,0,0:0:0:0:
64,192,46693,128,0,47080:0:0:0:0:
448,192,46693,1,0,0:0:0:0:
192,192,47080,1,0,0:0:0:0:
256,192,47080,128,0,47419:0:0:0:0:
402,192,47419,1,0,0:0:0:0:
109,192,47419,128,0,47758:0:0:0:0:
320,192,47758,128,0,48096:0:0:0:0:
192,192,47758,1,0,0:0:0:0:
402,192,48096,1,0,0:0:0:0:
182,192,48096,128,0,48435:0:0:0:0:
448,192,48435,128,0,48774:0:0:0:0:
256,192,48435,1,0,0:0:0:0:
402,192,48774,128,0,49112:0:0:0:0:
182,192,48774,1,0,0:0:0:0:
448,192,49112,128,0,49258:0:0:0:0:
320,192,49112,1,0,0:0:0:0:
256,192,49258,128,0,49403:0:0:0:0:
36,192,49258,1,0,0:0:0:0:
192,192,49403,128,0,49741:0:0:0:0:
109,192,49403,1,0,0:0:0:0:
64,192,49741,1,0,0:0:0:0:
320,192,49741,128,0,50032:0:0:0:0:
448,192,50032,128,0,50370:0:0:0:0:
402,192,50032,1,0,0:0:0:0:
192,192,50370,128,0,50709:0:0:0:0:
109,192,50370,1,0,0:0:0:0:
402,192,50709,1,0,0:0:0:0:
109,192,50709,128,0,51048:0:0:0:0:
192,192,51048,1,0,0:0:0:0:
448,192,51048,1,0,0:0:0:0:
256,192,51048,128,0,51387:0:0:0:0:
448,192,51387,128,0,51725:0:0:0:0:
329,192,51387,1,0,0:0:0:0:
402,192,51725,1,0,0:0:0:0:
109,192,51725,128,0,51870:0:0:0:0:
64,192,51870,128,0,52016:0:0:0:0:
448,192,51919,1,0,0:0:0:0:
192,192,52016,1,0,0:0:0:0:
320,192,52016,128,0,52161:0:0:0:0:
402,192,52161,128,0,52499:0:0:0:0:
192,192,52499,128,0,52838:0:0:0:0:
109,192,52499,1,0,0:0:0:0:
64,192,52838,1,0,0:0:0:0:
320,192,52838,128,0,53177:0:0:0:0:
475,192,52838,1,0,0:0:0:0:
192,192,53177,1,0,0:0:0:0:
109,192,53177,128,0,53516:0:0:0:0:
320,192,53516,1,0,0:0:0:0:
448,192,53516,128,0,53854:0:0:0:0:
192,192,53854,128,0,54193:0:0:0:0:
256,192,53854,1,0,0:0:0:0:
448,192,54193,1,0,0:0:0:0:
64,192,54193,128,0,54338:0:0:0:0:
192,192,54338,1,0,0:0:0:0:
256,192,54338,128,0,54483:0:0:0:0:
448,192,54483,128,0,54629:0:0:0:0:
64,192,54483,1,0,0:0:0:0:
329,192,54629,128,0,54967:0:0:0:0:
448,192,54967,128,0,55306:0:0:0:0:
109,192,54967,1,0,0:0:0:0:
192,192,55306,1,0,0:0:0:0:
320,192,55306,128,0,55645:0:0:0:0:
64,192,55645,128,0,55983:0:0:0:0:
402,192,55645,1,0,0:0:0:0:
109,192,55983,1,0,0:0:0:0:
402,192,55983,128,0,56322:0:0:0:0:
64,192,56322,1,0,0:0:0:0:
192,192,56322,128,0,56661:0:0:0:0:
256,192,56322,1,0,0:0:0:0:
320,192,56661,1,0,0:0:0:0:
64,192,56661,128,0,56999:0:0:0:0:
192,192,56999,128,0,57145:0:0:0:0:
109,192,56999,1,0,0:0:0:0:
320,192,57145,128,0,57290:0:0:0:0:
256,192,57145,1,0,0:0:0:0:
192,192,57290,1,0,0:0:0:0:
64,192,57290,128,0,57629:0:0:0:0:
192,192,57629,128,0,57967:0:0:0:0:
402,192,57629,1,0,0:0:0:0:
320,192,57967,1,0,0:0:0:0:
402,192,57967,128,0,58306:0:0:0:0:
320,192,58306,128,0,58645:0:0:0:0:
192,192,58306,1,0,0:0:0:0:
448,192,58645,1,0,0:0:0:0:
109,192,58645,128,0,58983:0:0:0:0:
320,192,58983,1,0,0:0:0:0:
192,192,58983,128,0,59322:0:0:0:0:
64,192,59322,1,0,0:0:0:0:
402,192,59322,128,0,59661:0:0:0:0:
64,192,59661,128,0,59806:0:0:0:0:
109,192,59661,1,0,0:0:0:0:
192,192,59806,128,0,59951:0:0:0:0:
256,192,59806,1,0,0:0:0:0:
320,192,59951,128,0,60290:0:0:0:0:
475,192,59951,1,0,0:0:0:0:
64,192,60290,128,0,60629:0:0:0:0:
109,192,60290,1,0,0:0:0:0:
320,192,60629,1,0,0:0:0:0:
256,192,60629,128,0,60967:0:0:0:0:
182,192,60967,1,0,0:0:0:0:
402,192,60967,128,0,61306:0:0:0:0:
320,192,61306,1,0,0:0:0:0:
109,192,61306,128,0,61645:0:0:0:0:
64,192,61645,1,0,0:0:0:0:
320,192,61645,128,0,61983:0:0:0:0:
182,192,61645,1,0,0:0:0:0:
448,192,61983,1,0,0:0:0:0:
64,192,61983,128,0,62322:0:0:0:0:
192,192,62322,128,0,62467:0:0:0:0:
448,192,62467,128,0,62612:0:0:0:0:
256,192,62467,1,0,0:0:0:0:
64,192,62612,1,0,0:0:0:0:
320,192,62612,128,0,62951:0:0:0:0:
109,192,62951,1,0,0:0:0:0:
402,192,62951,128,0,63290:0:0:0:0:
64,192,63290,1,0,0:0:0:0:
192,192,63290,128,0,63629:0:0:0:0:
64,192,63629,128,0,63967:0:0:0:0:
329,192,63629,1,0,0:0:0:0:
109,192,63967,1,0,0:0:0:0:
256,192,63967,128,0,64306:0:0:0:0:
64,192,64306,1,0,0:0:0:0:
448,192,64306,128,0,64645:0:0:0:0:
192,192,64645,1,0,0:0:0:0:
64,192,64645,128,0,64983:0:0:0:0:
448,192,64983,128,0,65129:0:0:0:0:
402,192,64983,1,0,0:0:0:0:
64,192,65129,1,0,0:0:0:0:
256,192,65129,128,0,65274:0:0:0:0:
192,192,65274,1,0,0:0:0:0:
64,192,65274,128,0,65612:0:0:0:0:
320,192,65612,1,0,0:0:0:0:
109,192,65612,128,0,65951:0:0:0:0:
182,192,65951,128,0,66290:0:0:0:0:
256,192,65951,1,0,0:0:0:0:
448,192,66290,128,0,66629:0:0:0:0:
64,192,66290,1,0,0:0:0:0:
320,192,66629,1,0,0:0:0:0:
192,192,66629,128,0,66967:0:0:0:0:
64,192,66967,1,0,0:0:0:0:
320,192,66967,1,0,0:0:0:0:
109,192,66967,1,0,0:0:0:0:
320,192,77661,5,0,0:0:0:0:
256,192,77661,1,0,0:0:0:0:
182,192,77661,1,0,0:0:0:0:
192,192,78338,1,0,0:0:0:0:
320,192,78338,1,0,0:0:0:0:
64,192,78338,128,0,79693:0:0:0:0:
109,192,78338,1,0,0:0:0:0:
256,192,78919,1,0,0:0:0:0:
448,192,79306,1,0,0:0:0:0:
402,192,79596,1,0,0:0:0:0:
256,192,79693,128,0,80322:0:0:0:0:
109,192,80032,1,0,0:0:0:0:
64,192,80225,1,0,0:0:0:0:
192,192,80322,128,0,80999:0:0:0:0:
320,192,80322,1,0,0:0:0:0:
402,192,80564,1,0,0:0:0:0:
320,192,80999,1,0,0:0:0:0:
448,192,80999,1,0,0:0:0:0:
402,192,80999,1,0,0:0:0:0:
109,192,81241,1,0,0:0:0:0:
448,192,81532,1,0,0:0:0:0:
182,192,81532,1,0,0:0:0:0:
192,192,81870,1,0,0:0:0:0:
64,192,81870,128,0,82451:0:0:0:0:
448,192,82209,1,0,0:0:0:0:
256,192,82209,1,0,0:0:0:0:
329,192,82451,1,0,0:0:0:0:
64,192,82935,128,0,83709:0:0:0:0:
182,192,82935,1,0,0:0:0:0:
448,192,83225,1,0,0:0:0:0:
320,192,83709,1,0,0:0:0:0:
448,192,83709,1,0,0:0:0:0:
402,192,83709,1,0,0:0:0:0:
448,192,84967,128,0,85741:0:0:0:0:
329,192,84967,1,0,0:0:0:0:
402,192,85306,1,0,0:0:0:0:
64,192,85741,128,0,86322:0:0:0:0:
320,192,85741,1,0,0:0:0:0:
256,192,85983,1,0,0:0:0:0:
192,192,86322,1,0,0:0:0:0:
109,192,86322,1,0,0:0:0:0:
402,192,86322,1,0,0:0:0:0:
192,192,86612,1,0,0:0:0:0:
448,192,86612,1,0,0:0:0:0:
448,192,86951,1,0,0:0:0:0:
320,192,86951,1,0,0:0:0:0:
192,192,87096,1,0,0:0:0:0:
64,192,87096,128,0,87677:0:0:0:0:
192,192,87677,1,0,0:0:0:0:
256,192,87677,1,0,0:0:0:0:
402,192,87870,1,0,0:0:0:0:
192,192,88064,1,0,0:0:0:0:
448,192,88258,128,0,89032:0:0:0:0:
192,192,89032,1,0,0:0:0:0:
320,192,89032,1,0,0:0:0:0:
402,192,89032,1,0,0:0:0:0:
64,192,89612,128,0,90387:0:0:0:0:
192,192,90387,1,0,0:0:0:0:
256,192,90387,1,0,0:0:0:0:
448,192,90580,1,0,0:0:0:0:
402,192,90580,1,0,0:0:0:0:
109,192,90774,1,0,0:0:0:0:
64,192,91354,1,0,0:0:0:0:
182,192,91548,1,0,0:0:0:0:
402,192,91935,1,0,0:0:0:0:
256,192,92322,1,0,0:0:0:0:
64,192,92709,1,0,0:0:0:0:
109,192,92903,1,0,0:0:0:0:
320,192,93290,1,0,0:0:0:0:
448,192,93483,128,0,94258:0:0:0:0:
64,192,94064,128,0,94258:0:0:0:0:
192,192,94258,1,0,0:0:0:0:
256,192,94258,1,0,0:0:0:0:
192,192,95612,1,0,0:0:0:0:
64,192,95806,128,0,96580:0:0:0:0:
448,192,96193,128,0,96580:0:0:0:0:
320,192,96580,1,0,0:0:0:0:
402,192,96580,1,0,0:0:0:0:
192,192,99096,128,0,99677:0:0:0:0:
320,192,99677,1,0,0:0:0:0:
64,192,99677,1,0,0:0:0:0:
256,192,99677,1,0,0:0:0:0:
64,192,100451,128,0,101032:0:0:0:0:
192,192,101032,1,0,0:0:0:0:
109,192,101032,1,0,0:0:0:0:
256,192,101419,1,0,0:0:0:0:
448,192,101612,1,0,0:0:0:0:
64,192,101612,128,0,102387:0:0:0:0:
182,192,101999,1,0,0:0:0:0:
192,192,102387,1,0,0:0:0:0:
320,192,102387,1,0,0:0:0:0:
256,192,102387,1,0,0:0:0:0:
320,192,102774,1,0,0:0:0:0:
402,192,102967,1,0,0:0:0:0:
192,192,103161,128,0,103548:0:0:0:0:
256,192,103354,1,0,0:0:0:0:
64,192,103548,128,0,104322:0:0:0:0:
402,192,103935,1,0,0:0:0:0:
448,192,104322,128,0,105096:0:0:0:0:
109,192,104322,1,0,0:0:0:0:
192,192,104709,1,0,0:0:0:0:
320,192,105096,1,0,0:0:0:0:
64,192,106645,128,0,109741:0:0:0:0:
448,192,107225,128,0,109741:0:0:0:0:
109,192,107612,1,0,0:0:0:0:
402,192,107999,1,0,0:0:0:0:
192,192,108387,1,0,0:0:0:0:
320,192,108967,1,0,0:0:0:0:
320,192,109741,1,0,0:0:0:0:
109,192,109741,128,0,110080:0:0:0:0:
64,192,110080,128,0,110419:0:0:0:0:
448,192,110419,128,0,110564:0:0:0:0:
256,192,110419,1,0,0:0:0:0:
402,192,110612,128,0,110758:0:0:0:0:
182,192,110612,1,0,0:0:0:0:
64,192,110758,128,0,111096:0:0:0:0:
109,192,110758,1,0,0:0:0:0:
256,192,111096,1,0,0:0:0:0:
475,192,111096,128,0,111435:0:0:0:0:
64,192,111435,1,0,0:0:0:0:
109,192,111435,128,0,111774:0:0:0:0:
448,192,111774,128,0,112112:0:0:0:0:
402,192,111774,1,0,0:0:0:0:
320,192,112112,1,0,0:0:0:0:
192,192,112112,128,0,112451:0:0:0:0:
256,192,112451,128,0,112790:0:0:0:0:
192,192,112790,1,0,0:0:0:0:
448,192,112790,128,0,113129:0:0:0:0:
192,192,113129,1,0,0:0:0:0:
109,192,113129,128,0,113274:0:0:0:0:
192,192,113274,128,0,113419:0:0:0:0:
320,192,113274,1,0,0:0:0:0:
402,192,113419,128,0,113758:0:0:0:0:
475,192,113419,1,0,0:0:0:0:
192,192,113758,128,0,114096:0:0:0:0:
109,192,113758,1,0,0:0:0:0:
448,192,114096,128,0,114435:0:0:0:0:
36,192,114096,1,0,0:0:0:0:
192,192,114435,128,0,114774:0:0:0:0:
402,192,114435,1,0,0:0:0:0:
109,192,114435,1,0,0:0:0:0:
256,192,114774,128,0,115112:0:0:0:0:
329,192,114774,1,0,0:0:0:0:
192,192,115112,1,0,0:0:0:0:
329,192,115112,1,0,0:0:0:0:
402,192,115112,1,0,0:0:0:0:
402,192,115451,1,0,0:0:0:0:
109,192,115451,128,0,115741:0:0:0:0:
192,192,115741,128,0,115887:0:0:0:0:
448,192,115887,128,0,116032:0:0:0:0:
256,192,115887,1,0,0:0:0:0:
36,192,116032,1,0,0:0:0:0:
402,192,116032,128,0,116370:0:0:0:0:
448,192,116370,1,0,0:0:0:0:
109,192,116370,128,0,116709:0:0:0:0:
192,192,116709,128,0,117048:0:0:0:0:
402,192,116709,1,0,0:0:0:0:
448,192,117048,1,0,0:0:0:0:
64,192,117048,1,0,0:0:0:0:
256,192,117048,128,0,117387:0:0:0:0:
192,192,117387,1,0,0:0:0:0:
448,192,117387,128,0,117725:0:0:0:0:
402,192,117725,1,0,0:0:0:0:
109,192,117725,128,0,118064:0:0:0:0:
192,192,118064,128,0,118403:0:0:0:0:
475,192,118064,1,0,0:0:0:0:
320,192,118403,1,0,0:0:0:0:
448,192,118403,128,0,118548:0:0:0:0:
64,192,118548,1,0,0:0:0:0:
256,192,118548,128,0,118693:0:0:0:0:
448,192,118693,1,0,0:0:0:0:
192,192,118693,128,0,119032:0:0:0:0:
402,192,119032,1,0,0:0:0:0:
109,192,119032,128,0,119370:0:0:0:0:
192,192,119370,1,0,0:0:0:0:
448,192,119370,128,0,119709:0:0:0:0:
320,192,119709,128,0,120048:0:0:0:0:
36,192,119709,1,0,0:0:0:0:
256,192,120048,1,0,0:0:0:0:
402,192,120048,128,0,120387:0:0:0:0:
192,192,120387,1,0,0:0:0:0:
64,192,120387,1,0,0:0:0:0:
109,192,120387,1,0,0:0:0:0:
320,192,120677,128,0,121016:0:0:0:0:
256,192,120677,1,0,0:0:0:0:
109,192,121016,128,0,121161:0:0:0:0:
402,192,121016,1,0,0:0:0:0:
64,192,121161,128,0,121306:0:0:0:0:
320,192,121161,1,0,0:0:0:0:
192,192,121306,1,0,0:0:0:0:
402,192,121306,128,0,121645:0:0:0:0:
320,192,121645,1,0,0:0:0:0:
256,192,121645,128,0,121983:0:0:0:0:
109,192,121983,128,0,122322:0:0:0:0:
64,192,122322,128,0,122661:0:0:0:0:
182,192,122322,1,0,0:0:0:0:
320,192,122661,1,0,0:0:0:0:
192,192,122661,128,0,122999:0:0:0:0:
320,192,122999,1,0,0:0:0:0:
402,192,122999,128,0,123338:0:0:0:0:
64,192,123338,128,0,123677:0:0:0:0:
109,192,123338,1,0,0:0:0:0:
192,192,123677,1,0,0:0:0:0:
448,192,123677,128,0,123822:0:0:0:0:
64,192,123822,1,0,0:0:0:0:
256,192,123822,128,0,123967:0:0:0:0:
192,192,123967,128,0,124306:0:0:0:0:
402,192,123967,1,0,0:0:0:0:
320,192,124306,1,0,0:0:0:0:
402,192,124306,128,0,124645:0:0:0:0:
64,192,124645,128,0,124983:0:0:0:0:
109,192,124645,1,0,0:0:0:0:
192,192,124983,128,0,125322:0:0:0:0:
256,192,124983,1,0,0:0:0:0:
448,192,125322,1,0,0:0:0:0:
402,192,125322,128,0,125661:0:0:0:0:
64,192,125661,1,0,0:0:0:0:
448,192,125661,128,0,125999:0:0:0:0:
329,192,125661,1,0,0:0:0:0:
64,192,125999,128,0,126338:0:0:0:0:
109,192,125999,1,0,0:0:0:0:
192,192,126338,1,0,0:0:0:0:
256,192,126338,128,0,126483:0:0:0:0:
402,192,126483,128,0,126629:0:0:0:0:
320,192,126629,1,0,0:0:0:0:
192,192,126629,128,0,126967:0:0:0:0:
64,192,126967,128,0,127306:0:0:0:0:
475,192,126967,1,0,0:0:0:0:
448,192,127306,128,0,127645:0:0:0:0:
109,192,127306,1,0,0:0:0:0:
320,192,127645,1,0,0:0:0:0:
192,192,127645,128,0,127983:0:0:0:0:
320,192,127983,128,0,128322:0:0:0:0:
109,192,127983,1,0,0:0:0:0:
448,192,128322,128,0,128661:0:0:0:0:
402,192,128322,1,0,0:0:0:0:
64,192,128661,1,0,0:0:0:0:
256,192,128661,128,0,128999:0:0:0:0:
448,192,128999,1,0,0:0:0:0:
402,192,128999,128,0,129145:0:0:0:0:
192,192,129145,128,0,129290:0:0:0:0:
448,192,129290,128,0,129629:0:0:0:0:
109,192,129290,1,0,0:0:0:0:
320,192,129629,1,0,0:0:0:0:
64,192,129629,128,0,129967:0:0:0:0:
320,192,129967,128,0,130306:0:0:0:0:
402,192,129967,1,0,0:0:0:0:
448,192,130306,1,0,0:0:0:0:
109,192,130306,128,0,130645:0:0:0:0:
64,192,130645,1,0,0:0:0:0:
448,192,130645,128,0,131080:0:0:0:0:
192,192,131080,5,0,0:0:0:0:
320,192,131080,1,0,0:0:0:0:
256,192,131080,1,0,0:0:0:0:
64,192,152370,5,0,0:0:0:0:
320,192,152709,1,0,0:0:0:0:
448,192,152709,1,0,0:0:0:0:
402,192,152709,1,0,0:0:0:0:
192,192,153048,1,0,0:0:0:0:
256,192,153048,1,0,0:0:0:0:
320,192,153193,1,0,0:0:0:0:
448,192,153193,1,0,0:0:0:0:
192,192,153338,1,0,0:0:0:0:
320,192,153338,1,0,0:0:0:0:
448,192,153677,1,0,0:0:0:0:
448,192,154016,1,0,0:0:0:0:
192,192,154016,1,0,0:0:0:0:
402,192,154016,1,0,0:0:0:0:
256,192,154354,1,0,0:0:0:0:
64,192,154693,1,0,0:0:0:0:
320,192,154693,1,0,0:0:0:0:
109,192,154693,1,0,0:0:0:0:
64,192,155032,1,0,0:0:0:0:
256,192,155032,1,0,0:0:0:0:
320,192,155370,1,0,0:0:0:0:
64,192,155709,1,0,0:0:0:0:
192,192,155709,1,0,0:0:0:0:
192,192,155854,1,0,0:0:0:0:
329,192,155854,1,0,0:0:0:0:
192,192,155999,1,0,0:0:0:0:
64,192,155999,1,0,0:0:0:0:
192,192,156338,1,0,0:0:0:0:
402,192,156338,1,0,0:0:0:0:
320,192,156677,1,0,0:0:0:0:
256,192,156677,1,0,0:0:0:0:
448,192,157016,1,0,0:0:0:0:
182,192,157016,1,0,0:0:0:0:
64,192,157354,1,0,0:0:0:0:
475,192,157354,1,0,0:0:0:0:
320,192,157693,1,0,0:0:0:0:
448,192,158032,1,0,0:0:0:0:
448,192,159725,1,0,0:0:0:0:
256,192,159725,1,0,0:0:0:0:
109,192,160064,1,0,0:0:0:0:
64,192,160403,1,0,0:0:0:0:
182,192,160403,1,0,0:0:0:0:
402,192,160741,1,0,0:0:0:0:
256,192,161080,1,0,0:0:0:0:
192,192,161225,1,0,0:0:0:0:
448,192,161370,1,0,0:0:0:0:
402,192,161370,1,0,0:0:0:0:
64,192,161709,1,0,0:0:0:0:
182,192,161709,1,0,0:0:0:0:
448,192,162048,1,0,0:0:0:0:
329,192,162048,1,0,0:0:0:0:
402,192,162387,1,0,0:0:0:0:
109,192,162725,1,0,0:0:0:0:
320,192,163064,1,0,0:0:0:0:
448,192,163064,1,0,0:0:0:0:
256,192,163064,1,0,0:0:0:0:
320,192,163403,1,0,0:0:0:0:
448,192,163741,1,0,0:0:0:0:
320,192,163887,1,0,0:0:0:0:
64,192,164032,1,0,0:0:0:0:
109,192,164032,1,0,0:0:0:0:
448,192,164370,1,0,0:0:0:0:
192,192,164709,1,0,0:0:0:0:
64,192,165048,1,0,0:0:0:0:
256,192,165096,1,0,0:0:0:0:
448,192,165387,1,0,0:0:0:0:
402,192,165387,1,0,0:0:0:0:
448,192,165725,1,0,0:0:0:0:
109,192,165725,1,0,0:0:0:0:
64,192,166064,1,0,0:0:0:0:
329,192,166064,1,0,0:0:0:0:
64,192,166403,1,0,0:0:0:0:
192,192,166548,1,0,0:0:0:0:
448,192,166693,1,0,0:0:0:0:
402,192,166693,1,0,0:0:0:0:
448,192,167032,1,0,0:0:0:0:
64,192,167032,1,0,0:0:0:0:
192,192,167370,1,0,0:0:0:0:
256,192,167370,1,0,0:0:0:0:
448,192,167709,1,0,0:0:0:0:
402,192,167709,1,0,0:0:0:0:
64,192,168048,1,0,0:0:0:0:
329,192,168048,1,0,0:0:0:0:
192,192,168387,1,0,0:0:0:0:
448,192,168387,1,0,0:0:0:0:
448,192,168725,1,0,0:0:0:0:
192,192,168725,1,0,0:0:0:0:
192,192,169064,1,0,0:0:0:0:
109,192,169064,1,0,0:0:0:0:
320,192,169209,1,0,0:0:0:0:
402,192,169209,1,0,0:0:0:0:
64,192,169354,1,0,0:0:0:0:
109,192,169354,1,0,0:0:0:0:
64,192,169693,1,0,0:0:0:0:
448,192,169693,1,0,0:0:0:0:
448,192,170032,1,0,0:0:0:0:
64,192,170032,1,0,0:0:0:0:
402,192,170370,1,0,0:0:0:0:
192,192,170709,1,0,0:0:0:0:
256,192,170709,1,0,0:0:0:0:
192,192,171048,1,0,0:0:0:0:
64,192,171048,1,0,0:0:0:0:
448,192,171387,1,0,0:0:0:0:
329,192,171387,1,0,0:0:0:0:
64,192,171822,1,0,0:0:0:0:
256,192,171822,1,0,0:0:0:0:
448,192,172306,1,0,0:0:0:0:
402,192,172306,1,0,0:0:0:0:
192,192,172983,1,0,0:0:0:0:
320,192,172983,1,0,0:0:0:0:
64,192,173709,128,0,175741:0:0:0:0:
109,192,173854,128,0,175741:0:0:0:0:
182,192,173999,128,0,175741:0:0:0:0:
256,192,174145,128,0,175741:0:0:0:0:
329,192,174290,128,0,175741:0:0:0:0:
402,192,174435,128,0,175741:0:0:0:0:
475,192,175741,1,0,0:0:0:0:
448,192,176274,128,0,178983:0:0:0:0:
192,192,176274,1,0,0:0:0:0:
64,192,176274,128,0,176612:0:0:0:0:
109,192,176274,1,0,0:0:0:0:
192,192,176612,1,0,0:0:0:0:
256,192,176612,128,0,176951:0:0:0:0:
329,192,176951,1,0,0:0:0:0:
402,192,177096,1,0,0:0:0:0:
64,192,177241,128,0,177580:0:0:0:0:
109,192,177241,1,0,0:0:0:0:
320,192,177580,1,0,0:0:0:0:
402,192,177580,128,0,177919:0:0:0:0:
182,192,177919,1,0,0:0:0:0:
109,192,177919,128,0,178258:0:0:0:0:
192,192,178258,1,0,0:0:0:0:
320,192,178258,128,0,178596:0:0:0:0:
192,192,178596,128,0,178983:0:0:0:0:
256,192,178596,1,0,0:0:0:0:
402,192,178983,128,0,179322:0:0:0:0:
109,192,178983,128,0,181645:0:0:0:0:
448,192,179322,128,0,179661:0:0:0:0:
36,192,179322,1,0,0:0:0:0:
329,192,179661,1,0,0:0:0:0:
182,192,179806,1,0,0:0:0:0:
320,192,179951,128,0,180290:0:0:0:0:
402,192,179951,1,0,0:0:0:0:
192,192,180290,128,0,180629:0:0:0:0:
256,192,180290,1,0,0:0:0:0:
402,192,180629,128,0,180967:0:0:0:0:
36,192,180629,1,0,0:0:0:0:
320,192,180967,128,0,181306:0:0:0:0:
475,192,180967,1,0,0:0:0:0:
448,192,181306,128,0,181645:0:0:0:0:
192,192,181306,1,0,0:0:0:0:
192,192,181645,128,0,181983:0:0:0:0:
320,192,181645,128,0,184306:0:0:0:0:
64,192,181983,128,0,182322:0:0:0:0:
256,192,181983,1,0,0:0:0:0:
402,192,182322,1,0,0:0:0:0:
448,192,182467,1,0,0:0:0:0:
192,192,182612,1,0,0:0:0:0:
109,192,182612,128,0,182951:0:0:0:0:
256,192,182951,128,0,183290:0:0:0:0:
402,192,182951,1,0,0:0:0:0:
448,192,183290,128,0,183629:0:0:0:0:
182,192,183290,1,0,0:0:0:0:
64,192,183629,1,0,0:0:0:0:
192,192,183629,128,0,183967:0:0:0:0:
402,192,183967,1,0,0:0:0:0:
109,192,183967,128,0,184306:0:0:0:0:
192,192,184306,128,0,186967:0:0:0:0:
448,192,184306,128,0,184645:0:0:0:0:
64,192,184645,128,0,184983:0:0:0:0:
256,192,184645,1,0,0:0:0:0:
320,192,184983,1,0,0:0:0:0:
448,192,185129,1,0,0:0:0:0:
402,192,185274,128,0,185612:0:0:0:0:
448,192,185612,128,0,185951:0:0:0:0:
109,192,185612,1,0,0:0:0:0:
64,192,185951,128,0,186290:0:0:0:0:
256,192,186290,128,0,186629:0:0:0:0:
329,192,186290,1,0,0:0:0:0:
448,192,186629,128,0,186967:0:0:0:0:
64,192,186629,1,0,0:0:0:0:
64,192,186967,128,0,189629:0:0:0:0:
402,192,186967,128,0,187306:0:0:0:0:
448,192,187306,1,0,0:0:0:0:
109,192,187306,128,0,187645:0:0:0:0:
182,192,187645,1,0,0:0:0:0:
402,192,187790,1,0,0:0:0:0:
192,192,187935,128,0,188274:0:0:0:0:
320,192,187935,1,0,0:0:0:0:
320,192,188274,128,0,188612:0:0:0:0:
256,192,188274,1,0,0:0:0:0:
448,192,188612,128,0,188951:0:0:0:0:
192,192,188612,1,0,0:0:0:0:
402,192,188951,1,0,0:0:0:0:
256,192,188951,128,0,189290:0:0:0:0:
320,192,189290,1,0,0:0:0:0:
448,192,189290,128,0,189629:0:0:0:0:
192,192,189629,128,0,189967:0:0:0:0:
402,192,189629,128,0,192290:0:0:0:0:
109,192,189967,1,0,0:0:0:0:
329,192,189967,128,0,190306:0:0:0:0:
192,192,190306,1,0,0:0:0:0:
64,192,190499,1,0,0:0:0:0:
192,192,190741,1,0,0:0:0:0:
256,192,190741,128,0,191080:0:0:0:0:
109,192,191080,128,0,191419:0:0:0:0:
329,192,191080,1,0,0:0:0:0:
448,192,191419,128,0,191758:0:0:0:0:
64,192,191419,1,0,0:0:0:0:
182,192,191758,128,0,192096:0:0:0:0:
256,192,191758,1,0,0:0:0:0:
448,192,192096,1,0,0:0:0:0:
448,192,192290,128,0,194999:0:0:0:0:
64,192,192290,1,0,0:0:0:0:
256,192,192290,128,0,192629:0:0:0:0:
320,192,192629,1,0,0:0:0:0:
109,192,192629,128,0,192967:0:0:0:0:
192,192,192967,1,0,0:0:0:0:
402,192,193112,1,0,0:0:0:0:
192,192,193258,128,0,193596:0:0:0:0:
320,192,193596,128,0,193935:0:0:0:0:
256,192,193596,1,0,0:0:0:0:
64,192,193935,128,0,194274:0:0:0:0:
109,192,193935,1,0,0:0:0:0:
320,192,194274,1,0,0:0:0:0:
109,192,194274,128,0,194612:0:0:0:0:
64,192,194612,1,0,0:0:0:0:
402,192,194612,128,0,194999:0:0:0:0:
64,192,194999,128,0,195338:0:0:0:0:
256,192,194999,128,0,197709:0:0:0:0:
448,192,195338,1,0,0:0:0:0:
109,192,195338,128,0,195629:0:0:0:0:
329,192,195629,1,0,0:0:0:0:
64,192,195774,1,0,0:0:0:0:
402,192,195919,1,0,0:0:0:0:
448,192,196064,128,0,196403:0:0:0:0:
182,192,196403,1,0,0:0:0:0:
448,192,196741,1,0,0:0:0:0:
402,192,196741,1,0,0:0:0:0:
64,192,197080,1,0,0:0:0:0:
109,192,197080,1,0,0:0:0:0:
182,192,197419,1,0,0:0:0:0:
329,192,197419,1,0,0:0:0:0:
64,192,197709,1,0,0:0:0:0:
109,192,197709,1,0,0:0:0:0:
402,192,197709,1,0,0:0:0:0:
320,192,198048,1,0,0:0:0:0:
448,192,198048,1,0,0:0:0:0:
402,192,198048,1,0,0:0:0:0:
192,192,198338,1,0,0:0:0:0:
448,192,198483,1,0,0:0:0:0:
109,192,198483,1,0,0:0:0:0:
64,192,198629,1,0,0:0:0:0:
192,192,198629,1,0,0:0:0:0:
448,192,198774,1,0,0:0:0:0:
402,192,198774,1,0,0:0:0:0:
64,192,199112,1,0,0:0:0:0:
448,192,199112,1,0,0:0:0:0:
256,192,199112,1,0,0:0:0:0:
402,192,199451,1,0,0:0:0:0:
64,192,199741,1,0,0:0:0:0:
182,192,199741,1,0,0:0:0:0:
192,192,200032,1,0,0:0:0:0:
256,192,200032,1,0,0:0:0:0:
64,192,200370,1,0,0:0:0:0:
402,192,200370,1,0,0:0:0:0:
329,192,200709,1,0,0:0:0:0:
64,192,201048,1,0,0:0:0:0:
448,192,201193,1,0,0:0:0:0:
109,192,201338,1,0,0:0:0:0:
64,192,201677,1,0,0:0:0:0:
192,192,201677,1,0,0:0:0:0:
320,192,202016,1,0,0:0:0:0:
256,192,202016,1,0,0:0:0:0:
448,192,202354,1,0,0:0:0:0:
402,192,202354,1,0,0:0:0:0:
64,192,202693,1,0,0:0:0:0:
182,192,202693,1,0,0:0:0:0:
109,192,202983,1,0,0:0:0:0:
182,192,202983,1,0,0:0:0:0:
402,192,202983,1,0,0:0:0:0:
329,192,202983,1,0,0:0:0:0:
448,192,203322,1,0,0:0:0:0:
256,192,203322,1,0,0:0:0:0:
64,192,203661,1,0,0:0:0:0:
256,192,203661,1,0,0:0:0:0:
64,192,203806,1,0,0:0:0:0:
256,192,203806,1,0,0:0:0:0:
64,192,203951,1,0,0:0:0:0:
256,192,203951,1,0,0:0:0:0:
448,192,204290,1,0,0:0:0:0:
402,192,204290,1,0,0:0:0:0:
109,192,204629,1,0,0:0:0:0:
448,192,204967,1,0,0:0:0:0:
402,192,204967,1,0,0:0:0:0:
256,192,204967,1,0,0:0:0:0:
109,192,205306,1,0,0:0:0:0:
448,192,205645,1,0,0:0:0:0:
329,192,205645,1,0,0:0:0:0:
182,192,205983,1,0,0:0:0:0:
192,192,206322,1,0,0:0:0:0:
256,192,206322,1,0,0:0:0:0:
448,192,206467,1,0,0:0:0:0:
402,192,206467,1,0,0:0:0:0:
448,192,206612,1,0,0:0:0:0:
402,192,206612,1,0,0:0:0:0:
64,192,206951,1,0,0:0:0:0:
192,192,207290,1,0,0:0:0:0:
448,192,207290,1,0,0:0:0:0:
256,192,207629,1,0,0:0:0:0:
64,192,207967,1,0,0:0:0:0:
402,192,207967,1,0,0:0:0:0:
64,192,208354,1,0,0:0:0:0:
192,192,208354,1,0,0:0:0:0:
320,192,208354,1,0,0:0:0:0:
448,192,208354,1,0,0:0:0:0:
