osu file format v14

[General]
AudioFilename: audio.mp3
AudioLeadIn: 0
PreviewTime: 30865
Countdown: 0
SampleSet: Normal
StackLeniency: 0.7
Mode: 0
LetterboxInBreaks: 0
WidescreenStoryboard: 0

[Editor]
DistanceSpacing: 0.5
BeatDivisor: 4
GridSize: 4
TimelineZoom: 1

[Metadata]
Title:Eighto
TitleUnicode:Eighto
Artist:Jomekka
ArtistUnicode:Jomekka
Creator:QiiXshinez
Version:8o
Source:Dinosaurs Love 808's
Tags:dinosaurslove808s geometry dash geometry 8o eighto etzer
BeatmapID:1345799
BeatmapSetID:634216

[Difficulty]
HPDrainRate:7.5
CircleSize:5.7
OverallDifficulty:8
ApproachRate:8.6
SliderMultiplier:1.4
SliderTickRate:1

[Events]
//Background and Video events
//Break Periods
//Storyboard Layer 0 (Background)
//Storyboard Layer 1 (Fail)
//Storyboard Layer 2 (Pass)
//Storyboard Layer 3 (Foreground)
//Storyboard Sound Samples

[TimingPoints]
96,512.820512820513,4,1,0,100,1,0
3044,-50,4,1,0,100,0,0
5352,-200,4,1,0,100,0,0
7275,-100,4,1,0,100,0,0
16506,-66.6666666666667,4,1,0,100,0,1
21634,-50,4,1,0,100,0,1
24711,-100,4,1,0,100,0,0
30224,-66.6666666666667,4,1,0,100,0,0
30865,-133.333333333333,4,1,0,100,0,1
32916,256.410256410256,4,1,0,100,1,1
32916,-200,4,1,0,100,0,1
32916,-200,4,1,0,100,0,1
41121,-200,4,1,0,100,0,0
41249,-200,4,1,0,100,0,1

[HitObjects]
192,212,96,5,0,0:0:0:0:
237,268,224,1,0,0:0:0:0:
288,304,352,1,0,0:0:0:0:
342,340,480,1,0,0:0:0:0:
299,266,608,1,0,0:0:0:0:
359,167,737,1,0,0:0:0:0:
269,254,865,1,0,0:0:0:0:
182,164,993,1,0,0:0:0:0:
272,77,1121,1,0,0:0:0:0:
199,217,1890,6,0,P|208:237|237:244,1,35
146,240,2147,2,0,P|161:274|210:286,1,70
282,299,3044,2,0,P|259:254|332:116,1,210
260,88,3685,2,0,P|324:66|387:93,1,140
146,280,4454,5,0,0:0:0:0:
166,117,4711,1,0,0:0:0:0:
166,117,4839,1,0,0:0:0:0:
166,117,4967,1,0,0:0:0:0:
166,117,5096,1,0,0:0:0:0:
135,173,5224,1,0,0:0:0:0:
135,173,5352,6,0,P|123:162|127:153,2,17.5
150,113,5737,1,0,0:0:0:0:
448,284,6249,5,0,0:0:0:0:
212,280,6506,1,0,0:0:0:0:
212,280,6634,1,0,0:0:0:0:
380,140,6890,1,0,0:0:0:0:
380,140,7019,1,0,0:0:0:0:
120,236,7275,2,0,L|166:306,1,70
168,200,7788,2,0,L|192:268,1,70
384,176,8301,5,0,0:0:0:0:
352,152,8429,1,0,0:0:0:0:
336,120,8557,1,0,0:0:0:0:
328,96,8685,1,0,0:0:0:0:
256,236,8813,1,0,0:0:0:0:
220,272,8942,1,0,0:0:0:0:
212,204,9070,1,0,0:0:0:0:
296,204,9198,1,0,0:0:0:0:
304,272,9326,1,0,0:0:0:0:
420,124,10096,1,0,0:0:0:0:
420,124,10224,1,0,0:0:0:0:
384,156,10352,1,0,0:0:0:0:
384,156,10608,1,0,0:0:0:0:
148,100,11378,6,0,B|152:108|152:108|168:72|168:72|128:56,1,70
147,63,11890,2,0,B|151:71|151:71|167:35|167:35|127:19,1,70
352,80,12660,5,0,0:0:0:0:
308,280,12916,1,0,0:0:0:0:
332,268,13044,1,0,0:0:0:0:
356,239,13172,1,0,0:0:0:0:
184,220,13301,1,0,0:0:0:0:
292,164,13429,2,0,L|332:184,2,35
264,124,13813,1,0,0:0:0:0:
428,128,14454,1,0,0:0:0:0:
128,236,14711,1,0,0:0:0:0:
144,292,14839,1,0,0:0:0:0:
160,168,15096,1,0,0:0:0:0:
208,168,15224,1,0,0:0:0:0:
424,264,15480,1,0,0:0:0:0:
424,264,15736,1,0,0:0:0:0:
424,264,15993,1,0,0:0:0:0:
180,264,16506,6,0,P|168:192|212:160,1,105.000004005432
248,156,17019,1,0,0:0:0:0:
296,112,17147,1,0,0:0:0:0:
324,212,17275,1,0,0:0:0:0:
380,224,17403,1,0,0:0:0:0:
256,276,17531,1,0,0:0:0:0:
304,312,17660,1,0,0:0:0:0:
280,100,18044,5,0,0:0:0:0:
280,100,18172,1,0,0:0:0:0:
280,100,18301,1,0,0:0:0:0:
280,100,18429,1,0,0:0:0:0:
280,100,18557,1,0,0:0:0:0:
280,100,18685,1,0,0:0:0:0:
360,184,19070,5,0,0:0:0:0:
456,148,19326,1,0,0:0:0:0:
184,256,19583,6,0,P|196:220|192:148,1,105.000004005432
300,48,20096,2,0,P|288:84|292:156,1,105.000004005432
68,220,20608,1,0,0:0:0:0:
260,208,20865,1,0,0:0:0:0:
144,88,21121,1,0,0:0:0:0:
241,82,21249,1,0,0:0:0:0:
336,76,21378,1,0,0:0:0:0:
144,168,21506,1,0,0:0:0:0:
264,165,21634,6,0,B|349:166|363:162|365:156|365:156|356:178|366:154|364:162|384:155|373:161|362:166,2,70
172,218,22019,1,0,0:0:0:0:
315,240,22660,1,0,0:0:0:0:
264,198,22788,1,0,0:0:0:0:
368,202,22916,1,0,0:0:0:0:
317,160,23044,1,0,0:0:0:0:
193,139,23172,5,0,0:0:0:0:
264,198,23300,1,0,0:0:0:0:
119,193,23428,1,0,0:0:0:0:
190,251,23556,1,0,0:0:0:0:
190,251,23685,1,0,0:0:0:0:
190,251,23942,1,0,0:0:0:0:
190,251,24198,1,0,0:0:0:0:
370,213,24711,6,0,L|394:248,1,35
441,224,24967,2,0,L|393:158,1,70
403,85,25352,1,0,0:0:0:0:
404,99,25480,1,0,0:0:0:0:
400,112,25609,1,0,0:0:0:0:
395,120,25737,1,0,0:0:0:0:
266,278,26506,5,0,0:0:0:0:
276,290,26634,1,0,0:0:0:0:
276,290,26762,1,0,0:0:0:0:
276,290,26890,1,0,0:0:0:0:
276,290,27019,1,0,0:0:0:0:
376,180,27275,1,0,0:0:0:0:
376,180,27531,1,0,0:0:0:0:
179,208,27788,2,0,B|207:216|207:216|179:172,1,70
112,188,28301,2,0,B|140:196|140:196|112:152,1,70
272,184,28813,1,0,0:0:0:0:
460,224,29070,1,0,0:0:0:0:
408,112,29326,1,0,0:0:0:0:
408,112,29454,1,0,0:0:0:0:
408,112,29583,1,0,0:0:0:0:
88,224,29839,2,0,B|96:216|96:216|108:212|108:212|124:212|124:212|136:216|136:216|148:224|148:224,1,52.5
42,172,30224,2,0,B|70:146|70:146|101:136|101:136|142:136|142:136|173:146|173:146|212:170|212:170,1,157.500006008148
240,96,30865,5,0,0:0:0:0:
288,338,31378,1,0,0:0:0:0:
413,304,31890,2,0,B|427:277|427:277|428:232|375:219,1,105.000004005432
229,296,32916,5,0,0:0:0:0:
221,215,33044,1,0,0:0:0:0:
264,173,33172,1,0,0:0:0:0:
323,145,33301,1,0,0:0:0:0:
320,211,33429,1,0,0:0:0:0:
320,211,33557,1,0,0:0:0:0:
320,211,33685,1,0,0:0:0:0:
260,297,33813,6,0,P|230:271|221:246,1,35
296,249,34070,2,0,P|266:223|257:198,1,35
216,135,34326,2,0,P|246:161|255:186,1,35
176,183,34583,2,0,P|206:209|215:234,2,35
366,261,34967,5,0,0:0:0:0:
365,204,35096,1,0,0:0:0:0:
365,146,35224,1,0,0:0:0:0:
364,89,35352,1,0,0:0:0:0:
295,259,35480,1,0,0:0:0:0:
294,202,35609,1,0,0:0:0:0:
294,144,35737,1,0,0:0:0:0:
293,87,35865,1,0,0:0:0:0:
217,259,35993,1,0,0:0:0:0:
216,202,36122,1,0,0:0:0:0:
216,144,36250,1,0,0:0:0:0:
215,87,36378,1,0,0:0:0:0:
152,183,36506,1,0,0:0:0:0:
152,183,36762,1,0,0:0:0:0:
98,178,37019,2,0,P|115:167|135:165,1,35
132,216,37275,6,0,P|148:239|210:234,1,70
347,119,37788,5,0,0:0:0:0:
346,155,37852,1,0,0:0:0:0:
346,190,37916,1,0,0:0:0:0:
346,226,37980,1,0,0:0:0:0:
345,260,38044,1,0,0:0:0:0:
254,57,38301,1,0,0:0:0:0:
252,116,38365,1,0,0:0:0:0:
252,173,38429,1,0,0:0:0:0:
252,233,38493,1,0,0:0:0:0:
251,288,38557,1,0,0:0:0:0:
144,96,38813,5,0,0:0:0:0:
96,248,38942,1,0,0:0:0:0:
252,214,39070,1,0,0:0:0:0:
360,96,39326,5,0,0:0:0:0:
408,248,39455,1,0,0:0:0:0:
252,214,39583,1,0,0:0:0:0:
240,128,39839,5,0,0:0:0:0:
248,152,39903,1,0,0:0:0:0:
248,184,39967,1,0,0:0:0:0:
280,196,40031,1,0,0:0:0:0:
304,208,40096,1,0,0:0:0:0:
227,78,40352,1,0,0:0:0:0:
241,121,40416,1,0,0:0:0:0:
245,181,40480,1,0,0:0:0:0:
298,199,40544,1,0,0:0:0:0:
340,220,40609,1,0,0:0:0:0:
280,112,41121,1,0,0:0:0:0:
280,112,41249,5,0,0:0:0:0:
280,112,41313,1,0,0:0:0:0:
280,112,41378,1,0,0:0:0:0:
280,112,41442,1,0,0:0:0:0:
280,112,41506,1,0,0:0:0:0:
280,112,41570,1,0,0:0:0:0:
208,240,41634,2,0,B|156:168|176:204,1,70
136,244,42019,1,0,0:0:0:0:
136,244,42083,1,0,0:0:0:0:
136,244,42147,1,0,0:0:0:0:
136,244,42211,1,0,0:0:0:0:
259,268,42339,2,0,L|281:257,1,17.5
240,213,42467,2,0,L|262:202,1,17.5
215,160,42595,2,0,L|237:149,1,17.5
194,107,42723,2,0,L|216:96,1,17.5
