osu file format v14

[General]
AudioFilename: audio.mp3
AudioLeadIn: 0
PreviewTime: 55051
Countdown: 0
SampleSet: Soft
StackLeniency: 0.4
Mode: 0
LetterboxInBreaks: 0
WidescreenStoryboard: 1

[Editor]
DistanceSpacing: 1
BeatDivisor: 4
GridSize: 4
TimelineZoom: 1.9

[Metadata]
Title:Mr.Q
TitleUnicode:Mr.Q
Artist:Jolin Tsai
ArtistUnicode:蔡依林
Creator:Yorita Yoshino
Version:Kanor's Insane
Source:
Tags:Lobelia [_Abhor_] Abhor chinese pop wu niang sandrew kanor
BeatmapID:2290452
BeatmapSetID:1027890

[Difficulty]
HPDrainRate:6
CircleSize:4.5
OverallDifficulty:7
ApproachRate:9
SliderMultiplier:1.6
SliderTickRate:1

[Events]
//Background and Video events
0,0,"jolin.png",0,0
//Break Periods
//Storyboard Layer 0 (Background)
//Storyboard Layer 1 (Fail)
//Storyboard Layer 2 (Pass)
//Storyboard Layer 3 (Foreground)
//Storyboard Layer 4 (Overlay)
//Storyboard Sound Samples

[TimingPoints]
-14,394.736842105263,4,2,2,40,1,0
11038,-100,4,2,2,40,0,0
15775,-100,4,2,2,20,0,0
17354,-100,4,2,2,50,0,0
22091,-133.333333333333,4,2,2,30,0,0
22683,-200,4,2,2,40,0,0
23670,-133.333333333333,4,2,2,40,0,0
37880,-133.333333333333,4,2,2,40,0,0
41334,-133.333333333333,4,2,2,5,0,0
41433,-133.333333333333,4,2,2,20,0,0
41828,-133.333333333333,4,2,2,40,0,0
48933,-133.333333333333,4,2,2,40,0,0
50512,-133.333333333333,4,2,2,50,0,0
52091,-133.333333333333,4,2,2,60,0,0
53670,-133.333333333333,4,2,2,70,0,0
54854,-83.3333333333333,4,2,2,70,0,0
55249,-100,4,2,2,70,0,0
55643,-100,4,2,2,70,0,0
56038,-100,4,2,2,70,0,0
64328,-100,4,2,2,70,0,0
64722,-100,4,2,2,70,0,0
65907,-100,4,2,2,70,0,0
66301,-100,4,2,2,70,0,0
67880,-100,4,2,2,50,0,0
72617,-100,4,2,2,20,0,0
74196,-133.333333333333,4,2,2,40,0,0
78933,-133.333333333333,4,2,2,20,0,0
79920,-133.333333333333,4,2,2,40,0,0
99459,-133.333333333333,4,2,2,40,0,0
101038,-133.333333333333,4,2,2,50,0,0
102617,-133.333333333333,4,2,2,60,0,0
104196,-133.333333333333,4,2,2,60,0,0
105380,-83.3333333333333,4,2,2,40,0,0
105775,-100,4,2,2,70,0,0
114854,-100,4,2,2,70,0,0
116828,-100,4,2,2,70,0,0
118407,-100,4,2,2,50,0,0
123143,-100,4,2,2,30,0,0
124722,-133.333333333333,4,2,2,50,0,0
126301,-200,4,2,2,40,0,0
127880,-100,4,2,2,30,0,0
131038,-100,4,2,2,50,0,0
154722,-100,4,2,2,60,0,0
156301,-100,4,2,2,40,0,0
161038,-200,4,2,2,40,0,0
162617,-100,4,2,2,40,0,0
167551,-100,4,2,2,60,0,0
168538,-83.3333333333333,4,2,2,40,0,0
168933,-100,4,2,2,70,0,0
178012,-100,4,2,2,70,0,0
178407,-100,4,2,2,70,0,0
179591,-100,4,2,2,70,0,0
179985,-100,4,2,2,70,0,0
190643,-100,4,2,2,70,0,0
192617,-100,4,2,2,70,0,0
194196,-133.333333333333,4,2,2,30,0,0

[Colours]
Combo1 : 0,0,255
Combo2 : 128,255,255
Combo3 : 0,128,255
Combo4 : 128,128,255

[HitObjects]
256,192,6301,12,0,10545,0:0:0:0:
0,104,11038,6,0,B|108:88|28:164|172:136,1,160,4|8,0:0|0:0,0:0:0:0:
300,236,11630,2,0,L|308:156,1,80,2|0,0:0|0:0,0:0:0:0:
216,64,12025,1,2,0:0:0:0:
212,60,12222,2,0,L|224:196,1,120,8|0,0:0|0:0,0:0:0:0:
224,200,12617,6,0,L|216:288,1,80,2|2,0:0|0:0,0:0:0:0:
208,352,13012,1,8,0:0:0:0:
148,308,13209,2,0,P|112:324|72:320,1,80,2|0,0:0|0:0,0:0:0:0:
208,352,13604,1,2,0:0:0:0:
280,320,13801,2,0,P|316:336|356:332,1,80,8|2,0:0|0:0,0:0:0:0:
424,360,14097,5,0,0:0:0:0:
424,360,14196,2,0,L|440:264,1,80,4|0,0:0|0:0,0:0:0:0:
416,136,14591,1,8,0:0:0:0:
432,208,14788,2,0,P|472:204|536:188,2,80,2|0|2,0:0|0:0|0:0,0:0:0:0:
400,64,15380,1,8,0:0:0:0:
400,64,15775,5,8,0:3:0:0:
512,12,15972,1,4,0:0:0:0:
476,72,16170,1,8,0:0:0:0:
368,0,16367,5,0,0:0:0:0:
276,92,16564,1,4,0:2:0:0:
296,24,16762,1,0,0:0:0:0:
300,156,16959,5,12,0:0:0:0:
184,208,17157,1,0,0:0:0:0:
68,144,17354,6,0,P|132:148|192:104,1,120,0|0,0:0|0:0,0:0:0:0:
178,120,17749,1,8,0:0:0:0:
104,0,17946,2,0,L|116:96,1,80,2|0,0:0|0:0,0:0:0:0:
40,212,18341,1,2,0:0:0:0:
40,212,18538,2,0,L|24:344,1,120,8|0,0:0|0:0,0:0:0:0:
24,352,18933,6,0,P|67:340|116:352,1,80,2|2,0:0|0:0,0:0:0:0:
248,352,19328,1,8,0:0:0:0:
248,352,19525,2,0,P|204:364|156:352,1,80,2|0,0:0|0:0,0:0:0:0:
136,212,19920,1,2,0:0:0:0:
136,212,20117,2,0,L|152:323,1,80,8|2,0:0|0:0,0:0:0:0:
220,276,20413,1,0,0:0:0:0:
220,276,20512,5,4,0:0:0:0:
292,292,20710,1,0,0:0:0:0:
328,232,20907,1,8,0:0:0:0:
196,144,21104,5,2,0:0:0:0:
316,80,21301,1,0,0:0:0:0:
428,176,21499,1,2,0:0:0:0:
384,112,21696,5,8,0:0:0:0:
440,72,21893,1,0,0:0:0:0:
508,92,22091,6,0,L|513:158,2,60.0000022888184,0|0|0,0:0|0:0|0:0,0:0:0:0:
452,184,22683,2,0,L|450:241,2,40,0|0|0,0:0|0:0|0:0,0:0:0:0:
512,252,23275,2,0,L|508:329,1,60,0|0,0:0|0:0,0:0:0:0:
508,311,23670,6,0,L|365:301,1,120.000004577637,4|8,0:0|0:0,0:0:0:0:
328,336,24262,2,0,P|318:304|330:261,1,60.0000022888184,2|0,0:0|0:0,0:0:0:0:
380,232,24657,1,2,0:0:0:0:
296,152,24854,1,8,0:0:0:0:
296,152,25249,5,2,0:0:0:0:
340,20,25446,2,0,P|367:15|399:15,1,60.0000022888184,2|8,0:0|0:0,0:0:0:0:
280,76,25841,2,0,P|232:84|184:60,1,90.0000034332277,2|0,0:0|0:0,0:0:0:0:
172,56,26235,1,2,0:0:0:0:
16,84,26433,2,0,P|64:76|112:100,1,90.0000034332277,8|0,0:0|0:0,0:0:0:0:
112,108,26828,6,0,L|112:192,1,60.0000022888184,4|0,0:0|0:0,0:0:0:0:
40,296,27222,1,8,0:0:0:0:
48,224,27420,2,0,B|76:224|100:256|100:256|136:224|176:244,1,120.000004577637,2|2,0:0|0:0,0:0:0:0:
148,312,28012,5,8,0:0:0:0:
168,304,28110,1,0,0:0:0:0:
204,296,28209,1,0,0:0:0:0:
260,308,28308,1,0,0:0:0:0:
304,360,28407,5,2,0:0:0:0:
456,332,28604,1,2,0:0:0:0:
472,344,28801,1,8,0:0:0:0:
376,316,28999,5,2,0:0:0:0:
360,304,29196,1,0,0:0:0:0:
396,384,29393,1,2,0:0:0:0:
392,220,29591,6,0,B|424:232|424:232|504:212,1,90.0000034332277,8|0,0:0|0:0,0:0:0:0:
488,204,29985,6,0,L|504:76,1,120.000004577637,4|8,0:0|0:0,0:0:0:0:
472,8,30578,2,0,P|440:32|432:76,1,60.0000022888184,2|0,0:0|0:0,0:0:0:0:
412,120,30972,1,2,0:0:0:0:
304,32,31170,1,8,0:0:0:0:
304,32,31564,5,2,0:0:0:0:
288,164,31761,2,0,P|315:168|347:168,1,60.0000022888184,2|8,0:0|0:0,0:0:0:0:
212,44,32156,2,0,P|196:88|220:140,1,90.0000034332277,2|0,0:0|0:0,0:0:0:0:
220,144,32550,1,2,0:0:0:0:
72,184,32749,2,0,P|88:228|64:280,1,90.0000034332277,8|0,0:0|0:0,0:0:0:0:
68,280,33143,6,0,L|-16:268,1,60.0000022888184,4|0,0:0|0:0,0:0:0:0:
88,352,33538,1,8,0:0:0:0:
160,240,33735,2,0,L|288:240,1,120.000004577637,2|2,0:0|0:0,0:0:0:0:
344,260,34328,5,8,0:0:0:0:
371,302,34426,1,0,0:0:0:0:
344,342,34525,1,0,0:0:0:0:
328,324,34624,1,0,0:0:0:0:
324,300,34722,5,2,0:0:0:0:
428,228,34920,1,2,0:0:0:0:
504,324,35117,1,8,0:0:0:0:
500,340,35216,1,2,0:0:0:0:
496,356,35314,1,2,0:0:0:0:
432,216,35512,5,2,0:0:0:0:
500,48,35709,1,2,0:0:0:0:
512,152,35907,1,8,0:0:0:0:
472,140,36005,1,2,0:0:0:0:
432,128,36104,1,2,0:0:0:0:
388,116,36203,1,2,0:0:0:0:
344,104,36301,6,0,P|408:84|408:12,1,120.000004577637,4|8,0:0|0:0,0:0:0:0:
352,36,36893,2,0,L|276:32,1,60.0000022888184,2|0,0:0|0:0,0:0:0:0:
232,64,37288,1,2,0:0:0:0:
104,168,37485,1,8,0:0:0:0:
104,168,37880,5,2,0:0:0:0:
44,76,38078,2,0,L|36:160,1,60.0000022888184,2|8,0:0|0:0,0:0:0:0:
164,28,38472,2,0,L|156:140,1,90.0000034332277,2|0,0:0|0:0,0:0:0:0:
172,132,38867,1,2,0:0:0:0:
256,224,39064,2,0,P|220:204|156:212,1,90.0000034332277,8|0,0:0|0:0,0:0:0:0:
156,216,39459,6,0,L|164:300,1,60.0000022888184,4|0,0:0|0:0,0:0:0:0:
16,372,39854,1,8,0:0:0:0:
64,320,40051,2,0,B|144:308|100:364|200:340,1,120.000004577637,2|2,0:0|0:0,0:0:0:0:
240,312,40643,5,8,0:0:0:0:
260,332,40742,1,0,0:0:0:0:
300,356,40841,1,0,0:0:0:0:
356,360,40939,1,2,0:0:0:0:
420,336,41038,5,2,0:0:0:0:
492,380,41235,1,0,0:0:0:0:
512,264,41433,1,8,0:0:0:0:
508,248,41828,5,0,0:0:0:0:
448,216,42025,1,0,0:0:0:0:
396,268,42222,1,8,0:0:0:0:
336,188,42420,1,8,0:0:0:0:
252,288,42617,6,0,P|188:288|148:228,1,120.000004577637,4|8,0:0|0:0,0:0:0:0:
88,280,43209,2,0,P|80:242|96:204,1,60.0000022888184,2|0,0:0|0:0,0:0:0:0:
140,176,43604,1,2,0:0:0:0:
88,36,43801,1,8,0:0:0:0:
88,36,44196,5,2,0:0:0:0:
20,124,44393,2,0,L|104:116,1,60.0000022888184,2|8,0:0|0:0,0:0:0:0:
252,96,44788,2,0,L|140:84,1,90.0000034332277,2|0,0:0|0:0,0:0:0:0:
148,84,45183,1,2,0:0:0:0:
312,4,45380,2,0,P|324:40|320:120,1,90.0000034332277,8|0,0:0|0:0,0:0:0:0:
324,112,45775,5,4,0:0:0:0:
256,200,45972,1,0,0:0:0:0:
384,264,46170,1,8,0:0:0:0:
488,188,46367,2,0,P|476:132|504:48,1,120.000004577637,2|2,0:0|0:0,0:0:0:0:
508,4,46959,5,8,0:0:0:0:
440,16,47058,1,0,0:0:0:0:
400,72,47157,1,0,0:0:0:0:
396,104,47255,1,0,0:0:0:0:
400,120,47354,5,2,0:0:0:0:
352,204,47551,2,0,P|388:196|424:204,1,60.0000022888184,2|8,0:0|0:0,0:0:0:0:
512,320,47946,2,0,P|476:328|440:320,1,60.0000022888184,2|0,0:0|0:0,0:0:0:0:
392,360,48341,1,2,0:0:0:0:
288,240,48538,2,0,P|280:204|288:168,1,60.0000022888184,8|2,0:0|0:0,0:0:0:0:
312,16,48933,5,4,0:0:0:0:
256,68,49130,1,2,0:0:0:0:
188,32,49328,1,8,0:0:0:0:
256,68,49525,5,0,0:0:0:0:
177,140,49722,1,2,0:0:0:0:
82,90,49920,1,0,0:0:0:0:
12,188,50117,5,8,0:0:0:0:
12,188,50512,5,4,0:0:0:0:
64,264,50709,1,2,0:0:0:0:
40,352,50907,1,8,0:0:0:0:
64,264,51104,5,0,0:0:0:0:
192,256,51301,1,2,0:0:0:0:
264,360,51499,1,0,0:0:0:0:
444,336,51696,5,8,0:0:0:0:
444,336,52091,5,4,0:0:0:0:
420,240,52288,1,2,0:0:0:0:
492,168,52485,1,8,0:0:0:0:
420,240,52683,5,0,0:0:0:0:
386,105,52880,1,2,0:0:0:0:
487,4,53077,1,0,0:0:0:0:
386,105,53275,5,8,0:0:0:0:
348,100,53374,1,2,0:0:0:0:
304,80,53472,1,2,0:0:0:0:
260,84,53571,1,2,0:0:0:0:
216,76,53670,5,4,0:0:0:0:
180,8,53867,1,0,0:0:0:0:
156,152,54064,5,8,0:0:0:0:
82,129,54261,1,0,0:0:0:0:
84,252,54459,5,4,0:0:0:0:
15,288,54656,1,0,0:0:0:0:
180,156,54854,2,0,B|168:216|168:216|176:228|176:228|160:312,1,143.999995605469,4|0,0:0|0:0,0:0:0:0:
160,316,55249,6,0,P|204:316|236:348,1,80,4|0,0:0|0:0,0:0:0:0:
440,212,55643,2,0,L|432:264,1,40,8|0,0:0|0:0,0:0:0:0:
336,364,55841,1,0,0:0:0:0:
456,316,56038,2,0,P|412:320|364:244,1,120,0|0,0:0|0:0,0:0:0:0:
352,248,56433,2,0,P|316:232|268:240,1,80,8|0,0:0|0:0,0:0:0:0:
120,144,56828,5,2,0:0:0:0:
184,192,57025,1,2,0:0:0:0:
252,156,57222,1,8,0:0:0:0:
112,236,57420,1,2,0:0:0:0:
8,120,57617,5,2,0:0:0:0:
176,16,57814,1,0,0:0:0:0:
176,40,57913,1,0,0:0:0:0:
176,64,58012,2,0,B|252:84|212:32|312:52,1,120,4|0,0:0|0:0,0:0:0:0:
328,28,58407,6,0,L|332:136,1,80,4|0,0:0|0:0,0:0:0:0:
428,164,58801,1,8,0:0:0:0:
504,56,58999,1,0,0:0:0:0:
488,220,59196,2,0,B|428:244|428:244|364:220,1,120,0|0,0:0|0:0,0:0:0:0:
356,216,59591,1,8,0:0:0:0:
320,276,59788,1,0,0:0:0:0:
328,344,59985,5,2,0:0:0:0:
244,272,60183,1,2,0:0:0:0:
160,340,60380,1,8,0:0:0:0:
220,176,60578,1,2,0:0:0:0:
68,216,60775,2,0,P|93:241|166:235,1,80,2|0,0:0|0:0,0:0:0:0:
0,344,61170,2,0,B|12:304|12:304|0:236,1,80,4|0,0:0|0:0,0:0:0:0:
8,160,61466,5,0,0:0:0:0:
8,160,61564,2,0,B|-4:120|-4:120|8:52,1,80,4|0,0:0|0:0,0:0:0:0:
128,16,61959,1,8,0:0:0:0:
216,112,62157,1,0,0:0:0:0:
68,116,62354,2,0,B|136:128|112:80|208:112,1,120,0|0,0:0|0:0,0:0:0:0:
216,112,62749,1,8,0:0:0:0:
280,80,62946,1,0,0:0:0:0:
352,100,63143,5,2,0:0:0:0:
440,256,63341,1,2,0:0:0:0:
448,144,63538,1,8,0:0:0:0:
336,280,63735,1,2,0:0:0:0:
196,184,63933,5,2,0:0:0:0:
100,328,64130,1,0,0:0:0:0:
76,320,64229,1,0,0:0:0:0:
52,312,64328,1,4,0:0:0:0:
52,312,64722,6,0,P|36:280|48:212,1,80,4|2,0:0|0:0,0:0:0:0:
96,180,65117,1,8,0:0:0:0:
256,320,65314,2,0,P|236:349|171:373,1,80,2|2,0:0|0:0,0:0:0:0:
126,343,65709,1,2,0:0:0:0:
172,140,65907,2,0,P|207:142|260:186,1,80,4|0,0:0|0:0,0:0:0:0:
256,241,66302,5,4,0:0:0:0:
340,276,66499,1,0,0:0:0:0:
420,228,66696,1,8,0:0:0:0:
400,124,66893,1,0,0:0:0:0:
384,116,66992,1,0,0:0:0:0:
364,108,67091,5,0,0:0:0:0:
340,256,67288,1,0,0:0:0:0:
512,200,67485,1,8,0:0:0:0:
488,348,67682,1,0,0:0:0:0:
340,236,67880,6,0,B|232:252|312:176|168:204,1,160,4|8,0:0|0:0,0:0:0:0:
216,268,68472,2,0,L|208:348,1,80,2|0,0:0|0:0,0:0:0:0:
136,160,68867,1,2,0:0:0:0:
136,160,69064,2,0,L|0:172,1,120,8|0,0:0|0:0,0:0:0:0:
16,170,69459,6,0,L|104:178,1,80,2|2,0:0|0:0,0:0:0:0:
120,368,69854,1,8,0:0:0:0:
64,264,70051,2,0,P|48:300|52:340,1,80,2|0,0:0|0:0,0:0:0:0:
120,368,70446,1,2,0:0:0:0:
216,268,70643,2,0,P|219:228|203:192,1,80,8|2,0:0|0:0,0:0:0:0:
160,128,70939,5,0,0:0:0:0:
160,128,71038,2,0,L|256:112,1,80,4|0,0:0|0:0,0:0:0:0:
276,48,71433,1,8,0:0:0:0:
464,72,71630,2,0,P|468:112|484:176,2,80,2|0|2,0:0|0:0|0:0,0:0:0:0:
304,148,72222,1,8,0:0:0:0:
256,192,72617,12,0,73801,0:0:0:0:
480,104,74196,6,4,B|464:132|464:132|432:24|432:24|488:52,1,180.000006866455,8|8,0:0|0:0,0:0:0:0:
32,104,75775,2,0,B|48:132|48:132|80:24|80:24|24:52,2,180.000006866455,8|8|8,0:0|0:0|0:0,0:0:0:0:
268,12,77354,6,0,L|256:216,1,180.000006866455,8|8,0:0|0:0,0:0:0:0:
257,191,78933,5,0,0:0:0:0:
264,212,79328,1,0,0:0:0:0:
272,228,79722,5,0,0:0:0:0:
228,360,79920,1,2,0:0:0:0:
164,288,80117,2,0,L|232:284,1,60.0000022888184,8|2,0:0|0:0,0:0:0:0:
372,372,80512,6,0,L|244:356,1,120.000004577637,4|8,0:0|0:0,0:0:0:0:
316,336,81105,2,0,P|342:306|387:302,1,60.0000022888184,2|0,0:0|0:0,0:0:0:0:
424,264,81499,1,2,0:0:0:0:
512,376,81697,1,8,0:0:0:0:
512,376,82091,5,2,0:0:0:0:
444,288,82288,2,0,P|471:292|503:292,1,60.0000022888184,2|8,0:0|0:0,0:0:0:0:
356,124,82683,2,0,P|340:168|364:220,1,90.0000034332277,2|0,0:0|0:0,0:0:0:0:
360,224,83077,1,2,0:0:0:0:
508,0,83276,2,0,P|524:44|500:96,1,90.0000034332277,8|0,0:0|0:0,0:0:0:0:
508,96,83670,6,0,L|424:84,1,60.0000022888184,4|0,0:0|0:0,0:0:0:0:
400,32,84065,1,8,0:0:0:0:
248,128,84262,2,0,P|312:148|368:104,1,120.000004577637,2|2,0:0|0:0,0:0:0:0:
296,72,84855,5,8,0:0:0:0:
265,30,84953,1,0,0:0:0:0:
217,35,85052,1,0,0:0:0:0:
198,58,85151,1,0,0:0:0:0:
192,72,85249,5,2,0:0:0:0:
192,72,85644,1,0,0:0:0:0:
92,20,85841,5,2,0:0:0:0:
76,16,85939,1,2,0:0:0:0:
60,12,86039,1,2,0:0:0:0:
68,144,86235,5,2,0:0:0:0:
84,140,86333,1,2,0:0:0:0:
100,136,86433,2,0,L|92:188,1,30.0000011444092,2|2,0:0|0:0,0:0:0:0:
228,192,86630,2,0,L|220:244,1,30.0000011444092,2|2,0:0|0:0,0:0:0:0:
84,232,86828,6,0,P|148:212|148:140,1,120.000004577637,4|8,0:0|0:0,0:0:0:0:
84,232,87420,2,0,L|8:228,1,60.0000022888184,2|0,0:0|0:0,0:0:0:0:
8,296,87815,1,2,0:0:0:0:
112,376,88012,1,8,0:0:0:0:
112,376,88407,5,2,0:0:0:0:
192,296,88605,2,0,L|184:380,1,60.0000022888184,0|8,0:0|0:0,0:0:0:0:
320,272,88999,2,0,L|328:384,1,90.0000034332277,2|0,0:0|0:0,0:0:0:0:
256,332,89394,1,2,0:0:0:0:
256,192,89591,2,0,L|264:80,1,90.0000034332277,8|0,0:0|0:0,0:0:0:0:
260,84,89986,6,0,L|268:168,1,60.0000022888184,4|0,0:0|0:0,0:0:0:0:
336,180,90381,1,10,0:0:0:0:
512,112,90578,2,0,B|432:100|476:156|376:132,1,120.000004577637,2|2,0:0|0:0,0:0:0:0:
500,180,91170,5,8,0:0:0:0:
504,204,91269,1,0,0:0:0:0:
512,252,91368,1,0,0:0:0:0:
496,304,91466,1,0,0:0:0:0:
464,336,91564,5,2,0:0:0:0:
376,272,91762,1,0,0:0:0:0:
396,256,91959,1,8,0:0:0:0:
428,264,92157,5,2,0:0:0:0:
308,372,92354,1,2,0:0:0:0:
256,328,92551,1,2,0:0:0:0:
204,372,92749,1,8,0:0:0:0:
68,208,92946,1,8,0:0:0:0:
0,360,93143,6,2,P|64:360|104:300,1,120.000004577637,4|8,0:0|0:0,1:1:0:0:
164,288,93735,2,0,P|172:250|156:212,1,60.0000022888184,2|0,0:0|0:0,0:0:0:0:
180,160,94130,1,2,0:0:0:0:
36,24,94327,1,8,0:0:0:0:
36,24,94722,5,2,0:0:0:0:
92,116,94919,2,0,L|8:108,1,60.0000022888184,2|8,0:0|0:0,0:0:0:0:
152,60,95314,6,0,L|264:48,1,90.0000034332277,2|0,0:0|0:0,0:0:0:0:
272,44,95709,1,2,0:0:0:0:
440,16,95906,2,0,P|452:52|448:132,1,90.0000034332277,8|0,0:0|0:0,0:0:0:0:
444,124,96301,5,2,0:0:0:0:
368,60,96498,1,0,0:0:0:0:
336,188,96696,1,8,0:0:0:0:
508,288,96893,2,0,P|520:232|492:148,1,120.000004577637,2|0,0:0|0:0,0:0:0:0:
448,232,97485,5,8,0:0:0:0:
380,244,97584,1,0,0:0:0:0:
340,300,97683,1,0,0:0:0:0:
336,332,97781,1,0,0:0:0:0:
340,348,97880,5,2,0:0:0:0:
468,344,98077,2,0,P|438:321|402:313,1,60.0000022888184,2|8,0:0|0:0,0:0:0:0:
212,352,98472,2,0,P|241:329|277:321,1,60.0000022888184,2|2,0:0|0:0,0:0:0:0:
340,300,98867,5,2,0:0:0:0:
248,228,99064,2,0,P|256:192|248:156,1,60.0000022888184,8|0,0:0|0:0,0:0:0:0:
255,26,99459,5,4,0:0:0:0:
109,58,99656,1,0,0:0:0:0:
192,80,99854,1,8,0:0:0:0:
255,26,100051,5,2,0:0:0:0:
401,58,100248,1,0,0:0:0:0:
318,80,100446,1,2,0:0:0:0:
256,128,100643,5,8,0:0:0:0:
192,172,101038,5,4,0:0:0:0:
46,204,101235,1,0,0:0:0:0:
129,226,101433,1,8,0:0:0:0:
320,172,101630,5,2,0:0:0:0:
466,204,101827,1,0,0:0:0:0:
383,226,102025,1,2,0:0:0:0:
255,26,102222,5,8,0:0:0:0:
129,226,102617,5,4,0:0:0:0:
161,372,102814,1,0,0:0:0:0:
183,289,103012,1,8,0:0:0:0:
383,226,103209,5,2,0:0:0:0:
351,372,103406,1,0,0:0:0:0:
329,289,103604,1,2,0:0:0:0:
256,8,103801,5,8,0:0:0:0:
248,36,103900,1,0,0:0:0:0:
256,80,103998,1,0,0:0:0:0:
272,128,104097,1,0,0:0:0:0:
260,184,104196,5,4,0:0:0:0:
260,184,104393,1,0,0:0:0:0:
148,308,104590,5,8,0:0:0:0:
148,308,104788,1,0,0:0:0:0:
44,160,104985,5,4,0:0:0:0:
0,336,105183,1,0,0:0:0:0:
92,232,105380,2,0,B|152:220|152:220|164:228|164:228|248:212,1,143.999995605469,12|0,0:0|0:0,0:0:0:0:
288,144,105775,6,0,P|244:144|212:112,1,80,4|0,0:0|0:0,0:0:0:0:
260,32,106169,2,0,L|272:84,1,40,8|0,0:0|0:0,0:0:0:0:
320,216,106367,1,0,0:0:0:0:
468,104,106564,2,0,P|424:100|376:176,1,120,0|0,0:0|0:0,0:0:0:0:
396,160,106959,2,0,L|404:248,1,80,8|0,0:0|0:0,0:0:0:0:
444,368,107354,5,2,0:0:0:0:
452,296,107551,1,2,0:0:0:0:
512,336,107748,1,8,0:0:0:0:
380,320,107946,1,2,0:0:0:0:
260,376,108143,5,2,0:0:0:0:
292,300,108340,1,0,0:0:0:0:
292,292,108439,1,0,0:0:0:0:
292,284,108538,2,0,B|216:264|256:316|156:296,1,120,4|0,0:0|0:0,0:0:0:0:
160,296,108933,6,0,P|188:288|264:284,1,80,4|0,0:0|0:0,0:0:0:0:
140,296,109327,1,8,0:0:0:0:
76,380,109525,1,0,0:0:0:0:
0,224,109722,2,0,B|28:196|28:196|32:280,1,120,0|0,0:0|0:0,0:0:0:0:
32,300,110117,1,8,0:0:0:0:
104,228,110314,1,0,0:0:0:0:
12,128,110511,5,2,0:0:0:0:
144,56,110709,1,2,0:0:0:0:
60,56,110906,1,8,0:0:0:0:
180,132,111104,1,2,0:0:0:0:
344,36,111301,2,0,P|319:11|246:17,1,80,2|0,0:0|0:0,0:0:0:0:
200,136,111696,2,0,B|188:176|188:176|200:244,1,80,4|0,0:0|0:0,0:0:0:0:
232,280,111992,5,0,0:0:0:0:
232,280,112090,2,0,B|272:268|272:268|340:280,1,80,4|0,0:0|0:0,0:0:0:0:
364,332,112485,1,8,0:0:0:0:
512,312,112683,1,0,0:0:0:0:
430,364,112880,2,0,B|456:292|408:316|420:248,1,120,0|0,0:0|0:0,0:0:0:0:
424,236,113275,1,8,0:0:0:0:
448,168,113472,1,0,0:0:0:0:
512,116,113669,5,2,0:0:0:0:
472,176,113867,1,2,0:0:0:0:
292,80,114064,1,10,0:0:0:0:
332,212,114261,1,2,0:0:0:0:
368,132,114459,5,2,0:0:0:0:
224,8,114656,1,0,0:0:0:0:
216,32,114755,1,0,0:0:0:0:
208,56,114854,1,4,0:0:0:0:
208,56,115248,6,0,P|176:72|108:60,1,80,4|2,0:0|0:0,0:0:0:0:
68,32,115643,1,8,0:0:0:0:
0,172,115841,6,0,P|32:188|100:176,1,80,2|2,0:0|0:0,0:0:0:0:
140,148,116236,1,0,0:0:0:0:
240,280,116433,6,0,P|208:296|140:284,1,80,4|0,0:0|0:0,0:0:0:0:
100,256,116828,1,4,0:0:0:0:
68,328,117025,1,0,0:0:0:0:
136,372,117222,1,8,0:0:0:0:
240,280,117419,1,0,0:0:0:0:
256,288,117518,1,0,0:0:0:0:
276,296,117617,5,4,0:0:0:0:
344,352,117814,1,0,0:0:0:0:
460,360,118011,1,4,0:0:0:0:
512,232,118209,1,0,0:0:0:0:
340,192,118407,6,0,B|448:176|368:252|512:224,1,160,4|8,0:0|0:0,0:0:0:0:
486,155,118999,2,0,B|378:139|458:215|314:187,1,160,2|2,0:0|0:0,0:0:0:0:
264,192,119591,1,8,0:0:0:0:
264,192,119985,5,2,0:0:0:0:
188,156,120183,2,0,P|176:116|192:64,1,80,2|8,0:0|0:0,0:0:0:0:
264,192,120578,2,0,L|88:184,1,160,2|2,0:0|0:0,0:0:0:0:
104,184,121170,2,0,P|160:200|148:300,1,160,8|4,0:0|0:0,0:0:0:0:
4,156,121959,5,8,0:0:0:0:
32,88,122157,2,0,L|20:-24,2,80,2|0|2,0:0|0:0|0:0,0:0:0:0:
68,180,122749,5,8,0:0:0:0:
56,213,122847,1,0,0:0:0:0:
44,247,122946,1,0,0:0:0:0:
52,267,123044,1,0,0:0:0:0:
58,285,123143,5,8,0:3:0:0:
0,340,123341,1,4,0:0:0:0:
0,352,123538,1,8,0:0:0:0:
140,300,123735,5,0,0:0:0:0:
84,356,123933,1,4,0:2:0:0:
84,368,124130,1,0,0:0:0:0:
220,312,124328,2,0,P|232:268|216:224,1,80,8|0,0:0|0:0,0:0:0:0:
216,120,124722,6,0,P|253:164|311:163,1,120.000004577637,4|0,0:0|0:0,0:0:0:0:
319,151,125314,2,0,P|260:151|223:107,1,120.000004577637,2|2,0:0|0:0,0:0:0:0:
236,36,125907,1,0,0:0:0:0:
236,36,126301,6,0,L|276:32,1,40,2|2,0:0|0:0,0:0:0:0:
275,32,126893,2,0,L|363:24,1,80,2|2,0:0|0:0,0:0:0:0:
428,36,127485,2,0,P|444:76|428:120,1,80,2|4,0:0|0:3,0:0:0:0:
256,192,129459,12,0,130643,0:0:0:0:
512,192,131038,6,0,P|416:208|368:160,1,160,4|8,0:0|0:0,0:0:0:0:
252,104,131630,1,2,0:0:0:0:
331,97,131828,1,0,1:0:0:0:
300,164,132025,1,2,0:0:0:0:
200,48,132222,2,0,L|72:52,1,120,8|0,0:0|0:0,0:0:0:0:
24,100,132617,6,0,P|97:77|154:128,1,160,4|8,0:3|0:0,0:0:0:0:
240,220,133209,2,0,P|166:197|109:248,1,160,4|0,0:3|0:0,0:0:0:0:
160,368,133801,1,8,0:0:0:0:
180,272,133999,1,8,0:0:0:0:
16,352,134196,6,0,P|28:272|0:184,1,160,4|8,0:0|0:0,0:0:0:0:
152,8,134788,2,0,P|140:88|168:176,1,160,4|0,0:3|0:0,0:0:0:0:
180,272,135380,2,0,L|168:200,1,40,8|0,0:0|0:0,0:0:0:0:
260,232,135578,2,0,L|248:160,1,40,8|0,0:0|0:0,0:0:0:0:
344,252,135775,6,0,P|356:292|348:352,1,80,4|0,0:3|0:0,0:0:0:0:
352,232,136170,1,8,0:0:0:0:
304,136,136367,1,8,0:0:0:0:
448,80,136564,2,0,P|460:40|452:-20,1,80,0|0,0:0|0:0,0:0:0:0:
356,208,136959,2,0,P|400:192|476:228,1,120,8|0,0:0|0:0,0:0:0:0:
504,152,137354,6,0,B|496:336,1,160,4|8,0:0|0:0,0:0:0:0:
344,304,137946,1,2,0:0:0:0:
420,340,138144,1,0,1:0:0:0:
289,361,138341,1,2,0:0:0:0:
104,288,138538,2,0,P|32:284|0:324,1,120,8|0,0:0|0:0,0:0:0:0:
64,348,138933,6,0,L|84:181,1,160,4|8,0:3|0:0,0:0:0:0:
0,44,139525,2,0,P|53:94|140:61,1,160,4|0,0:3|0:0,0:0:0:0:
304,64,140117,1,8,0:0:0:0:
260,0,140315,1,8,0:0:0:0:
200,168,140512,6,0,L|219:326,1,160,4|8,0:0|0:0,0:0:0:0:
220,144,141104,2,0,L|239:302,1,160,4|0,0:3|0:0,0:0:0:0:
296,348,141696,5,8,0:0:0:0:
320,344,141795,1,0,0:0:0:0:
352,340,141894,1,8,0:0:0:0:
376,336,141992,1,0,0:0:0:0:
400,348,142091,6,0,P|388:308|404:264,1,80,4|0,0:3|0:0,0:0:0:0:
496,124,142486,1,8,0:0:0:0:
508,228,142683,1,8,0:0:0:0:
328,256,142880,2,0,P|347:219|390:199,1,80,0|0,0:0|0:0,0:0:0:0:
504,40,143275,2,0,B|460:56|460:56|384:40,1,120,8|0,0:0|0:0,0:0:0:0:
372,36,143670,6,0,P|276:20|228:68,1,160,4|8,0:0|0:0,0:0:0:0:
116,108,144262,1,2,0:0:0:0:
191,115,144460,1,0,1:0:0:0:
160,48,144657,1,2,0:0:0:0:
136,200,144854,2,0,B|56:208|96:168|16:168,1,120,8|0,0:0|0:0,0:0:0:0:
24,168,145249,6,0,P|-8:232|24:312,1,160,4|8,0:3|0:0,0:0:0:0:
244,360,145841,2,0,P|276:296|244:216,1,160,4|0,0:3|0:0,0:0:0:0:
72,360,146433,1,8,0:0:0:0:
200,288,146631,1,8,0:0:0:0:
356,312,146828,6,0,P|436:300|524:328,1,160,4|8,0:0|0:0,0:0:0:0:
512,144,147420,2,0,P|432:156|344:128,1,160,4|0,0:3|0:0,0:0:0:0:
328,24,148012,2,0,L|340:92,1,40,8|0,0:0|0:0,0:0:0:0:
320,204,148209,2,0,L|308:272,1,40,8|0,0:0|0:0,0:0:0:0:
356,135,148407,6,0,P|396:123|456:131,1,80,4|0,0:3|0:0,0:0:0:0:
328,132,148802,1,8,0:0:0:0:
220,176,148999,1,8,0:0:0:0:
88,60,149196,6,0,P|48:48|-12:56,2,80,2|2|8,0:0|0:0|0:0,0:0:0:0:
0,340,149986,6,0,B|184:328,1,160,4|8,0:0|0:0,0:0:0:0:
296,280,150577,1,2,0:0:0:0:
332,356,150775,1,0,1:0:0:0:
353,225,150972,1,2,0:0:0:0:
488,324,151170,2,0,P|416:328|384:288,1,120,8|0,0:0|0:0,0:0:0:0:
386,295,151565,6,0,L|406:128,1,160,4|8,0:3|0:0,0:0:0:0:
144,56,152157,2,0,P|197:6|284:39,1,160,4|0,0:3|0:0,0:0:0:0:
304,176,152749,1,8,0:0:0:0:
344,76,152947,1,8,0:0:0:0:
296,204,153143,6,0,B|188:188|268:264|124:236,1,160,4|8,0:0|0:0,0:0:0:0:
0,308,153735,2,0,B|108:292|28:368|172:340,1,160,4|0,0:3|0:0,0:0:0:0:
248,344,154327,5,8,0:0:0:0:
272,340,154427,1,0,0:0:0:0:
304,336,154525,1,8,0:0:0:0:
328,332,154624,1,0,0:0:0:0:
352,344,154722,6,0,L|440:356,1,80,4|0,0:0|0:0,0:0:0:0:
392,196,155117,2,0,L|480:184,1,80,4|0,0:0|0:0,0:0:0:0:
483,169,155512,2,0,L|404:180,1,80,4|0,0:0|0:0,0:0:0:0:
443,338,155907,2,0,L|364:328,1,80,4|0,0:0|0:0,0:0:0:0:
212,248,156301,6,0,P|268:244|296:216,1,80,8|0,0:0|0:0,0:0:0:0:
316,164,156597,1,0,0:0:0:0:
316,164,156696,2,0,L|296:80,1,80,0|8,0:0|0:0,0:0:0:0:
172,16,157091,1,0,0:0:0:0:
116,80,157288,1,8,0:0:0:0:
124,92,157485,1,0,0:0:0:0:
24,84,157683,2,0,P|12:44|20:-4,1,80,0|8,0:0|0:0,0:0:0:0:
76,164,158078,5,0,0:0:0:0:
76,164,158176,1,0,0:0:0:0:
76,164,158275,2,0,P|88:204|80:252,1,80,0|8,0:0|0:0,0:0:0:0:
0,356,158670,1,0,0:0:0:0:
80,328,158867,1,8,0:0:0:0:
80,312,159064,1,0,0:0:0:0:
168,356,159262,2,0,P|208:368|256:360,1,80,0|8,0:0|0:0,0:0:0:0:
392,320,159657,5,0,0:0:0:0:
392,320,159755,1,0,0:0:0:0:
392,320,159854,2,0,L|304:324,1,80,0|8,0:0|0:0,0:0:0:0:
252,240,160249,1,0,0:0:0:0:
296,176,160446,1,8,0:0:0:0:
244,120,160643,5,2,0:0:0:0:
244,104,160742,1,2,0:0:0:0:
244,88,160841,1,2,0:0:0:0:
244,72,160939,1,2,0:0:0:0:
256,32,161038,6,0,P|296:40|344:24,1,80,8|2,0:0|0:0,0:0:0:0:
348,24,161630,1,2,0:0:0:0:
368,20,161828,1,2,0:0:0:0:
388,20,162025,5,8,0:0:0:0:
448,88,162222,1,2,0:0:0:0:
512,24,162420,1,8,0:0:0:0:
432,104,162617,6,0,P|440:128|444:204,1,80,8|0,0:0|0:0,0:0:0:0:
468,336,163012,1,0,0:0:0:0:
508,264,163209,1,8,0:0:0:0:
488,256,163308,1,0,0:0:0:0:
476,260,163407,1,0,0:0:0:0:
404,288,163604,1,8,0:0:0:0:
312,248,163801,1,0,0:0:0:0:
256,336,163999,2,0,L|160:324,1,80,0|8,0:0|0:0,0:0:0:0:
8,352,164393,5,0,0:0:0:0:
80,376,164591,1,0,0:0:0:0:
100,296,164788,1,8,0:0:0:0:
100,272,164887,1,0,0:0:0:0:
96,260,164985,1,0,0:0:0:0:
28,220,165183,1,8,0:0:0:0:
88,136,165380,1,0,0:0:0:0:
16,52,165578,1,0,0:0:0:0:
172,16,165775,5,8,0:0:0:0:
172,16,165972,1,0,0:0:0:0:
256,112,166170,1,0,0:0:0:0:
408,28,166367,1,8,0:0:0:0:
432,40,166466,1,0,0:0:0:0:
436,52,166564,1,0,0:0:0:0:
484,192,166762,1,8,0:0:0:0:
512,112,166959,2,0,L|468:116,1,40,2|2,0:0|0:0,0:0:0:0:
408,168,167157,2,0,L|364:172,1,40,2|2,0:0|0:0,0:0:0:0:
296,208,167354,5,8,0:0:0:0:
368,312,167551,1,8,0:0:0:0:
504,288,167749,1,8,0:0:0:0:
348,320,167946,5,0,0:0:0:0:
328,328,168045,1,0,0:0:0:0:
320,344,168143,1,8,0:0:0:0:
212,264,168341,1,0,0:0:0:0:
36,368,168538,2,0,P|108:368|120:268,1,143.999995605469,4|0,0:0|0:0,0:0:0:0:
136,288,168933,6,0,P|136:244|104:212,1,80,4|0,0:0|0:0,0:0:0:0:
32,264,169327,2,0,L|84:276,1,40,8|0,0:0|0:0,0:0:0:0:
0,196,169525,1,0,0:0:0:0:
112,88,169722,2,0,P|68:92|20:16,1,120,0|0,0:0|0:0,0:0:0:0:
12,32,170117,2,0,L|4:120,1,80,8|0,0:0|0:0,0:0:0:0:
188,72,170512,5,2,0:0:0:0:
260,80,170709,1,2,0:0:0:0:
216,140,170906,1,8,0:0:0:0:
232,8,171104,1,2,0:0:0:0:
352,152,171301,5,2,0:0:0:0:
488,120,171498,1,0,0:0:0:0:
496,120,171597,1,0,0:0:0:0:
504,120,171696,2,0,B|524:44|472:84|492:-16,1,120,4|0,0:0|0:0,0:0:0:0:
488,5,172091,6,0,P|460:13|384:17,1,80,4|0,0:0|0:0,0:0:0:0:
348,72,172485,1,8,0:0:0:0:
416,200,172683,1,0,0:0:0:0:
328,344,172880,2,0,B|308:364|308:364|300:252,1,120,0|0,0:0|0:0,0:0:0:0:
300,248,173275,1,8,0:0:0:0:
392,296,173472,1,0,0:0:0:0:
296,224,173669,5,2,0:0:0:0:
212,312,173867,1,2,0:0:0:0:
88,268,174064,1,8,0:0:0:0:
12,368,174262,1,2,0:0:0:0:
88,268,174459,2,0,L|104:352,1,80,2|0,0:0|0:0,0:0:0:0:
0,216,174854,2,0,B|12:176|12:176|0:108,1,80,4|0,0:0|0:0,0:0:0:0:
80,56,175150,5,0,0:0:0:0:
80,56,175248,2,0,B|40:68|40:68|-28:56,1,80,4|0,0:0|0:0,0:0:0:0:
184,0,175643,1,8,0:0:0:0:
188,152,175841,1,0,0:0:0:0:
156,70,176038,2,0,B|228:96|204:48|272:60,1,120,0|0,0:0|0:0,0:0:0:0:
296,64,176433,1,8,0:0:0:0:
376,16,176630,1,0,0:0:0:0:
396,16,176827,5,2,0:0:0:0:
316,68,177025,1,2,0:0:0:0:
320,176,177222,1,8,0:0:0:0:
420,256,177419,1,2,0:0:0:0:
512,156,177617,5,2,0:0:0:0:
316,68,177814,1,0,0:0:0:0:
300,76,177913,1,0,0:0:0:0:
284,84,178012,1,4,0:0:0:0:
284,84,178406,6,0,P|268:116|280:184,1,80,4|2,0:0|0:0,0:0:0:0:
288,232,178801,1,2,0:0:0:0:
158,162,178999,2,0,P|177:191|242:215,1,80,2|2,0:0|0:0,0:0:0:0:
288,232,179394,1,2,0:0:0:0:
160,308,179591,2,0,P|195:305|248:261,1,80,4|0,0:0|0:0,0:0:0:0:
288,232,179986,5,4,0:0:0:0:
388,320,180183,1,0,0:0:0:0:
508,240,180380,1,8,0:0:0:0:
384,304,180578,1,0,0:0:0:0:
380,288,180676,1,0,0:0:0:0:
388,260,180775,5,4,0:0:0:0:
420,196,180972,1,0,0:0:0:0:
384,128,181170,1,4,0:0:0:0:
440,48,181367,1,0,0:0:0:0:
344,0,181564,6,0,P|300:0|268:32,1,80,4|0,0:0|0:0,0:0:0:0:
112,128,181959,2,0,L|120:180,1,40,8|0,0:0|0:0,0:0:0:0:
216,280,182156,1,0,0:0:0:0:
96,232,182353,2,0,P|140:236|188:160,1,120,0|0,0:0|0:0,0:0:0:0:
196,160,182748,2,0,P|232:144|280:152,1,80,8|0,0:0|0:0,0:0:0:0:
448,192,183143,5,2,0:0:0:0:
384,240,183340,1,2,0:0:0:0:
316,204,183537,1,8,0:0:0:0:
392,312,183735,1,2,0:0:0:0:
476,176,183932,5,2,0:0:0:0:
428,24,184129,1,0,0:0:0:0:
428,48,184228,1,0,0:0:0:0:
428,72,184327,2,0,B|352:92|392:40|292:60,1,120,4|0,0:0|0:0,0:0:0:0:
284,16,184722,6,0,L|280:124,1,80,4|0,0:0|0:0,0:0:0:0:
188,183,185116,1,8,0:0:0:0:
112,75,185314,1,0,0:0:0:0:
8,200,185511,2,0,B|68:224|68:224|132:200,1,120,0|0,0:0|0:0,0:0:0:0:
188,183,185906,1,8,0:0:0:0:
224,256,186103,1,0,0:0:0:0:
200,328,186300,5,2,0:0:0:0:
304,368,186498,1,2,0:0:0:0:
400,304,186695,1,8,0:0:0:0:
420,160,186893,1,2,0:0:0:0:
504,360,187090,2,0,P|479:335|406:341,1,80,2|0,0:0|0:0,0:0:0:0:
300,264,187485,2,0,B|288:224|288:224|300:156,1,80,4|0,0:0|0:0,0:0:0:0:
344,128,187781,5,0,0:0:0:0:
344,128,187880,2,0,B|356:88|356:88|344:20,1,80,4|0,0:0|0:0,0:0:0:0:
512,12,188274,1,8,0:0:0:0:
456,96,188472,1,0,0:0:0:0:
504,204,188669,2,0,B|436:216|460:168|364:200,1,120,0|0,0:0|0:0,0:0:0:0:
368,200,189064,1,8,0:0:0:0:
304,236,189261,1,0,0:0:0:0:
232,216,189458,5,2,0:0:0:0:
140,72,189656,1,2,0:0:0:0:
136,172,189853,1,8,0:0:0:0:
248,36,190050,1,2,0:0:0:0:
212,232,190248,5,2,0:0:0:0:
12,192,190445,1,0,0:0:0:0:
8,164,190544,1,0,0:0:0:0:
16,152,190643,1,4,0:0:0:0:
16,152,191037,6,0,P|32:120|20:52,1,80,4|2,0:0|0:0,0:0:0:0:
31,76,191433,1,2,0:0:0:0:
80,264,191630,2,0,P|45:266|-8:310,1,80,2|2,0:0|0:0,0:0:0:0:
7,288,192024,1,2,0:0:0:0:
156,160,192222,2,0,P|176:189|241:213,1,80,4|0,0:0|0:0,0:0:0:0:
368,216,192617,5,4,0:0:0:0:
296,180,192814,1,0,0:0:0:0:
296,256,193011,1,8,0:0:0:0:
400,288,193208,1,0,0:0:0:0:
416,280,193307,1,0,0:0:0:0:
436,272,193406,5,0,0:0:0:0:
504,188,193603,1,0,0:0:0:0:
472,64,193800,1,8,0:0:0:0:
376,200,193999,1,0,0:0:0:0:
276,36,194196,6,0,B|208:56|228:-4|156:20,1,120.000004577637,4|0,0:0|0:0,0:0:0:0:
163,17,194788,2,0,L|176:148,1,120.000004577637,0|0,0:0|0:0,0:0:0:0:
174,136,195775,6,0,L|106:128,1,60.0000022888184,0|0,0:0|0:0,0:0:0:0:
114,128,196367,2,0,P|162:168|154:228,1,120.000004577637,0|0,0:0|0:0,0:0:0:0:
136,288,196959,2,0,P|90:252|91:195,1,120.000004577637,0|0,0:0|0:0,0:0:0:0:
