osu file format v14

[General]
AudioFilename: audio.mp3
AudioLeadIn: 0
PreviewTime: 55051
Countdown: 0
SampleSet: Soft
StackLeniency: 0.4
Mode: 0
LetterboxInBreaks: 0
WidescreenStoryboard: 0

[Editor]
DistanceSpacing: 1
BeatDivisor: 4
GridSize: 4
TimelineZoom: 1

[Metadata]
Title:Mr.Q
TitleUnicode:Mr.Q
Artist:Jolin Tsai
ArtistUnicode:蔡依林
Creator:Yorita Yoshino
Version:Insane
Source:
Tags:Lobelia [_Abhor_] Abhor chinese pop wu niang sandrew kanor
BeatmapID:2149324
BeatmapSetID:1027890

[Difficulty]
HPDrainRate:5
CircleSize:5
OverallDifficulty:7
ApproachRate:8.5
SliderMultiplier:2
SliderTickRate:1

[Events]
//Background and Video events
0,0,"jolin.png",0,0
//Break Periods
//Storyboard Layer 0 (Background)
//Storyboard Layer 1 (Fail)
//Storyboard Layer 2 (Pass)
//Storyboard Layer 3 (Foreground)
//Storyboard Layer 4 (Overlay)
//Storyboard Sound Samples

[TimingPoints]
-14,394.736842105263,4,2,2,40,1,0
15775,-100,4,2,2,20,0,0
17354,-100,4,2,2,50,0,0
22091,-200,4,2,2,30,0,0
23670,-133.333333333333,4,2,2,40,0,0
37880,-133.333333333333,4,2,2,40,0,0
41334,-133.333333333333,4,2,2,5,0,0
41433,-200,4,2,2,20,0,0
41828,-133.333333333333,4,2,2,40,0,0
48933,-133.333333333333,4,2,2,40,0,0
50512,-117.647058823529,4,2,2,50,0,0
52091,-105.263157894737,4,2,2,60,0,0
53670,-95.2380952380952,4,2,2,70,0,0
55249,-83.3333333333333,4,2,2,70,0,1
55643,-133.333333333333,4,2,2,70,0,1
56038,-83.3333333333333,4,2,2,70,0,1
64328,-200,4,2,2,70,0,1
64722,-83.3333333333333,4,2,2,70,0,1
65907,-200,4,2,2,70,0,1
66301,-83.3333333333333,4,2,2,70,0,1
67880,-100,4,2,2,50,0,0
72617,-100,4,2,2,20,0,0
74196,-133.333333333333,4,2,2,40,0,0
78933,-133.333333333333,4,2,2,20,0,0
79920,-133.333333333333,4,2,2,40,0,0
99459,-133.333333333333,4,2,2,40,0,0
101038,-133.333333333333,4,2,2,50,0,0
102617,-133.333333333333,4,2,2,60,0,0
104196,-95.2380952380952,4,2,2,60,0,0
105775,-83.3333333333333,4,2,2,70,0,1
114854,-200,4,2,2,70,0,1
116828,-83.3333333333333,4,2,2,70,0,1
118407,-100,4,2,2,50,0,0
123143,-100,4,2,2,30,0,0
124722,-133.333333333333,4,2,2,50,0,0
126301,-133.333333333333,4,2,2,40,0,0
127880,-133.333333333333,4,2,2,30,0,0
131038,-111.111111111111,4,2,2,50,0,0
136959,-133.333333333333,4,2,2,50,0,0
137354,-111.111111111111,4,2,2,50,0,0
143275,-133.333333333333,4,2,2,50,0,0
143670,-111.111111111111,4,2,2,50,0,0
149591,-133.333333333333,4,2,2,50,0,0
149985,-111.111111111111,4,2,2,50,0,0
154722,-133.333333333333,4,2,2,60,0,0
156301,-133.333333333333,4,2,2,40,0,0
167551,-133.333333333333,4,2,2,60,0,0
168933,-83.3333333333333,4,2,2,70,0,1
178012,-200,4,2,2,70,0,1
178407,-83.3333333333333,4,2,2,70,0,1
179591,-200,4,2,2,70,0,1
179985,-83.3333333333333,4,2,2,70,0,1
190643,-200,4,2,2,70,0,1
192617,-83.3333333333333,4,2,2,70,0,1
194196,-83.3333333333333,4,2,2,30,0,0
194788,-133.333333333333,4,2,2,30,0,0

[Colours]
Combo1 : 0,0,255
Combo2 : 128,255,255
Combo3 : 0,128,255
Combo4 : 128,128,255

[HitObjects]
256,192,380,12,0,10545,0:0:0:0:
87,30,11038,5,4,0:0:0:0:
113,117,11235,1,0,0:0:0:0:
24,95,11433,1,8,0:0:0:0:
87,30,11630,1,2,0:0:0:0:
87,30,12025,2,0,P|24:92|25:110,1,100,2|8,0:0|0:0,0:0:0:0:
399,267,12617,5,2,0:0:0:0:
488,289,12814,1,2,0:0:0:0:
425,354,13012,1,8,0:0:0:0:
488,289,13209,1,2,0:0:0:0:
399,267,13604,5,2,0:0:0:0:
488,289,13801,2,0,P|495:240|466:200,1,100,8|2,0:0|0:0,0:0:0:0:
458,110,14196,5,4,0:0:0:0:
391,45,14393,1,0,0:0:0:0:
478,21,14591,1,8,0:0:0:0:
458,110,14788,1,2,0:0:0:0:
458,110,15183,2,0,P|484:77|478:20,1,100,2|8,0:0|0:0,0:0:0:0:
299,33,15775,5,8,0:3:0:0:
299,33,15972,2,0,L|294:139,2,100,4|8|0,0:0|0:0|0:0,0:0:0:0:
197,133,16564,2,0,B|246:121|246:121|327:140,1,100,4|0,0:2|0:0,0:0:0:0:
294,132,16959,2,0,B|245:143|245:143|196:131,1,100,12|0,0:0|0:0,0:0:0:0:
50,137,17354,6,0,B|30:198|30:198|40:256,1,100,0|0,0:0|0:0,0:0:0:0:
95,299,17749,1,8,0:0:0:0:
50,137,17946,2,0,B|30:198|30:198|40:256,1,100,2|0,0:0|0:0,0:0:0:0:
95,299,18341,2,0,B|115:238|115:238|109:203,1,100,2|8,0:0|0:0,0:0:0:0:
237,340,18933,5,2,0:0:0:0:
237,340,19130,2,0,P|304:328|363:347,1,100,2|8,0:0|0:0,0:0:0:0:
512,297,19525,2,0,P|445:285|386:304,1,100,2|0,0:0|0:0,0:0:0:0:
407,377,19920,1,2,0:0:0:0:
334,334,20117,2,0,B|331:277|331:277|353:220,1,100,8|2,0:0|0:0,0:0:0:0:
409,171,20512,6,0,P|428:117|403:50,1,100,4|0,0:0|0:0,0:0:0:0:
359,11,20907,1,8,0:0:0:0:
409,171,21104,2,0,P|428:117|403:50,1,100,2|0,0:0|0:0,0:0:0:0:
359,11,21499,2,0,P|335:54|338:103,1,100,2|8,0:0|0:0,0:0:0:0:
265,63,21893,1,0,0:0:0:0:
182,21,22091,6,0,L|117:33,2,50
209,36,22683,1,0,0:0:0:0:
204,67,22880,1,0,0:0:0:0:
173,70,23078,1,0,0:0:0:0:
159,42,23275,2,0,P|156:81|135:106,1,50
85,133,23670,6,0,L|78:232,2,75.0000028610231,4|0|8,0:0|0:0|0:0,0:0:0:0:
76,283,24262,2,0,L|165:239,1,75.0000028610231,2|0,0:0|0:0,0:0:0:0:
210,215,24657,2,0,L|127:159,1,75.0000028610231,2|8,0:0|0:0,0:0:0:0:
312,335,25249,5,2,0:0:0:0:
239,351,25446,2,0,P|247:298|277:271,1,75.0000028610231,2|8,0:0|0:0,0:0:0:0:
333,265,25841,1,2,0:0:0:0:
359,279,26038,1,0,0:0:0:0:
430,329,26235,1,2,0:0:0:0:
456,315,26433,2,0,P|469:266|456:217,1,75.0000028610231,8|2,0:0|0:0,0:0:0:0:
425,179,26828,6,0,B|437:130|389:137|385:77|385:77|415:93|450:68,1,150.000005722046,4|8,0:0|0:0,0:0:0:0:
338,25,27420,2,0,P|371:7|408:10,1,75.0000028610231,2|0,0:0|0:0,0:0:0:0:
477,36,27814,1,2,0:0:0:0:
419,82,28012,1,8,0:0:0:0:
412,99,28110,1,0,0:0:0:0:
409,118,28209,1,0,0:0:0:0:
409,136,28308,1,0,0:0:0:0:
413,155,28407,5,2,0:0:0:0:
512,185,28604,1,2,0:0:0:0:
436,255,28801,1,8,0:0:0:0:
512,185,28999,1,2,0:0:0:0:
413,155,29393,5,2,0:0:0:0:
436,255,29591,2,0,P|442:295|419:345,1,75.0000028610231,8|2,0:0|0:0,0:0:0:0:
262,340,29985,6,0,P|202:329|161:345,2,75.0000028610231,4|0|8,0:0|0:0|0:0,0:0:0:0:
218,251,30578,2,0,P|257:204|264:161,1,75.0000028610231,2|0,0:0|0:0,0:0:0:0:
317,257,30972,2,0,P|337:314|371:341,1,75.0000028610231,2|8,0:0|0:0,0:0:0:0:
119,356,31564,5,2,0:0:0:0:
156,290,31762,2,0,P|106:280|65:302,1,75.0000028610231,2|8,0:0|0:0,0:0:0:0:
14,314,32157,1,2,0:0:0:0:
8,285,32354,1,0,0:0:0:0:
76,211,32551,1,2,0:0:0:0:
82,182,32749,2,0,P|81:134|38:101,1,75.0000028610231,8|2,0:0|0:0,0:0:0:0:
8,67,33143,6,0,B|56:25|105:54|105:54|132:65|170:45,1,150.000005722046,4|8,0:0|0:0,0:0:0:0:
281,20,33735,2,0,P|241:30|194:12,1,75.0000028610231,2|0,0:0|0:0,0:0:0:0:
210,94,34130,1,2,0:0:0:0:
148,54,34328,1,8,0:0:0:0:
145,72,34426,1,0,0:0:0:0:
142,91,34525,1,0,0:0:0:0:
139,109,34624,1,0,0:0:0:0:
136,128,34722,5,2,0:0:0:0:
83,182,34920,1,2,0:0:0:0:
118,250,35117,1,8,0:0:0:0:
118,250,35216,1,2,0:0:0:0:
118,250,35314,1,2,0:0:0:0:
83,182,35512,5,2,0:0:0:0:
118,250,35709,1,2,0:0:0:0:
193,238,35907,1,8,0:0:0:0:
196,219,36005,1,2,0:0:0:0:
199,201,36104,1,2,0:0:0:0:
202,182,36203,1,2,0:0:0:0:
204,164,36301,6,0,B|237:140|237:140|278:139,2,75.0000028610231,4|0|8,0:0|0:0|0:0,0:0:0:0:
336,113,36893,2,0,B|340:152|340:152|321:188,1,75.0000028610231,2|0,0:0|0:0,0:0:0:0:
313,253,37288,2,0,B|278:237|278:237|259:207,1,75.0000028610231,2|8,0:0|0:0,0:0:0:0:
484,337,37880,5,2,0:0:0:0:
413,364,38078,2,0,P|413:313|440:275,1,75.0000028610231,2|8,0:0|0:0,0:0:0:0:
420,217,38472,5,2,0:0:0:0:
389,225,38670,1,0,0:0:0:0:
473,141,38867,1,2,0:0:0:0:
504,149,39064,2,0,L|492:65,1,75.0000028610231,8|2,0:0|0:0,0:0:0:0:
453,14,39459,6,0,B|417:41|423:84|423:84|383:98|377:141,1,150.000005722046,4|8,0:0|0:0,0:0:0:0:
246,163,40051,2,0,B|245:163|284:192|317:179,1,75.0000028610231,2|0,0:0|0:0,0:0:0:0:
381,208,40446,1,2,0:0:0:0:
378,133,40643,1,8,0:0:0:0:
396,131,40741,1,0,0:0:0:0:
415,130,40840,1,0,0:0:0:0:
434,128,40939,1,2,0:0:0:0:
452,127,41037,5,2,0:0:0:0:
477,227,41235,2,2,P|472:271|459:295,1,37.5000014305115,0|0,0:0|0:0,0:0:0:0:
464,293,41433,6,0,P|385:299|359:323,1,100,8|0,0:0|0:0,0:0:0:0:
295,286,42025,1,0,0:0:0:0:
241,339,42222,1,8,0:0:0:0:
314,359,42420,1,8,0:0:0:0:
275,209,42617,6,0,B|268:190|271:167|271:167|281:142|269:107,2,75.0000028610231,4|0|8,0:0|0:0|0:0,0:0:0:0:
297,42,43209,2,0,B|284:57|262:66|262:66|235:70|232:78,1,75.0000028610231,2|0,0:0|0:0,0:0:0:0:
142,106,43604,2,0,B|161:109|180:123|180:123|197:144|205:143,1,75.0000028610231,2|8,0:0|0:0,0:0:0:0:
41,315,44196,5,2,0:0:0:0:
112,356,44393,2,0,P|123:314|101:261,1,75.0000028610231,2|8,0:0|0:0,0:0:0:0:
54,233,44788,1,2,0:0:0:0:
23,241,44985,1,0,0:0:0:0:
67,151,45183,1,2,0:0:0:0:
36,159,45380,2,0,P|55:110|39:71,1,75.0000028610231,8|0,0:0|0:0,0:0:0:0:
37,15,45775,6,0,B|78:31|78:31|194:21,1,150.000005722046,4|8,0:0|0:0,0:0:0:0:
211,158,46367,2,0,B|169:97,1,75.0000028610231,2|0,0:0|0:0,0:0:0:0:
242,72,46762,1,2,0:0:0:0:
183,21,46959,5,8,0:0:0:0:
164,22,47057,1,0,0:0:0:0:
145,24,47156,1,0,0:0:0:0:
126,25,47255,1,0,0:0:0:0:
108,27,47353,5,2,0:0:0:0:
6,42,47551,1,2,0:0:0:0:
70,123,47749,1,8,0:0:0:0:
6,42,47947,1,2,0:0:0:0:
108,27,48341,5,2,0:0:0:0:
70,123,48538,2,0,P|65:171|77:216,1,75.0000028610231,8|2,0:0|0:0,0:0:0:0:
57,294,48933,6,0,P|103:265|153:278,1,75.0000028610231,4|2,0:0|0:0,0:0:0:0:
116,339,49328,1,8,0:0:0:0:
183,310,49525,6,0,P|229:281|279:294,1,75.0000028610231,0|2,0:0|0:0,0:0:0:0:
242,353,49920,1,0,0:0:0:0:
304,321,50117,6,0,P|350:292|400:305,1,75.0000028610231,8|2,0:0|0:0,0:0:0:0:
465,317,50512,6,0,L|460:212,1,85.0000016212464,4|2,0:0|0:0,0:0:0:0:
384,202,50907,1,8,0:0:0:0:
388,286,51104,6,0,L|383:181,1,85.0000016212464,0|2,0:0|0:0,0:0:0:0:
307,171,51499,1,0,0:0:0:0:
311,255,51696,6,0,L|306:150,1,85.0000016212464,8|2,0:0|0:0,0:0:0:0:
211,147,52091,6,0,P|140:147|104:172,1,94.9999974632264,4|2,0:0|0:0,0:0:0:0:
173,222,52485,1,8,0:0:0:0:
90,227,52683,6,0,P|125:288|165:307,1,94.9999974632264,0|2,0:0|0:0,0:0:0:0:
173,222,53077,1,0,0:0:0:0:
219,292,53275,5,8,0:0:0:0:
235,275,53373,1,2,0:0:0:0:
247,254,53472,1,2,0:0:0:0:
254,231,53571,1,2,0:0:0:0:
255,208,53670,6,0,B|309:195|309:195|374:206,1,104.999996795654,4|0,0:0|0:0,0:0:0:0:
512,293,54064,2,0,B|458:306|458:306|409:297,1,104.999996795654,8|0,0:0|0:0,0:0:0:0:
429,125,54459,2,0,B|442:179|442:179|431:244,1,104.999996795654,4|0,0:0|0:0,0:0:0:0:
344,382,54853,2,0,B|331:328|331:328|339:279,1,104.999996795654,4|0,0:0|0:0,0:0:0:0:
264,190,55249,6,0,P|198:186|141:234,1,119.999996337891,4|0,0:0|0:0,0:0:0:0:
113,276,55643,1,8,0:0:0:0:
146,342,55841,1,0,0:0:0:0:
38,271,56038,2,0,B|16:260|-4:271|-4:271|28:243|19:184,1,119.999996337891,0|0,0:0|0:0,0:0:0:0:
55,128,56433,1,8,0:0:0:0:
13,60,56630,1,0,0:0:0:0:
64,0,56828,5,2,0:0:0:0:
137,30,57025,1,2,0:0:0:0:
131,108,57223,1,8,0:0:0:0:
55,128,57420,1,2,0:0:0:0:
137,30,57617,2,0,L|295:38,1,119.999996337891,2|0,0:0|0:0,0:0:0:0:
314,165,58012,6,0,P|386:158|420:89,1,119.999996337891,4|0,0:0|0:0,0:0:0:0:
409,7,58407,2,0,B|397:56|397:56|414:124,1,119.999996337891,4|0,0:0|0:0,0:0:0:0:
450,243,58801,5,8,0:0:0:0:
491,166,58999,1,0,0:0:0:0:
372,202,59196,2,0,P|366:269|417:325,1,119.999996337891,0|0,0:0|0:0,0:0:0:0:
471,330,59591,1,8,0:0:0:0:
393,310,59788,1,0,0:0:0:0:
349,378,59985,5,2,0:0:0:0:
270,357,60183,1,2,0:0:0:0:
265,275,60380,1,8,0:0:0:0:
341,244,60578,1,2,0:0:0:0:
270,357,60775,2,0,P|200:349|126:363,1,119.999996337891,2|0,0:0|0:0,0:0:0:0:
70,326,61170,1,4,0:0:0:0:
4,381,61367,1,0,0:0:0:0:
136,271,61564,6,0,L|131:144,1,119.999996337891,4|0,0:0|0:0,0:0:0:0:
190,91,61959,1,8,0:0:0:0:
152,17,62157,1,0,0:0:0:0:
131,151,62354,2,0,B|172:164|172:164|196:193|196:193|256:208,1,119.999996337891,0|0,0:0|0:0,0:0:0:0:
319,225,62749,1,8,0:0:0:0:
368,152,62946,1,0,0:0:0:0:
313,82,63143,5,2,0:0:0:0:
230,112,63341,1,2,0:0:0:0:
233,201,63538,1,8,0:0:0:0:
319,225,63735,1,2,0:0:0:0:
230,112,63933,2,0,P|166:95|97:123,1,119.999996337891,2|0,0:0|0:0,0:0:0:0:
57,203,64328,6,0,L|67:273,1,50,4|0,0:0|0:0,0:0:0:0:
141,279,64722,5,4,0:0:0:0:
141,279,64920,1,2,0:0:0:0:
14,317,65116,1,8,0:0:0:0:
60,384,65314,1,2,0:0:0:0:
138,360,65512,1,2,0:0:0:0:
64,252,65709,1,2,0:0:0:0:
318,321,65907,6,0,L|388:329,1,50,4|0,0:0|0:0,0:0:0:0:
440,348,66301,6,0,P|510:323|410:301,1,239.999992675781,4|8,0:0|0:0,0:0:0:0:
318,321,66893,2,0,B|347:264|347:264|340:204,1,119.999996337891
260,194,67288,1,0,0:0:0:0:
420,224,67485,1,8,0:0:0:0:
313,133,67683,1,0,0:0:0:0:
341,208,67880,6,0,P|384:169|391:120,1,100,4|0,0:0|0:0,0:0:0:0:
364,54,68275,1,8,0:0:0:0:
341,208,68472,2,0,P|384:169|391:120,1,100,2|0,0:0|0:0,0:0:0:0:
364,54,68867,2,0,P|321:93|314:142,1,100,2|8,0:0|0:0,0:0:0:0:
103,85,69459,5,2,0:0:0:0:
103,85,69657,2,0,P|50:82|7:46,1,100,2|8,0:0|0:0,0:0:0:0:
146,149,70051,2,0,P|199:146|242:110,1,100,2|0,0:0|0:0,0:0:0:0:
82,12,70446,1,2,0:0:0:0:
13,54,70643,2,0,L|20:176,1,100,8|2,0:0|0:0,0:0:0:0:
39,250,71038,6,0,B|113:260|113:260|180:236,1,100,4|0,0:0|0:0,0:0:0:0:
105,182,71433,1,8,0:0:0:0:
39,250,71630,2,0,B|113:260|113:260|180:236,1,100,2|0,0:0|0:0,0:0:0:0:
202,183,72025,2,0,B|128:173|128:173|61:197,1,100,2|8,0:0|0:0,0:0:0:0:
139,346,72617,6,0,B|115:354|115:354|41:344,2,100,4|0|0,2:3|2:0|2:0,2:0:0:0:
163,328,73209,1,0,2:0:0:0:
202,319,73407,1,0,2:0:0:0:
272,328,73604,1,0,2:0:0:0:
342,384,73801,1,0,0:0:0:0:
342,384,74196,6,4,P|409:341|310:294,1,225.000008583069,8|8,0:0|0:0,0:0:0:0:
215,18,75775,6,0,B|142:39|142:39|63:16|63:16|-21:44,2,225.000008583069,8|8|8,0:0|0:0|0:0,0:0:0:0:
342,0,77354,6,0,P|434:24|360:106,1,225.000008583069,8|8,0:0|0:0,0:0:0:0:
319,141,78933,5,0,0:0:0:0:
297,143,79328,1,0,0:0:0:0:
275,145,79722,5,0,0:0:0:0:
250,217,79920,2,0,P|241:186|255:143,1,75.0000028610231,2|8,0:0|0:0,0:0:0:0:
201,87,80314,1,2,0:0:0:0:
64,166,80512,6,0,B|41:248|41:248|60:337,1,150.000005722046,4|8,0:0|0:0,0:0:0:0:
144,384,81104,1,2,0:0:0:0:
129,315,81302,1,0,0:0:0:0:
220,250,81499,1,2,0:0:0:0:
205,319,81697,1,8,0:0:0:0:
475,360,82091,5,2,0:0:0:0:
475,360,82288,2,0,P|437:360|403:347,1,75.0000028610231,2|8,0:0|0:0,0:0:0:0:
269,296,82683,2,0,P|306:296|340:283,1,75.0000028610231,2|0,0:0|0:0,0:0:0:0:
269,296,83077,1,2,0:0:0:0:
292,152,83275,2,0,L|292:226,1,75.0000028610231,8|2,0:0|0:0,0:0:0:0:
367,220,83670,6,0,P|433:234|448:156,1,150.000005722046,4|8,0:0|0:0,0:0:0:0:
457,92,84262,2,0,P|397:73|363:90,1,75.0000028610231,2|0,0:0|0:0,0:0:0:0:
375,87,84558,1,0,0:0:0:0:
362,98,84657,2,0,P|302:79|268:96,1,75.0000028610231,2|8,0:0|0:0,0:0:0:0:
278,94,84953,1,0,0:0:0:0:
263,105,85051,1,0,0:0:0:0:
245,112,85150,1,0,0:0:0:0:
227,113,85249,6,0,P|167:94|133:111,2,75.0000028610231,2|0|0,0:0|0:0|0:0,0:0:0:0:
108,147,85841,1,2,0:0:0:0:
88,116,85939,1,2,0:0:0:0:
87,79,86038,1,2,0:0:0:0:
176,165,86235,1,2,0:0:0:0:
158,197,86333,1,2,0:0:0:0:
127,216,86433,2,0,L|60:215,3,37.5000014305115,2|2|2|2,0:0|0:0|0:0|0:0,0:0:0:0:
62,238,86828,6,0,P|41:291|104:367,1,150.000005722046,4|8,0:0|0:0,0:0:0:0:
157,331,87420,2,0,L|247:337,1,75.0000028610231,2|0,0:0|0:0,0:0:0:0:
288,384,87814,1,2,0:0:0:0:
245,261,88012,1,8,0:0:0:0:
231,335,88209,1,2,0:0:0:0:
302,311,88407,6,0,B|364:320|364:320|445:271,1,150.000005722046,2|8,0:0|0:0,0:0:0:0:
491,223,88999,2,0,P|508:292|493:320,1,75.0000028610231,2|0,0:0|0:0,0:0:0:0:
455,346,89393,1,2,0:0:0:0:
491,223,89591,1,8,0:0:0:0:
438,274,89788,1,2,0:0:0:0:
474,151,89985,6,0,B|467:73|467:73|423:103|371:65,1,150.000005722046,4|10,0:0|0:0,0:0:0:0:
424,9,90578,2,0,P|369:12|331:49,1,75.0000028610231,2|0,0:0|0:0,0:0:0:0:
323,90,90972,1,2,0:0:0:0:
277,30,91170,1,8,0:0:0:0:
258,28,91268,1,0,0:0:0:0:
239,26,91367,1,0,0:0:0:0:
221,24,91466,1,0,0:0:0:0:
202,22,91564,6,0,P|132:33|116:57,2,75.0000028610231,2|0|8,0:0|0:0|0:0,0:0:0:0:
227,94,92157,1,2,0:0:0:0:
224,112,92255,1,2,0:0:0:0:
221,131,92354,1,2,0:0:0:0:
218,149,92453,1,2,0:0:0:0:
216,168,92551,1,2,0:0:0:0:
143,188,92749,1,8,0:0:0:0:
143,188,92946,1,8,0:0:0:0:
19,142,93143,6,2,B|4:180|15:206|15:206|19:222|19:222|8:238|8:238|11:263|11:263|-1:285|-1:285|3:309,1,150.000005722046,4|8,0:0|0:0,1:1:0:0:
157,374,93735,1,2,0:0:0:0:
83,360,93933,1,0,0:0:0:0:
208,314,94130,1,2,0:0:0:0:
134,300,94328,1,8,0:0:0:0:
402,350,94722,5,2,0:0:0:0:
402,350,94920,2,0,P|388:294|366:268,1,75.0000028610231,2|8,0:0|0:0,0:0:0:0:
452,271,95314,2,0,P|466:215|488:189,1,75.0000028610231,2|0,0:0|0:0,0:0:0:0:
452,271,95709,1,2,0:0:0:0:
414,133,95907,2,0,L|398:47,1,75.0000028610231,8|2,0:0|0:0,0:0:0:0:
328,161,96301,6,0,B|340:236|340:236|295:276|250:249,1,150.000005722046,2|8,0:0|0:0,0:0:0:0:
201,240,96893,2,0,B|159:230|159:230|97:247,1,75.0000028610231,2|0,0:0|0:0,0:0:0:0:
159,306,97288,5,0,0:0:0:0:
128,238,97485,1,8,0:0:0:0:
130,219,97583,1,0,0:0:0:0:
133,200,97682,1,0,0:0:0:0:
136,182,97781,1,0,0:0:0:0:
139,163,97880,6,0,P|82:164|50:134,1,75.0000028610231,2|2,0:0|0:0,0:0:0:0:
8,110,98275,1,8,0:0:0:0:
0,184,98472,1,2,0:0:0:0:
80,85,98670,1,2,0:0:0:0:
80,85,98768,1,2,0:0:0:0:
80,85,98867,1,2,0:0:0:0:
187,129,99064,2,0,L|182:226,1,75.0000028610231,8|0,0:0|0:0,0:0:0:0:
88,277,99459,5,4,0:0:0:0:
149,319,99854,5,8,0:0:0:0:
184,204,100052,1,2,0:0:0:0:
208,274,100249,1,0,0:0:0:0:
110,206,100446,1,2,0:0:0:0:
184,204,100643,1,8,0:0:0:0:
266,4,101038,5,4,0:0:0:0:
192,38,101433,5,8,0:0:0:0:
282,134,101631,1,2,0:0:0:0:
202,119,101828,1,0,0:0:0:0:
321,63,102025,1,2,0:0:0:0:
282,134,102222,1,8,0:0:0:0:
413,294,102617,5,4,0:0:0:0:
421,204,103012,5,8,0:0:0:0:
280,237,103210,1,2,0:0:0:0:
338,169,103407,1,0,0:0:0:0:
326,313,103604,1,2,0:0:0:0:
280,237,103801,5,8,0:0:0:0:
256,221,103899,1,0,0:0:0:0:
229,213,103998,1,0,0:0:0:0:
201,212,104097,1,0,0:0:0:0:
174,220,104196,6,0,B|161:166|161:166|169:94,1,104.999996795654,4|0,0:0|0:0,0:0:0:0:
288,133,104591,2,0,B|293:182|293:182|280:237,1,104.999996795654,8|0,0:0|0:0,0:0:0:0:
105,222,104985,2,0,B|91:167|91:167|99:95,1,104.999996795654,4|0,0:0|0:0,0:0:0:0:
357,134,105380,2,0,B|362:183|362:183|349:238,1,104.999996795654,12|0,0:0|0:0,0:0:0:0:
214,315,105775,6,0,B|277:301|277:301|337:316,1,119.999996337891,4|0,0:0|0:0,0:0:0:0:
407,290,106170,1,8,0:0:0:0:
347,236,106367,1,0,0:0:0:0:
390,368,106564,2,0,P|451:356|487:297,1,119.999996337891,0|0,0:0|0:0,0:0:0:0:
463,235,106959,1,8,0:0:0:0:
492,162,107157,1,0,0:0:0:0:
463,235,107354,5,2,0:0:0:0:
384,229,107551,1,2,0:0:0:0:
364,152,107749,1,8,0:0:0:0:
431,111,107946,1,2,0:0:0:0:
384,229,108143,2,0,B|332:226|332:226|307:240|307:240|250:237,1,119.999996337891,2|0,0:0|0:0,0:0:0:0:
126,125,108538,6,0,P|137:201|100:279,1,119.999996337891,4|0,0:0|0:0,0:0:0:0:
10,130,108933,2,0,B|59:144|59:144|125:124,1,119.999996337891,4|0,0:0|0:0,0:0:0:0:
273,73,109328,1,8,0:0:0:0:
174,23,109525,1,0,0:0:0:0:
223,174,109722,2,0,P|282:156|340:166,1,119.999996337891,0|0,0:0|0:0,0:0:0:0:
384,229,110117,1,8,0:0:0:0:
338,165,110314,1,0,0:0:0:0:
384,229,110512,5,2,0:0:0:0:
460,206,110709,1,2,0:0:0:0:
460,126,110906,1,8,0:0:0:0:
386,102,111104,1,2,0:0:0:0:
460,206,111301,2,0,L|458:339,1,119.999996337891,2|0,0:0|0:0,0:0:0:0:
385,293,111696,1,4,0:0:0:0:
383,213,111893,1,0,0:0:0:0:
316,374,112091,6,0,L|314:254,1,119.999996337891,4|0,0:0|0:0,0:0:0:0:
253,201,112485,1,8,0:0:0:0:
184,243,112683,1,0,0:0:0:0:
314,254,112880,2,0,P|333:201|296:131,1,119.999996337891,0|0,0:0|0:0,0:0:0:0:
231,131,113275,1,8,0:0:0:0:
280,69,113472,1,0,0:0:0:0:
231,131,113670,5,2,0:0:0:0:
155,106,113867,1,2,0:0:0:0:
158,27,114065,1,10,0:0:0:0:
233,3,114262,1,2,0:0:0:0:
155,106,114459,2,0,P|80:117|9:96,1,119.999996337891,2|0,0:0|0:0,0:0:0:0:
72,197,114854,6,0,P|114:194|138:202,1,50,4|0,0:0|0:0,0:0:0:0:
72,197,115249,5,4,0:0:0:0:
54,325,115446,1,2,0:0:0:0:
38,305,115544,1,2,0:0:0:0:
28,282,115643,1,8,0:0:0:0:
174,277,115841,1,2,0:0:0:0:
165,300,115939,1,2,0:0:0:0:
150,319,116038,2,0,L|210:317,1,50,2|0,0:0|0:0,0:0:0:0:
401,294,116433,6,0,P|359:297|335:289,1,50,4|0,0:0|0:0,0:0:0:0:
372,233,116828,6,0,P|446:244|384:359,1,239.999992675781,4|8,0:0|0:0,0:0:0:0:
335,292,117420,2,0,L|178:298,1,119.999996337891,0|4,0:0|0:0,0:0:0:0:
179,359,117814,1,0,0:0:0:0:
125,161,118012,1,4,0:0:0:0:
53,287,118209,1,0,0:0:0:0:
251,233,118407,6,0,B|302:218|302:218|362:231,1,100,4|0,0:0|0:0,0:0:0:0:
306,290,118801,1,8,0:0:0:0:
251,233,118999,2,0,B|302:218|302:218|362:231,1,100,2|0,0:0|0:0,0:0:0:0:
403,285,119393,2,0,B|352:300|352:300|292:287,1,100,2|8,0:0|0:0,0:0:0:0:
342,123,119985,5,2,0:0:0:0:
342,123,120183,2,0,L|349:240,1,100,2|8,0:0|0:0,0:0:0:0:
421,102,120578,2,0,L|428:-15,1,100,2|0,0:0|0:0,0:0:0:0:
429,249,120972,1,2,0:0:0:0:
347,223,121170,2,0,P|289:218|238:241,1,100,8|0,0:0|0:0,0:0:0:0:
186,306,121564,6,0,L|59:295,1,100,4|0,0:0|0:0,0:0:0:0:
139,221,121959,1,8,0:0:0:0:
186,306,122157,2,0,L|59:295,1,100,2|0,0:0|0:0,0:0:0:0:
62,216,122551,2,0,L|143:222,1,50,2|0,0:0|0:0,0:0:0:0:
139,221,122749,1,8,0:0:0:0:
153,201,122847,1,0,0:0:0:0:
161,177,122946,1,0,0:0:0:0:
160,152,123045,1,0,0:0:0:0:
151,129,123143,5,8,0:3:0:0:
52,99,123341,1,4,0:0:0:0:
128,29,123538,1,8,0:0:0:0:
52,99,123735,2,0,P|50:155|78:203,1,100,0|4,0:0|0:2,0:0:0:0:
151,129,124130,5,0,0:0:0:0:
128,29,124328,2,0,P|189:36|244:21,1,100,8|0,0:0|0:0,0:0:0:0:
298,0,124722,6,0,L|446:19,1,150.000005722046,4|0,0:0|0:0,0:0:0:0:
490,83,125314,2,0,L|411:94,1,75.0000028610231,2|0,0:0|0:0,0:0:0:0:
458,165,125709,2,0,L|379:154,1,75.0000028610231,2|0,0:0|0:0,0:0:0:0:
166,330,126301,5,2,0:0:0:0:
166,330,126499,1,2,0:0:0:0:
123,211,126893,1,2,0:0:0:0:
248,233,127288,1,2,0:0:0:0:
248,233,127485,1,2,0:0:0:0:
181,262,127880,5,4,0:3:0:0:
256,192,129459,12,0,130643,0:0:0:0:
40,266,130841,5,0,0:0:0:0:
51,263,130939,1,0,0:0:0:0:
65,258,131038,2,0,B|89:217|65:176|65:176|33:125|63:81,1,179.999994506836,4|8,0:0|0:0,0:0:0:0:
132,53,131630,1,2,0:0:0:0:
196,157,131828,1,0,1:0:0:0:
123,127,132025,1,2,0:0:0:0:
256,109,132222,2,0,P|270:181|252:209,1,89.9999972534181,8|0,0:0|0:0,0:0:0:0:
205,46,132617,6,0,B|340:36|340:36|382:-4,1,179.999994506836,4|8,0:3|0:0,0:0:0:0:
464,182,133209,2,0,B|329:172|329:172|287:132,1,179.999994506836,4|0,0:3|0:0,0:0:0:0:
365,101,133801,1,8,0:0:0:0:
472,159,133999,1,8,0:0:0:0:
447,283,134196,6,0,B|436:337|480:367|480:367|459:328|382:368,1,179.999994506836,4|8,0:0|0:0,0:0:0:0:
326,384,134788,1,4,0:3:0:0:
340,279,134985,1,0,0:0:0:0:
305,384,135183,1,0,0:0:0:0:
210,269,135380,1,8,0:0:0:0:
187,269,135478,1,0,0:0:0:0:
165,270,135577,1,8,0:0:0:0:
142,270,135676,1,0,0:0:0:0:
120,271,135775,6,0,B|88:299|88:299|92:395,1,134.999995880127,4|0,0:3|0:0,0:0:0:0:
68,217,136170,5,8,0:0:0:0:
39,96,136367,1,8,0:0:0:0:
142,46,136564,1,0,0:0:0:0:
233,105,136762,1,0,0:0:0:0:
297,61,136959,6,0,P|333:42|413:70,1,112.500004291535,8|0,0:0|0:0,0:0:0:0:
436,157,137354,6,0,B|394:181|392:236|419:263|419:263|395:298|419:336,1,179.999994506836,4|8,0:0|0:0,0:0:0:0:
475,218,137946,1,2,0:0:0:0:
347,265,138143,1,0,1:0:0:0:
479,302,138341,1,2,0:0:0:0:
394,195,138538,1,8,0:0:0:0:
394,195,138637,1,0,0:0:0:0:
394,195,138735,1,0,0:0:0:0:
347,265,138933,6,0,B|314:309|258:294|258:294|229:247|161:258,1,179.999994506836,4|8,0:3|0:0,0:0:0:0:
30,339,139525,2,0,B|63:383|119:368|119:368|148:321|216:332,1,179.999994506836,4|0,0:3|0:0,0:0:0:0:
258,360,140117,1,8,0:0:0:0:
132,306,140314,1,8,0:0:0:0:
210,161,140512,6,0,P|214:116|131:152,1,179.999994506836,4|8,0:0|0:0,0:0:0:0:
200,235,141104,1,4,0:3:0:0:
313,188,141301,1,0,0:0:0:0:
201,249,141499,1,0,0:0:0:0:
50,212,141696,1,8,0:0:0:0:
51,234,141794,1,0,0:0:0:0:
52,256,141893,1,8,0:0:0:0:
54,279,141992,1,0,0:0:0:0:
56,303,142091,6,0,B|94:337|94:337|195:333,1,134.999995880127,4|0,0:3|0:0,0:0:0:0:
25,373,142485,1,8,0:0:0:0:
115,269,142683,1,8,0:0:0:0:
199,334,142880,1,0,0:0:0:0:
199,334,142979,1,0,0:0:0:0:
199,334,143078,1,0,0:0:0:0:
270,291,143275,6,0,P|326:299|351:363,1,112.500004291535,8|0,0:0|0:0,0:0:0:0:
506,210,143670,6,0,P|426:179|370:253,1,179.999994506836,4|8,0:0|0:0,0:0:0:0:
443,252,144262,1,2,0:0:0:0:
357,168,144459,1,0,1:0:0:0:
422,133,144657,1,2,0:0:0:0:
370,241,144854,1,8,0:0:0:0:
475,185,145051,1,0,0:0:0:0:
369,81,145249,6,0,B|370:125|331:140|297:132|297:132|270:38,1,179.999994506836,4|8,0:3|0:0,0:0:0:0:
272,225,145841,2,0,B|273:181|234:166|200:174|200:174|173:268,1,179.999994506836,4|0,0:3|0:0,0:0:0:0:
201,336,146433,1,8,0:0:0:0:
94,384,146630,1,8,0:0:0:0:
11,266,146828,6,0,L|34:59,1,179.999994506836,4|8,0:0|0:0,0:0:0:0:
105,39,147420,1,4,0:3:0:0:
200,107,147617,1,0,0:0:0:0:
103,60,147814,1,0,0:0:0:0:
42,161,148012,1,8,0:0:0:0:
64,163,148110,1,0,0:0:0:0:
86,166,148209,1,8,0:0:0:0:
108,169,148308,1,0,0:0:0:0:
131,171,148407,6,0,B|161:206|161:206|151:306,1,134.999995880127,4|0,0:3|0:0,0:0:0:0:
27,245,148801,1,8,0:0:0:0:
99,364,148999,1,8,0:0:0:0:
215,338,149196,1,2,0:0:0:0:
234,243,149393,1,2,0:0:0:0:
308,278,149591,6,0,P|311:223|280:177,1,112.500004291535,8|0,0:0|0:0,0:0:0:0:
317,346,149985,6,0,B|383:332|383:332|424:342|424:342|499:325,1,179.999994506836,4|8,0:0|0:0,0:0:0:0:
380,206,150578,1,2,0:0:0:0:
422,274,150775,1,0,1:0:0:0:
505,174,150972,1,2,0:0:0:0:
499,254,151170,1,8,0:0:0:0:
430,144,151367,1,0,0:0:0:0:
345,296,151564,6,0,B|205:289|205:289|155:312,1,179.999994506836,4|8,0:3|0:0,0:0:0:0:
57,168,152157,2,0,B|197:161|197:161|247:184,1,179.999994506836,4|0,0:3|0:0,0:0:0:0:
262,104,152749,1,8,0:0:0:0:
158,40,152946,1,8,0:0:0:0:
86,193,153143,6,0,B|64:232|96:284|96:284|120:334|92:371,1,179.999994506836,4|8,0:0|0:0,0:0:0:0:
9,326,153735,1,4,0:3:0:0:
153,233,153933,1,0,0:0:0:0:
32,324,154130,1,0,0:0:0:0:
180,355,154328,1,8,0:0:0:0:
217,351,154426,1,0,0:0:0:0:
254,347,154525,1,8,0:0:0:0:
291,344,154624,1,0,0:0:0:0:
328,340,154722,5,4,0:0:0:0:
108,264,155117,5,4,0:0:0:0:
184,44,155512,5,4,0:0:0:0:
404,120,155907,5,4,0:0:0:0:
81,196,156301,5,8,0:0:0:0:
73,299,156499,5,0,0:0:0:0:
90,281,156597,1,0,0:0:0:0:
106,261,156696,2,0,P|93:207|58:186,1,75.0000028610231,0|8,0:0|0:0,0:0:0:0:
10,185,157091,2,0,P|63:200|98:180,1,75.0000028610231,0|8,0:0|0:0,0:0:0:0:
123,140,157485,2,0,P|82:178|82:219,1,75.0000028610231,0|0,0:0|0:0,0:0:0:0:
229,289,157880,5,8,0:0:0:0:
328,238,158078,5,0,0:0:0:0:
315,258,158176,1,0,0:0:0:0:
300,277,158275,2,0,B|263:292|263:292|228:289,1,75.0000028610231,0|8,0:0|0:0,0:0:0:0:
182,234,158670,2,0,B|213:257|213:257|228:289,1,75.0000028610231,0|8,0:0|0:0,0:0:0:0:
203,357,159064,2,0,B|207:317|207:317|228:289,1,75.0000028610231,0|0,0:0|0:0,0:0:0:0:
370,118,159459,5,8,0:0:0:0:
261,95,159657,5,0,0:0:0:0:
280,79,159755,1,0,0:0:0:0:
305,79,159854,2,0,L|378:123,1,75.0000028610231,0|8,0:0|0:0,0:0:0:0:
434,80,160249,2,0,L|369:117,1,75.0000028610231,0|8,0:0|0:0,0:0:0:0:
367,191,160643,1,2,0:0:0:0:
367,173,160741,1,2,0:0:0:0:
368,154,160840,1,2,0:0:0:0:
368,135,160939,1,2,0:0:0:0:
369,116,161037,5,8,0:0:0:0:
160,220,161433,5,2,0:0:0:0:
68,205,161630,1,2,0:0:0:0:
130,132,161828,5,2,0:0:0:0:
222,147,162025,1,8,0:0:0:0:
160,220,162222,5,2,0:0:0:0:
68,205,162419,1,8,0:0:0:0:
222,147,162617,5,8,0:0:0:0:
190,308,162814,5,0,0:0:0:0:
197,319,162913,1,0,0:0:0:0:
203,331,163012,2,0,P|238:341|276:331,1,75.0000028610231,0|8,0:0|0:0,0:0:0:0:
336,366,163407,2,0,P|368:348|389:314,1,75.0000028610231,0|8,0:0|0:0,0:0:0:0:
454,296,163801,2,0,P|464:260|454:222,1,75.0000028610231,0|0,0:0|0:0,0:0:0:0:
359,65,164196,5,8,0:0:0:0:
258,224,164393,5,0,0:0:0:0:
279,214,164492,1,0,0:0:0:0:
303,203,164591,2,0,L|298:105,1,75.0000028610231,0|8,0:0|0:0,0:0:0:0:
227,140,164985,2,0,L|222:42,1,75.0000028610231,0|8,0:0|0:0,0:0:0:0:
151,77,165380,2,0,L|146:-21,1,75.0000028610231,0|0,0:0|0:0,0:0:0:0:
62,211,165775,5,8,0:0:0:0:
180,372,165972,5,0,0:0:0:0:
162,364,166071,1,0,0:0:0:0:
142,354,166170,2,0,P|79:351|45:372,1,75.0000028610231,0|8,0:0|0:0,0:0:0:0:
29,279,166564,2,0,P|92:280|122:255,1,75.0000028610231,0|8,0:0|0:0,0:0:0:0:
135,211,166959,1,2,0:0:0:0:
117,205,167057,1,2,0:0:0:0:
98,203,167156,1,2,0:0:0:0:
79,205,167255,1,2,0:0:0:0:
62,211,167353,5,8,0:0:0:0:
184,72,167551,1,8,0:0:0:0:
111,66,167749,1,8,0:0:0:0:
328,312,168143,5,8,0:0:0:0:
365,314,168242,1,0,0:0:0:0:
401,318,168341,1,0,0:0:0:0:
294,308,168538,2,0,P|285:240|309:212,1,75.0000028610231,4|0,0:0|0:0,0:0:0:0:
352,81,168933,6,0,P|338:155|377:221,1,119.999996337891,4|0,0:0|0:0,0:0:0:0:
402,259,169328,1,8,0:0:0:0:
433,184,169525,1,0,0:0:0:0:
353,194,169722,2,0,B|302:191|302:191|266:211|266:211|205:206,1,119.999996337891,0|0,0:0|0:0,0:0:0:0:
168,171,170117,1,8,0:0:0:0:
111,226,170314,1,0,0:0:0:0:
146,298,170512,5,2,0:0:0:0:
238,208,170709,1,2,0:0:0:0:
111,226,170907,1,8,0:0:0:0:
224,286,171104,1,2,0:0:0:0:
168,171,171301,2,0,B|151:126|151:126|183:51,1,119.999996337891,2|0,0:0|0:0,0:0:0:0:
317,18,171696,6,0,B|334:63|334:63|302:138,1,119.999996337891,4|0,0:0|0:0,0:0:0:0:
419,126,172091,2,0,P|348:112|296:135,1,119.999996337891,4|0,0:0|0:0,0:0:0:0:
272,263,172485,1,8,0:0:0:0:
356,212,172683,1,0,0:0:0:0:
220,179,172880,2,0,B|197:163|193:141|193:141|172:183|108:180,1,119.999996337891,0|0,0:0|0:0,0:0:0:0:
59,154,173275,1,8,0:0:0:0:
59,75,173472,1,0,0:0:0:0:
59,154,173670,5,2,0:0:0:0:
135,50,173867,1,2,0:0:0:0:
135,178,174064,1,8,0:0:0:0:
59,75,174262,1,2,0:0:0:0:
181,113,174459,2,0,P|251:111|302:58,1,119.999996337891,2|0,0:0|0:0,0:0:0:0:
340,20,174854,1,4,0:0:0:0:
261,5,175051,1,0,0:0:0:0:
419,35,175249,6,0,L|408:164,1,119.999996337891,4|0,0:0|0:0,0:0:0:0:
357,214,175643,1,8,0:0:0:0:
399,282,175841,1,0,0:0:0:0:
408,154,176038,2,0,P|344:136|288:182,1,119.999996337891,0|0,0:0|0:0,0:0:0:0:
245,219,176433,1,8,0:0:0:0:
234,298,176630,1,0,0:0:0:0:
156,313,176828,5,2,0:0:0:0:
173,185,177025,1,2,0:0:0:0:
234,298,177222,1,8,0:0:0:0:
118,242,177420,1,2,0:0:0:0:
245,219,177617,2,0,L|376:232,1,119.999996337891,2|0,0:0|0:0,0:0:0:0:
468,284,178012,6,0,L|410:290,1,50,4|0,0:0|0:0,0:0:0:0:
364,230,178407,5,4,0:0:0:0:
292,264,178604,1,2,0:0:0:0:
418,289,178801,1,2,0:0:0:0:
380,359,178999,1,2,0:0:0:0:
301,343,179196,1,2,0:0:0:0:
292,264,179393,1,2,0:0:0:0:
73,245,179591,6,0,L|72:311,1,50,4|0,0:0|0:0,0:0:0:0:
118,350,179985,6,0,P|191:373|121:303,1,239.999992675781,4|8,0:0|0:0,0:0:0:0:
73,245,180578,2,0,B|52:186|52:186|73:85,1,119.999996337891,0|0,0:0|0:0,0:0:0:0:
135,103,180972,1,0,0:0:0:0:
31,54,181170,2,0,B|92:65|92:65|169:134,1,119.999996337891,4|0,0:0|0:0,0:0:0:0:
170,176,181564,6,0,P|212:118|179:37,1,119.999996337891,4|0,0:0|0:0,0:0:0:0:
145,26,181959,5,8,0:0:0:0:
135,103,182157,1,0,0:0:0:0:
279,41,182354,2,0,B|317:37|317:37|366:56|366:56|421:50,1,119.999996337891,0|0,0:0|0:0,0:0:0:0:
471,139,182749,5,8,0:0:0:0:
391,126,182946,1,0,0:0:0:0:
484,220,183143,5,2,0:0:0:0:
471,139,183340,1,2,0:0:0:0:
411,256,183538,5,8,0:0:0:0:
484,220,183735,1,2,0:0:0:0:
353,198,183933,6,0,P|288:194|245:236,1,119.999996337891,2|0,0:0|0:0,0:0:0:0:
142,351,184328,6,0,L|147:227,1,119.999996337891,4|0,0:0|0:0,0:0:0:0:
37,320,184722,2,0,P|82:356|141:350,1,119.999996337891,4|0,0:0|0:0,0:0:0:0:
252,291,185117,1,8,0:0:0:0:
167,263,185314,1,0,0:0:0:0:
226,374,185512,2,0,L|358:363,1,119.999996337891,0|0,0:0|0:0,0:0:0:0:
424,355,185907,5,8,0:0:0:0:
345,364,186104,1,0,0:0:0:0:
440,278,186301,5,2,0:0:0:0:
424,355,186499,1,2,0:0:0:0:
372,240,186696,5,8,0:0:0:0:
440,278,186893,1,2,0:0:0:0:
313,293,187091,6,0,P|300:211|336:169,1,119.999996337891,2|0,0:0|0:0,0:0:0:0:
372,129,187485,1,4,0:0:0:0:
441,165,187683,1,0,0:0:0:0:
303,93,187880,6,0,L|168:109,1,119.999996337891,4|0,0:0|0:0,0:0:0:0:
121,155,188275,1,8,0:0:0:0:
57,111,188472,1,0,0:0:0:0:
183,107,188670,2,0,P|193:181|151:228,1,119.999996337891,0|0,0:0|0:0,0:0:0:0:
229,325,189064,5,8,0:0:0:0:
254,250,189262,1,0,0:0:0:0:
292,371,189459,5,2,0:0:0:0:
229,325,189657,1,2,0:0:0:0:
356,325,189854,5,8,0:0:0:0:
292,371,190051,1,2,0:0:0:0:
333,250,190249,6,0,L|471:260,1,119.999996337891,2|0,0:0|0:0,0:0:0:0:
483,155,190643,6,0,P|486:108|480:93,1,50,4|0,0:0|0:0,0:0:0:0:
430,57,191038,5,4,0:0:0:0:
354,64,191235,1,2,0:0:0:0:
310,136,191433,1,2,0:0:0:0:
234,129,191630,1,2,0:0:0:0:
196,55,191828,1,2,0:0:0:0:
120,62,192025,1,2,0:0:0:0:
76,134,192222,6,0,P|75:177|84:197,1,50,4|0,0:0|0:0,0:0:0:0:
36,256,192617,6,0,P|107:265|16:301,1,239.999992675781,4|8,0:0|0:0,0:0:0:0:
144,200,193209,2,0,B|208:186|208:186|277:202,1,119.999996337891,0|0,0:0|0:0,0:0:0:0:
286,274,193604,1,0,0:0:0:0:
236,122,193801,1,8,0:0:0:0:
207,257,193999,1,0,0:0:0:0:
261,198,194196,5,4,0:0:0:0:
261,198,194788,6,0,P|326:166|404:201,1,150.000005722046,0|0,0:0|0:0,0:0:0:0:
332,254,195775,5,0,0:0:0:0:
332,254,195972,1,0,0:0:0:0:
273,291,196367,1,0,0:0:0:0:
204,289,196762,1,0,0:0:0:0:
204,289,196959,2,0,B|166:278|162:242|162:242|152:291|105:310,1,150.000005722046,0|0,0:0|0:0,0:0:0:0:
