osu file format v14

[General]
AudioFilename: audio.mp3
AudioLeadIn: 0
PreviewTime: 45398
Countdown: 0
SampleSet: Soft
StackLeniency: 0.7
Mode: 0
LetterboxInBreaks: 0
WidescreenStoryboard: 0

[Editor]
Bookmarks: 46853,93398,107944,134126
DistanceSpacing: 0.82
BeatDivisor: 4
GridSize: 32
TimelineZoom: 3.499999

[Metadata]
Title:YUKON (INTERLUDE)
TitleUnicode:YUKON (INTERLUDE)
Artist:Joji
ArtistUnicode:Joji
Creator:riot1133
Version:SMITHEREENS
Source:
Tags:english pop 88rising r&b rnb r'n'b rhythm and blues hip-hop filthy frank tvfilthyfrank pink guy george miller smithereens
BeatmapID:3940466
BeatmapSetID:1910391

[Difficulty]
HPDrainRate:5
CircleSize:4
OverallDifficulty:8.5
ApproachRate:8.5
SliderMultiplier:1.6
SliderTickRate:1

[Events]
//Background and Video events
0,0,"wallhaven-qz2j5q.jpg",0,0
//Break Periods
//Storyboard Layer 0 (Background)
//Storyboard Layer 1 (Fail)
//Storyboard Layer 2 (Pass)
//Storyboard Layer 3 (Foreground)
//Storyboard Layer 4 (Overlay)
//Storyboard Sound Samples

[TimingPoints]
346,731.707317073171,4,2,1,50,1,8
1809,705.882352941176,4,2,1,50,1,8
3220,727.272727272727,4,2,1,50,1,8
4674,759.493670886076,4,2,1,50,1,8
6192,693.64161849711,4,2,1,50,1,8
6192,-166.666666666667,4,2,1,50,0,0
7579,739.827373612824,4,2,1,50,1,8
9058,705.882352941176,4,2,1,50,1,8
10293,727.272727272727,4,2,1,50,1,8
10474,727.272727272727,4,2,1,50,1,8
11746,857.142857142857,4,2,1,50,1,8
11960,718.562874251497,4,2,1,50,1,8
13037,779.220779220779,4,2,1,50,1,8
13426,721.153846153846,4,2,1,50,1,8
16671,794.701986754967,4,2,1,50,1,8
17068,731.707317073171,4,2,1,50,1,8
17799,710.059171597633,4,2,1,50,1,8
17799,-166.666666666667,4,2,1,50,0,0
19219,736.196319018405,4,2,1,50,1,8
20691,740.740740740741,4,2,1,50,1,8
22172,722.89156626506,4,2,1,50,1,8
23617,705.882352941176,4,2,1,50,1,8
24675,779.220779220779,4,2,1,50,1,8
25064,720.720720720721,4,2,1,50,1,8
26505,720.720720720721,4,2,1,50,1,8
27946,740.740740740741,4,2,1,50,1,8
28316,789.473684210526,4,2,1,50,1,8
28710,750,4,2,1,50,1,8
29460,696.864111498258,4,2,1,50,1,8
30853,738.007380073801,4,2,1,50,1,8
32329,721.153846153846,4,2,1,50,1,8
33771,710.059171597633,4,2,1,50,1,8
35013,923.076923076923,4,2,1,50,1,8
35243,752.351097178683,4,2,1,50,1,8
35995,666.666666666667,4,2,1,50,1,8
36328,776.699029126214,4,2,1,50,1,8
36716,705.882352941176,4,2,1,50,1,8
38127,731.707317073171,4,2,1,50,1,8
39590,751.87969924812,4,2,1,50,1,8
41093,697.674418604651,4,2,1,50,1,8
41093,-166.666666666667,4,2,1,50,0,0
42488,733.048259010385,4,2,1,50,1,8
43954,740.740740740741,4,2,1,50,1,8
45435,689.655172413793,4,2,1,50,1,8
46124,727.272727272727,4,2,1,50,1,8
46851,363.636363636364,4,2,1,80,1,0
46851,-83.3333333333333,4,2,1,80,0,0
93396,-125,4,2,1,70,0,0
106487,-111.111111111111,4,2,1,70,0,0
107941,-100,4,2,1,70,0,0

[Colours]
Combo1 : 115,124,172
Combo2 : 201,141,52

[HitObjects]
76,145,346,6,0,B|121:85|227:122|231:206|158:232|130:195,1,240,2|0,0:0|0:0,0:0:0:0:
0,220,1809,2,0,P|114:168|229:133,1,240,2|0,0:0|0:0,0:0:0:0:
290,178,3220,2,0,B|316:176|316:176|335:75|402:7|402:7|449:27|503:31,1,320,2|2,0:0|0:0,0:0:0:0:
509,270,6192,6,0,P|479:283|423:379,1,143.999995605469,2|0,0:0|0:0,0:0:0:0:
334,365,7579,2,0,B|347:249|219:172|193:231,1,240,2|0,0:0|0:0,0:0:0:0:
52,322,9058,6,0,B|134:341|173:261|152:248|178:193|236:198,1,240,2|0,0:0|0:0,0:0:0:0:
285,142,10293,1,0,0:0:0:0:
285,142,10474,2,0,L|325:150,7,40
404,156,11960,6,0,P|410:114|315:75,1,160,2|0,0:0|0:0,0:0:0:0:
218,61,13037,2,0,P|196:44|173:37,1,40,2|2,0:0|0:0,0:0:0:0:
108,67,13426,6,0,P|118:114|125:162,1,80,2|2,0:0|0:0,0:0:0:0:
21,221,14147,2,0,P|88:225|102:243,1,80,2|2,0:0|0:0,0:0:0:0:
112,303,14688,1,2,0:0:0:0:
182,343,14868,6,0,P|240:330|249:241,1,160,2|2,0:0|0:0,0:0:0:0:
236,127,15950,2,0,P|227:158|222:180,1,40,2|2,0:0|0:0,0:0:0:0:
312,85,16310,6,0,P|321:136|327:182,1,80,2|2,0:0|0:0,0:0:0:0:
356,276,17068,2,0,B|361:216|400:230|405:169,1,120,2|2,0:0|0:0,0:0:0:0:
473,125,17799,6,0,P|484:182|454:262,1,143.999995605469
491,331,19219,2,0,B|475:362|332:392|285:288,1,240
211,233,20691,6,0,B|174:183|93:200|80:271|92:282|73:322|31:325,1,240
16,244,22172,2,0,B|-13:223|21:165|95:177|133:226|116:253|170:294,1,240
293,347,23617,6,0,B|253:339|253:339|262:261|232:209,1,160
156,166,24675,2,0,P|186:160|210:158,1,40,2|2,0:0|0:0,0:0:0:0:
235,75,25064,6,0,P|255:105|298:124,1,80,2|2,0:0|0:0,0:0:0:0:
433,69,25784,2,0,P|468:57|515:48,1,80,2|2,0:0|0:0,0:0:0:0:
492,131,26325,1,2,0:0:0:0:
497,210,26505,6,0,B|443:218|414:174|424:155|400:131|367:136,1,160,2|2,0:0|0:0,0:0:0:0:
274,81,27586,2,0,P|243:76|228:73,1,40,2|2,0:0|0:0,0:0:0:0:
177,25,27946,6,0,P|150:38|101:51,1,80,2|2,0:0|0:0,0:0:0:0:
76,135,28710,2,0,L|114:142,4,32,2|0|0|0|0,0:0|0:0|0:0|0:0|0:0,0:0:0:0:
57,150,29460,6,0,B|4:218|127:298|191:252|194:209,1,240
132,173,30853,5,0,0:0:0:0:
132,173,31222,2,0,P|177:166|188:165,3,40
15,322,32329,6,0,P|116:328|248:386,1,240
310,336,33771,2,0,P|333:331|356:328,7,40
430,294,35243,6,0,B|438:319|511:319|536:258|505:205,1,160
468,85,36328,2,0,P|445:97|423:102,1,40,2|2,0:0|0:0,0:0:0:0:
371,150,36716,6,0,P|337:113|301:93,1,80,2|2,0:0|0:0,0:0:0:0:
222,130,37421,2,0,P|174:114|132:115,1,80,2|2,0:0|0:0,0:0:0:0:
54,172,38127,6,0,P|79:177|111:268,1,120,2|2,0:0|0:0,0:0:0:0:
47,296,38858,1,2,0:0:0:0:
5,101,39590,5,0,0:0:0:0:
71,15,41093,6,0,P|108:44|199:76,1,143.999995605469
278,20,42488,6,0,P|324:24|349:56,1,80,2|2,0:0|0:0,0:0:0:0:
442,17,43221,2,0,P|426:62|418:97,1,80,2|2,0:0|0:0,0:0:0:0:
495,134,43954,6,0,B|476:192|436:157|420:227,1,120,2|2,0:0|0:0,0:0:0:0:
427,241,44879,1,2,0:0:0:0:
276,351,45435,5,0,0:0:0:0:
207,321,45779,1,0,0:0:0:0:
127,367,46124,1,0,0:0:0:0:
28,314,46487,2,0,P|51:313|71:311,1,40
21,138,46852,6,0,P|40:187|51:239,1,95.9999970703126,4|0,3:2|0:0,0:0:0:0:
184,86,47214,2,0,P|132:78|103:106,1,95.9999970703126,8|0,0:0|0:0,0:0:0:0:
227,163,47578,1,0,0:0:0:0:
227,163,47760,1,0,3:2:0:0:
333,43,47941,2,0,P|277:32|239:19,1,95.9999970703126,8|0,0:0|0:0,0:0:0:0:
490,105,48305,5,2,3:2:0:0:
430,246,48487,1,0,3:2:0:0:
333,128,48669,2,0,B|382:127|382:127|414:81,1,95.9999970703126,10|0,0:0|0:0,0:0:0:0:
285,210,49032,2,0,P|242:202|188:196,1,95.9999970703126,2|0,0:0|3:2,0:0:0:0:
93,251,49396,2,0,P|145:268|162:318,1,95.9999970703126,10|0,0:0|0:0,0:0:0:0:
335,364,49760,6,0,B|281:360|253:265|309:197,1,191.999994140625,2|8,3:2|0:0,0:0:0:0:
456,138,50305,1,2,0:0:0:0:
456,138,50487,1,0,0:0:0:0:
374,274,50669,1,2,3:2:0:0:
249,137,50851,2,0,P|300:123|347:120,1,95.9999970703126,8|0,0:0|0:0,0:0:0:0:
167,17,51214,5,0,3:2:0:0:
136,204,51396,1,0,3:2:0:0:
20,55,51578,1,8,0:0:0:0:
20,55,51760,1,0,0:0:0:0:
187,122,51941,1,0,0:0:0:0:
19,255,52123,1,0,3:2:0:0:
204,249,52305,2,0,B|155:244|155:244|127:286,1,95.9999970703126,8|0,0:0|0:0,0:0:0:0:
81,365,52578,1,0,0:0:0:0:
90,378,52669,6,0,P|162:365|195:365,1,95.9999970703126,0|0,3:2|0:0,0:0:0:0:
303,273,53032,2,0,B|288:195|288:195|272:194,1,95.9999970703126,8|0,0:0|0:0,0:0:0:0:
445,360,53396,1,0,0:0:0:0:
445,360,53578,1,0,3:2:0:0:
313,261,53760,2,0,B|298:183|298:183|282:182,1,95.9999970703126,8|0,0:0|0:0,0:0:0:0:
500,110,54123,5,2,3:2:0:0:
422,271,54305,1,0,3:2:0:0:
325,104,54487,2,0,P|377:93|419:78,1,95.9999970703126,10|0,0:0|0:0,0:0:0:0:
239,67,54851,2,0,P|207:21|169:11,1,95.9999970703126,2|0,0:0|3:2,0:0:0:0:
13,92,55214,2,0,P|23:146|29:192,1,95.9999970703126,10|0,0:0|0:0,0:0:0:0:
212,196,55578,6,0,B|114:176|137:280|45:282,1,191.999994140625,2|8,3:2|0:0,0:0:0:0:
116,353,56123,2,0,P|183:363|214:371,1,95.9999970703126,2|0,0:0|0:0,0:0:0:0:
239,120,56487,1,2,3:2:0:0:
295,299,56669,2,0,P|248:288|200:282,1,95.9999970703126,8|0,0:0|0:0,0:0:0:0:
50,180,57032,5,0,3:2:0:0:
231,103,57214,1,0,3:2:0:0:
30,8,57396,1,8,0:0:0:0:
30,8,57578,1,0,0:0:0:0:
150,176,57760,1,0,0:0:0:0:
318,37,57941,1,0,3:2:0:0:
361,224,58123,2,0,P|311:198|303:159,1,95.9999970703126,8|0,0:0|0:0,0:0:0:0:
401,78,58396,1,0,0:0:0:0:
411,64,58487,6,0,P|461:51|506:42,1,95.9999970703126,0|0,3:2|0:0,0:0:0:0:
497,235,58851,2,0,P|485:175|475:135,1,95.9999970703126,8|0,0:0|0:0,0:0:0:0:
302,162,59214,2,0,P|252:149|207:140,1,95.9999970703126,0|0,0:0|0:2,0:0:0:0:
205,373,59578,1,10,0:0:0:0:
238,239,59760,1,2,0:0:0:0:
46,372,59941,6,0,P|77:328|128:327,1,95.9999970703126,2|0,2:2|0:2,0:0:0:0:
283,314,60305,2,0,P|322:289|331:243,1,95.9999970703126,10|0,0:0|0:0,0:0:0:0:
124,141,60669,2,0,P|139:203|145:244,1,95.9999970703126,2|0,0:0|0:2,0:0:0:0:
222,370,61032,1,10,0:0:0:0:
282,159,61214,1,2,0:0:0:0:
494,340,61396,6,0,P|431:347|341:372,1,143.999995605469,2|0,0:2|0:0,0:0:0:0:
332,366,61760,2,0,P|380:347|425:336,1,95.9999970703126,10|0,0:0|0:0,0:0:0:0:
494,159,62123,1,2,0:0:0:0:
357,263,62305,1,0,3:2:0:0:
340,60,62487,1,10,0:0:0:0:
437,222,62669,1,2,0:0:0:0:
480,21,62851,5,2,3:2:0:0:
253,88,63032,1,0,3:2:0:0:
494,159,63214,2,0,P|429:139|393:138,1,95.9999970703126,10|0,0:0|0:0,0:0:0:0:
252,257,63578,1,2,0:0:0:0:
252,257,63760,1,0,3:2:0:0:
177,49,63941,2,0,L|167:103,2,47.9999985351563,8|0|2,0:0|3:0|0:0,0:0:0:0:
104,167,64305,6,0,P|161:177|211:194,1,95.9999970703126,0|0,3:2|0:0,0:0:0:0:
376,38,64669,1,10,0:0:0:0:
253,109,64851,1,2,0:0:0:0:
454,161,65032,2,0,P|378:177|351:188,1,95.9999970703126,2|0,0:0|3:2,0:0:0:0:
286,267,65396,1,10,0:0:0:0:
259,132,65578,1,2,0:0:0:0:
116,314,65760,5,2,3:2:0:0:
168,96,65941,1,2,3:2:0:0:
0,213,66123,2,0,P|57:223|105:228,1,95.9999970703126,10|0,0:0|0:0,0:0:0:0:
332,326,66487,2,0,P|278:298|194:380,1,191.999994140625,2|8,0:0|0:0,0:0:0:0:
56,148,67032,1,2,0:0:0:0:
56,148,67123,1,0,0:0:0:0:
56,148,67214,6,0,B|92:115|92:115|139:127,1,95.9999970703126,0|0,3:2|0:0,0:0:0:0:
231,13,67578,2,0,P|257:64|299:68,1,95.9999970703126,10|0,0:0|0:0,0:0:0:0:
419,13,67941,2,0,P|409:64|405:108,1,95.9999970703126,2|0,0:0|3:2,0:0:0:0:
465,253,68305,1,10,0:0:0:0:
293,162,68487,1,2,0:0:0:0:
499,121,68669,6,0,P|448:111|404:107,1,95.9999970703126,2|0,3:2|0:0,0:0:0:0:
338,258,69032,2,0,P|287:248|243:244,1,95.9999970703126,2|0,3:2|0:0,0:0:0:0:
216,113,69396,2,0,P|164:116|120:124,1,95.9999970703126,2|0,3:2|0:0,0:0:0:0:
95,287,69760,2,0,P|43:290|0:298,1,95.9999970703126,0|2,3:0|0:0,0:0:0:0:
0,31,70123,6,0,P|36:70|26:116,1,95.9999970703126,0|0,3:2|0:0,0:0:0:0:
101,255,70487,2,0,P|110:197|120:153,1,95.9999970703126,8|0,0:0|0:0,0:0:0:0:
275,56,70851,1,0,0:0:0:0:
275,56,71032,1,0,3:2:0:0:
229,222,71214,1,10,0:0:0:0:
158,40,71396,1,2,0:0:0:0:
321,158,71578,5,2,3:2:0:0:
393,14,71760,1,0,3:2:0:0:
506,154,71941,2,0,P|455:135|409:125,1,95.9999970703126,10|0,0:0|0:0,0:0:0:0:
338,259,72305,2,0,P|391:248|411:214,1,95.9999970703126,2|0,0:0|3:2,0:0:0:0:
215,191,72669,1,10,0:0:0:0:
321,355,72851,1,2,0:0:0:0:
117,260,73032,5,2,3:2:0:0:
320,175,73214,1,2,0:0:0:0:
113,275,73396,2,0,P|60:293|22:315,1,95.9999970703126,10|0,0:0|0:0,0:0:0:0:
0,127,73760,2,0,P|24:178|40:218,1,95.9999970703126,2|0,0:0|3:2,0:0:0:0:
182,358,74123,1,10,0:0:0:0:
218,153,74305,1,2,0:0:0:0:
356,281,74487,5,2,3:2:0:0:
294,98,74669,1,0,3:2:0:0:
157,232,74851,2,0,P|222:244|252:256,1,95.9999970703126,10|0,0:0|0:0,0:0:0:0:
502,225,75214,2,0,P|442:224|387:113,1,191.999994140625,2|8,0:0|0:0,0:0:0:0:
162,30,75760,1,0,0:0:0:0:
162,30,75851,1,0,0:0:0:0:
162,30,75941,6,0,P|226:19|266:16,1,95.9999970703126,0|0,3:2|0:0,0:0:0:0:
280,193,76305,1,10,0:0:0:0:
406,4,76487,1,2,0:0:0:0:
171,126,76669,2,0,P|185:176|191:223,1,95.9999970703126,2|0,0:0|3:2,0:0:0:0:
156,359,77032,1,10,0:0:0:0:
78,170,77214,1,2,0:0:0:0:
237,307,77396,5,2,3:2:0:0:
291,127,77578,1,0,3:2:0:0:
29,271,77760,2,0,P|83:253|119:276,1,95.9999970703126,10|0,0:0|0:0,0:0:0:0:
340,309,78123,2,0,P|251:326|149:361,1,191.999994140625,2|8,0:0|0:0,0:0:0:0:
45,139,78669,1,2,0:0:0:0:
45,139,78760,1,0,0:0:0:0:
45,139,78851,6,0,B|94:143|94:143|123:101,1,95.9999970703126,0|0,3:2|0:0,0:0:0:0:
299,21,79214,1,10,0:0:0:0:
228,198,79396,1,2,0:0:0:0:
96,12,79578,2,0,P|156:23|194:37,1,95.9999970703126,2|0,0:0|3:2,0:0:0:0:
420,207,79941,1,10,0:0:0:0:
382,53,80123,1,2,0:0:0:0:
222,212,80305,5,2,3:2:0:0:
303,6,80487,1,0,3:2:0:0:
444,119,80669,2,0,P|389:133|347:149,1,95.9999970703126,10|0,0:0|0:0,0:0:0:0:
385,317,81032,2,0,B|273:300|334:245|218:235,1,191.999994140625,2|8,0:0|0:0,0:0:0:0:
56,348,81578,1,2,0:0:0:0:
56,348,81669,1,0,0:0:0:0:
56,348,81760,6,0,B|105:362|105:362|141:332,1,95.9999970703126,0|0,3:2|0:0,0:0:0:0:
186,156,82123,2,0,B|235:142|235:142|271:172,1,95.9999970703126,8|0,0:0|0:0,0:0:0:0:
291,295,82487,1,0,0:0:0:0:
391,227,82669,1,0,3:2:0:0:
249,36,82851,1,10,0:0:0:0:
218,235,83032,1,2,0:0:0:0:
91,57,83214,5,2,3:2:0:0:
310,103,83396,1,0,3:2:0:0:
80,71,83578,2,0,P|96:128|105:170,1,95.9999970703126,10|0,0:0|0:0,0:0:0:0:
6,313,83941,2,0,P|24:266|85:246,1,95.9999970703126,2|0,0:0|3:2,0:0:0:0:
218,368,84305,2,0,P|165:354|125:341,1,95.9999970703126,10|0,0:0|0:0,0:0:0:0:
185,113,84669,6,0,P|238:136|383:177,1,191.999994140625,2|8,3:2|0:0,0:0:0:0:
461,54,85214,2,0,P|407:53|379:87,1,95.9999970703126,2|0,0:0|0:0,0:0:0:0:
436,241,85578,1,2,3:2:0:0:
265,172,85760,2,0,P|278:238|281:277,1,95.9999970703126,8|0,0:0|0:0,0:0:0:0:
444,343,86123,5,0,3:2:0:0:
497,155,86305,1,0,3:2:0:0:
283,351,86487,2,0,B|307:309|307:309|355:308,1,95.9999970703126,8|0,0:0|0:0,0:0:0:0:
441,226,86851,2,0,B|406:191|406:191|360:203,1,95.9999970703126,0|0,0:0|3:2,0:0:0:0:
153,319,87214,2,0,L|203:315,2,47.9999985351563,8|0|0,0:0|3:0|0:0,0:0:0:0:
2,193,87578,6,0,B|108:174|64:249|191:232,1,191.999994140625,0|8,3:2|0:0,0:0:0:0:
253,166,88123,1,0,0:0:0:0:
253,166,88305,1,0,0:0:0:0:
160,114,88487,1,0,3:2:0:0:
342,28,88669,2,0,P|333:92|331:130,1,95.9999970703126,8|0,0:0|0:0,0:0:0:0:
467,253,89032,5,2,3:2:0:0:
499,75,89214,1,0,3:2:0:0:
468,271,89396,2,0,P|433:303|384:296,1,95.9999970703126,10|0,0:0|0:0,0:0:0:0:
243,203,89760,2,0,P|289:198|323:230,1,95.9999970703126,2|0,0:0|3:2,0:0:0:0:
200,366,90123,2,0,P|187:305|174:266,1,95.9999970703126,10|0,0:0|0:0,0:0:0:0:
28,154,90396,1,0,0:0:0:0:
34,170,90487,6,0,P|128:187|229:196,1,191.999994140625,2|8,3:2|0:0,0:0:0:0:
267,106,91032,2,0,P|210:91|184:112,1,95.9999970703126,2|0,0:0|0:0,0:0:0:0:
105,222,91396,1,2,3:2:0:0:
3,78,91578,2,0,P|53:64|100:60,1,95.9999970703126,8|0,0:0|0:0,0:0:0:0:
322,30,91941,6,0,B|323:44|323:44|409:53,1,95.9999970703126,0|0,3:0|0:0,0:0:0:0:
492,113,92305,2,0,B|491:127|491:127|405:136,1,95.9999970703126,0|0,3:0|0:0,0:0:0:0:
300,191,92669,2,0,B|301:205|301:205|387:214,1,95.9999970703126,0|0,3:0|0:0,0:0:0:0:
470,274,93032,2,0,B|469:288|469:288|383:297,1,95.9999970703126,0|0,3:0|0:0,0:0:0:0:
215,345,93396,6,0,B|151:331|175:295|100:296,1,128,0|0,3:2|0:0,0:0:0:0:
14,208,93941,1,0,0:0:0:0:
88,152,94123,2,0,P|98:198|104:219,2,64,8|0|0,0:0|0:0|0:0,0:0:0:0:
160,70,94669,1,0,3:2:0:0:
160,70,94851,6,0,P|197:50|228:62,1,64,2|0,0:0|0:0,0:0:0:0:
239,139,95214,2,0,P|196:153|168:146,1,64,2|0,3:2|0:0,0:0:0:0:
198,234,95578,2,0,P|206:279|215:307,1,64,10|0,0:0|3:2,0:0:0:0:
387,135,95941,2,0,P|379:180|375:202,1,64,2|0,0:0|3:2,0:0:0:0:
386,286,96305,6,0,P|337:282|297:196,1,128,2|0,3:2|0:0,0:0:0:0:
248,143,96851,1,2,3:2:0:0:
120,182,97032,2,0,P|162:191|196:204,1,64,10|0,0:0|0:0,0:0:0:0:
145,323,97396,5,0,3:2:0:0:
229,299,97578,2,0,B|234:318|234:318|356:328,1,128,0|0,3:2|0:0,0:0:0:0:
419,375,98123,2,0,P|435:336|470:322,1,64,0|0,3:2|0:0,0:0:0:0:
505,221,98487,1,8,0:0:0:0:
426,243,98669,2,0,P|378:236|348:228,1,64,0|0,3:2|0:0,0:0:0:0:
296,99,99032,1,0,3:2:0:0:
225,143,99214,6,0,B|243:172|243:172|288:182,2,64,0|0|0,3:2|0:0|0:0,0:0:0:0:
58,27,99941,1,8,0:0:0:0:
40,109,100123,2,0,P|94:101|122:97,1,64
281,37,100487,1,0,3:2:0:0:
191,26,100669,6,0,P|204:69|210:105,1,64,2|0,0:0|0:0,0:0:0:0:
278,134,101032,2,0,P|265:177|258:215,1,64,2|0,3:2|0:0,0:0:0:0:
229,301,101396,2,0,P|206:253|176:246,1,64,10|0,0:0|3:2,0:0:0:0:
147,186,101760,2,0,P|93:181|70:203,1,64,2|0,0:0|3:2,0:0:0:0:
0,247,102123,6,0,P|53:259|143:307,1,128,2|0,3:2|0:0,0:0:0:0:
174,362,102669,1,2,3:2:0:0:
291,312,102851,2,0,P|241:304|209:293,1,64,8|2,0:0|0:0,0:0:0:0:
241,140,103214,1,0,3:2:0:0:
324,196,103396,6,0,P|396:167|467:159,1,128,0|0,3:2|0:0,0:0:0:0:
489,294,103941,2,0,P|459:254|429:248,1,64,0|0,3:2|0:0,0:0:0:0:
383,306,104305,1,8,0:0:0:0:
304,273,104487,2,0,P|254:285|220:296,1,64,0|0,3:2|0:0,0:0:0:0:
183,349,104851,1,0,3:2:0:0:
41,289,105032,6,0,B|66:267|66:267|112:272,1,64,0|0,3:2|0:0,0:0:0:0:
134,197,105396,2,0,B|165:191|165:191|200:219,1,64
304,273,105760,2,0,B|281:258|281:258|287:178,2,96,8|0|0,0:0|0:0|3:2,0:0:0:0:
400,318,106487,5,0,3:2:0:0:
372,208,106669,1,0,3:2:0:0:
415,327,106851,2,0,P|460:316|500:311,1,71.9999978027344,8|0,0:0|0:0,0:0:0:0:
512,230,107214,1,0,0:0:0:0:
512,230,107396,1,0,3:2:0:0:
432,147,107578,2,0,P|406:182|369:188,1,71.9999978027344,8|0,0:0|0:0,0:0:0:0:
271,66,107941,6,0,P|224:71|170:83,1,80,0|0,3:2|0:0,0:0:0:0:
104,108,108305,2,0,P|129:148|115:189,1,80,8|0,0:0|0:0,0:0:0:0:
47,213,108669,1,0,0:0:0:0:
47,213,108851,1,0,3:2:0:0:
114,306,109032,2,0,P|68:298|26:296,1,80,8|0,0:0|0:0,0:0:0:0:
21,311,109305,1,0,0:0:0:0:
21,311,109396,5,0,3:2:0:0:
93,384,109578,1,0,3:2:0:0:
177,245,109760,2,0,P|216:251|255:261,1,80,8|0,0:0|0:0,0:0:0:0:
314,343,110123,1,0,0:0:0:0:
314,343,110305,1,0,3:2:0:0:
404,263,110487,2,0,P|452:247|488:241,1,80,8|0,0:0|0:0,0:0:0:0:
504,155,110760,1,0,0:0:0:0:
492,143,110851,6,0,B|452:154|452:154|417:134,1,80,0|0,3:2|0:0,0:0:0:0:
429,43,111214,2,0,P|390:52|353:66,1,80,8|0,0:0|0:0,0:0:0:0:
263,37,111578,1,0,0:0:0:0:
263,37,111760,1,0,3:2:0:0:
171,99,111941,2,0,P|214:103|239:134,1,80,8|0,0:0|0:0,0:0:0:0:
254,142,112214,1,0,0:0:0:0:
254,142,112305,5,0,3:2:0:0:
158,268,112487,1,0,3:2:0:0:
93,194,112669,2,0,P|149:185|180:175,1,80,8|0,0:0|0:0,0:0:0:0:
260,243,113032,1,0,0:0:0:0:
260,243,113214,1,0,3:2:0:0:
347,161,113396,2,0,B|374:190|374:190|416:186,1,80,8|0,0:0|0:0,0:0:0:0:
467,264,113669,1,0,0:0:0:0:
459,280,113760,6,0,P|419:300|388:319,1,80,0|0,3:2|0:0,0:0:0:0:
254,380,114123,2,0,P|273:333|306:325,1,80,8|0,0:0|0:0,0:0:0:0:
196,292,114487,1,0,0:0:0:0:
196,292,114669,1,0,3:2:0:0:
106,364,114851,2,0,P|98:324|79:279,1,80,8|0,0:0|0:0,0:0:0:0:
69,278,115123,1,0,0:0:0:0:
69,278,115214,5,0,3:2:0:0:
166,156,115396,1,0,3:2:0:0:
21,193,115578,2,0,P|60:199|115:212,1,80,8|0,0:0|0:0,0:0:0:0:
239,189,115941,1,0,0:0:0:0:
239,189,116123,1,0,3:2:0:0:
175,71,116305,2,0,P|124:80|101:118,1,80,8|0,0:0|0:0,0:0:0:0:
19,114,116578,1,0,0:0:0:0:
17,97,116669,6,0,L|7:10,1,80,2|0,3:2|0:0,0:0:0:0:
156,235,117032,2,0,L|166:148,1,80,10|0,0:0|0:0,0:0:0:0:
33,222,117396,2,0,L|43:309,1,80,2|0,0:0|0:2,0:0:0:0:
195,383,117760,1,10,0:0:0:0:
133,315,117941,1,2,0:0:0:0:
304,194,118123,5,2,0:2:0:0:
276,352,118305,1,2,0:2:0:0:
173,245,118487,1,10,0:0:0:0:
173,245,118669,1,2,0:0:0:0:
346,278,118851,2,0,P|399:263|416:232,1,80,2|0,0:0|0:2,0:0:0:0:
503,108,119214,2,0,P|489:155|484:187,1,80,8|2,0:0|0:0,0:0:0:0:
497,202,119487,1,0,0:0:0:0:
497,202,119578,5,2,0:2:0:0:
412,129,119760,1,2,0:0:0:0:
333,269,119941,1,10,0:0:0:0:
339,181,120123,1,2,0:0:0:0:
259,225,120305,1,2,0:0:0:0:
226,117,120487,1,2,3:2:0:0:
139,256,120669,1,10,0:0:0:0:
164,180,120851,1,2,0:0:0:0:
65,106,121032,6,0,L|77:198,1,80,2|0,3:2|3:2,0:0:0:0:
224,316,121396,2,0,L|234:236,1,80,8|0,0:0|0:0,0:0:0:0:
55,115,121760,2,0,L|67:207,1,80,0|0,0:0|3:2,0:0:0:0:
238,324,122123,2,0,L|245:276,2,40,8|0|0,0:0|3:0|0:0,0:0:0:0:
336,335,122487,5,0,3:2:0:0:
376,268,122669,1,0,0:0:0:0:
444,306,122851,1,8,0:0:0:0:
512,177,123032,2,0,B|495:181|495:181|490:245,1,80
357,195,123396,1,0,3:2:0:0:
395,129,123578,2,0,B|435:131|435:131|461:99,1,80,8|2,0:0|0:0,0:0:0:0:
393,41,123941,5,2,3:2:0:0:
301,137,124123,1,2,3:2:0:0:
196,58,124305,1,10,0:0:0:0:
226,184,124487,1,2,0:0:0:0:
132,120,124669,1,2,0:0:0:0:
115,203,124851,1,2,3:2:0:0:
1,83,125032,1,10,0:0:0:0:
26,179,125214,1,2,0:0:0:0:
143,38,125396,6,0,L|228:51,1,80,2|0,3:2|0:0,0:0:0:0:
305,171,125760,2,0,L|220:184,1,80,8|0,0:0|0:0,0:0:0:0:
144,25,126123,2,0,L|229:38,1,80,0|0,0:0|3:2,0:0:0:0:
307,185,126487,2,0,L|222:198,1,80,8|0,0:0|0:0,0:0:0:0:
32,274,126851,6,0,P|60:239|106:238,1,80,0|0,3:2|0:0,0:0:0:0:
144,318,127214,2,0,P|172:283|218:282,1,80,0|0,3:0|0:0,0:0:0:0:
285,307,127578,2,0,P|313:272|359:271,1,80,0|0,3:0|0:0,0:0:0:0:
397,351,127941,2,0,P|425:316|471:315,1,80,0|0,3:0|0:0,0:0:0:0:
510,153,128305,6,0,P|463:143|428:131,1,80,0|0,3:2|0:0,0:0:0:0:
311,80,128669,2,0,P|343:120|342:154,1,80,8|0,0:0|0:0,0:0:0:0:
244,152,129032,1,0,0:0:0:0:
244,152,129214,1,0,3:2:0:0:
190,48,129396,2,0,P|139:38|107:36,1,80,8|0,0:0|0:0,0:0:0:0:
45,189,129760,5,0,3:2:0:0:
11,57,129941,1,0,3:2:0:0:
143,126,130123,2,0,P|132:185|128:207,1,80,8|0,0:0|0:0,0:0:0:0:
18,269,130487,1,0,0:0:0:0:
18,269,130669,1,0,3:2:0:0:
82,335,130851,2,0,B|113:310|113:310|156:321,1,80,8|0,0:0|0:0,0:0:0:0:
357,296,131214,6,0,P|348:340|346:379,1,80,0|0,3:2|0:0,0:0:0:0:
491,315,131578,2,0,P|462:350|430:348,1,80,8|0,0:0|0:0,0:0:0:0:
372,210,131941,1,0,0:0:0:0:
372,210,132123,1,0,3:2:0:0:
244,248,132305,2,0,P|264:293|274:324,1,80,8|0,0:0|0:0,0:0:0:0:
447,247,132669,5,0,3:2:0:0:
429,84,132851,1,0,3:2:0:0:
285,176,133032,2,0,P|362:189|378:191,1,80,8|0,0:0|0:0,0:0:0:0:
480,154,133396,1,0,0:0:0:0:
480,154,133578,1,0,3:2:0:0:
360,31,133760,2,0,P|347:78|342:111,1,80,8|0,0:0|0:0,0:0:0:0:
206,43,134123,5,4,0:0:0:0:
