osu file format v14

[General]
AudioFilename: audio.mp3
AudioLeadIn: 0
PreviewTime: 92682
Countdown: 0
SampleSet: Soft
StackLeniency: 0.2
Mode: 0
LetterboxInBreaks: 0
EpilepsyWarning: 1
WidescreenStoryboard: 1

[Editor]
Bookmarks: 21696,48393,59753,82475,139241
DistanceSpacing: 2.4
BeatDivisor: 4
GridSize: 8
TimelineZoom: 2.999999

[Metadata]
Title:YEAH RIGHT
TitleUnicode:YEAH RIGHT
Artist:Joji
ArtistUnicode:Joji
Creator:Mortem
Version:KITTYADVENTURE'S TRAGIC LOVE STORY
Source:
Tags:lofi 88rising empire records filthy frank george miller japan gordon123 kittyadventure gokugohan12468 smau5 ballads 1
BeatmapID:1861763
BeatmapSetID:817776

[Difficulty]
HPDrainRate:5
CircleSize:3.5
OverallDifficulty:8
ApproachRate:8.5
SliderMultiplier:2.34
SliderTickRate:2

[Events]
//Background and Video events
0,0,"background.jpg",0,0
//Break Periods
//Storyboard Layer 0 (Background)
//Storyboard Layer 1 (Fail)
//Storyboard Layer 2 (Pass)
//Storyboard Layer 3 (Foreground)
//Storyboard Sound Samples

[TimingPoints]
40,710.059171597633,4,2,1,60,1,0
11375,710.059171597633,4,2,1,60,1,0
21670,-133.333333333333,4,2,0,25,0,0
22735,-100,4,2,3,60,0,1
22780,-100,4,2,3,60,0,0
23801,-100,4,2,2,60,0,0
24156,-100,4,2,1,60,0,0
24688,-100,4,2,2,60,0,0
26463,-100,4,2,1,60,0,0
26996,-100,4,2,2,60,0,0
27528,-100,4,2,1,60,0,0
29481,-100,4,2,2,60,0,0
29836,-100,4,2,3,60,0,0
30369,-100,4,2,4,60,0,0
30901,-100,4,2,4,60,0,0
31256,-100,4,2,4,60,0,0
34096,-100,4,2,3,60,0,0
35161,-100,4,2,2,60,0,0
35517,-100,4,2,1,60,0,0
36049,-100,4,2,2,60,0,0
37824,-100,4,2,1,60,0,0
38357,-100,4,2,2,60,0,0
38889,-100,4,2,1,60,0,0
40842,-100,4,2,2,60,0,0
41197,-100,4,2,3,60,0,0
41730,-100,4,2,4,60,0,0
47232,-100,4,2,0,25,0,0
48390,710.059171597633,4,2,1,60,1,0
49456,-100,4,2,2,60,0,0
49811,-100,4,2,1,60,0,0
50343,-100,4,2,2,60,0,0
52118,-100,4,2,1,60,0,0
52651,-100,4,2,2,60,0,0
53183,-100,4,2,1,60,0,0
55136,-100,4,2,2,60,0,0
55491,-100,4,2,3,60,0,0
56024,-100,4,2,4,60,0,0
59395,-100,4,2,4,60,0,0
59750,-100,4,2,3,60,0,1
59839,-100,4,2,3,60,0,0
60816,-100,4,2,2,60,0,0
61171,-100,4,2,1,60,0,0
61703,-100,4,2,2,60,0,0
63478,-100,4,2,1,60,0,0
64011,-100,4,2,2,60,0,0
64543,-100,4,2,1,60,0,0
66496,-100,4,2,2,60,0,0
66851,-100,4,2,3,60,0,0
67384,-100,4,2,4,60,0,0
71113,-100,4,2,3,60,0,0
72179,-100,4,2,2,60,0,0
72534,-100,4,2,1,60,0,0
73066,-100,4,2,2,60,0,0
74841,-100,4,2,1,60,0,0
75374,-100,4,2,2,60,0,0
75906,-100,4,2,1,60,0,0
77859,-100,4,2,2,60,0,0
78214,-100,4,2,3,60,0,0
78747,-100,4,2,4,60,0,0
81407,-100,4,2,4,60,0,0
81762,-100,4,2,4,60,0,0
82472,-100,4,2,0,25,0,0
93833,-95.2380952380952,4,2,3,60,0,1
93878,-95.2380952380952,4,2,3,60,0,0
94899,-95.2380952380952,4,2,2,60,0,0
95254,-95.2380952380952,4,2,1,60,0,0
95786,-95.2380952380952,4,2,2,60,0,0
96674,-95.2380952380952,4,2,2,60,0,0
97561,-95.2380952380952,4,2,1,60,0,0
98094,-95.2380952380952,4,2,2,60,0,0
98626,-95.2380952380952,4,2,1,60,0,0
99514,-95.2380952380952,4,2,1,60,0,0
100579,-95.2380952380952,4,2,2,60,0,0
100934,-95.2380952380952,4,2,3,60,0,0
101467,-95.2380952380952,4,2,4,60,0,0
102354,-95.2380952380952,4,2,4,60,0,0
105194,-95.2380952380952,4,2,3,60,0,0
106260,-95.2380952380952,4,2,2,60,0,0
106615,-95.2380952380952,4,2,1,60,0,0
107147,-95.2380952380952,4,2,2,60,0,0
108034,-95.2380952380952,4,2,2,60,0,0
108922,-95.2380952380952,4,2,1,60,0,0
109455,-95.2380952380952,4,2,2,60,0,0
109987,-95.2380952380952,4,2,1,60,0,0
111940,-95.2380952380952,4,2,2,60,0,0
112295,-95.2380952380952,4,2,3,60,0,0
112828,-95.2380952380952,4,2,4,60,0,0
113715,-95.2380952380952,4,2,4,60,0,0
114425,-95.2380952380952,4,2,4,60,0,0
114514,-95.2380952380952,4,2,4,60,0,0
116520,710.059171597633,4,2,1,60,1,1
116520,-90.9090909090909,4,2,1,60,0,1
116564,-90.9090909090909,4,2,1,60,0,0
117586,-90.9090909090909,4,2,2,60,0,0
117941,-90.9090909090909,4,2,1,60,0,0
118473,-90.9090909090909,4,2,2,60,0,0
120248,-90.9090909090909,4,2,1,60,0,0
120781,-90.9090909090909,4,2,2,60,0,0
121313,-90.9090909090909,4,2,1,60,0,0
123266,-90.9090909090909,4,2,2,60,0,0
123621,-90.9090909090909,4,2,3,60,0,0
124154,-90.9090909090909,4,2,4,60,0,0
127880,-90.9090909090909,4,2,3,60,0,0
128946,-90.9090909090909,4,2,2,60,0,0
129301,-90.9090909090909,4,2,1,60,0,0
129833,-90.9090909090909,4,2,2,60,0,0
131608,-90.9090909090909,4,2,1,60,0,0
132141,-90.9090909090909,4,2,2,60,0,0
132673,-90.9090909090909,4,2,1,60,0,0
134626,-90.9090909090909,4,2,2,60,0,0
134981,-90.9090909090909,4,2,3,60,0,0
135514,-90.9090909090909,4,2,4,60,0,0
137466,-133.333333333333,4,2,4,60,0,0
137733,-133.333333333333,4,2,4,5,0,0
137821,-200,4,2,4,60,0,0
138088,-200,4,2,4,5,0,0
138176,-83.3333333333333,4,2,4,60,0,0
138443,-83.3333333333333,4,2,4,5,0,0
138531,-133.333333333333,4,2,4,60,0,0
138798,-133.333333333333,4,2,4,5,0,0
138886,-66.6666666666667,4,2,4,60,0,0
139153,-66.6666666666667,4,2,4,5,0,0
139241,-100,4,2,4,60,0,0

[Colours]
Combo1 : 150,84,171
Combo2 : 83,132,172

[HitObjects]
110,60,21670,6,0,L|118:111,1,43.8750016736985,0|0,0:0|0:0,0:0:0:0:
70,195,22025,1,0,0:0:0:0:
175,195,22203,2,0,L|167:246,2,43.8750016736985,0|0|0,0:0|0:0|0:0,0:0:0:0:
284,354,22735,6,0,L|266:239,1,117,6|0,0:0|0:0,0:0:0:0:
320,170,23268,1,2,0:3:0:0:
397,212,23446,2,0,P|381:238|356:253,1,58.5,8|0,0:0|0:0,0:0:0:0:
395,125,23801,2,0,L|453:136,1,58.5,2|2,0:0|0:3,0:0:0:0:
320,170,24156,2,0,P|308:130|314:97,1,58.5,2|2,0:0|0:3,0:0:0:0:
235,67,24511,6,0,P|260:41|291:30,1,58.5,0|2,0:3|0:0,0:0:0:0:
364,41,24866,1,8,0:0:0:0:
395,125,25043,2,0,L|453:136,2,58.5,0|0|0,0:0|0:0|0:0,0:0:0:0:
320,170,25576,6,0,P|268:157|213:187,1,117,4|0,0:0|0:0,0:0:0:0:
280,245,26108,1,2,0:3:0:0:
190,270,26286,1,8,0:0:0:0:
369,348,26463,6,0,B|296:354|296:354|260:330,1,117,2|2,0:0|0:3,0:0:0:0:
116,230,26996,1,2,0:0:0:0:
148,308,27173,2,0,P|173:294|190:270,1,58.5,2|0,0:3|0:3,0:0:0:0:
60,300,27528,5,2,0:0:0:0:
24,220,27706,2,0,L|36:162,1,58.5,8|0,0:0|0:0,0:0:0:0:
128,172,28061,2,0,L|115:229,1,58.5,0|0,0:0|0:0,0:0:0:0:
95,90,28416,6,0,P|156:85|201:118,1,117,4|0,0:0|0:0,0:0:0:0:
215,205,28948,1,2,0:3:0:0:
285,145,29126,2,0,P|316:151|344:147,1,58.5,8|0,0:0|0:0,0:0:0:0:
464,84,29481,2,0,P|435:78|406:81,1,58.5,2|2,0:0|0:3,0:0:0:0:
357,13,29836,2,0,P|327:48|321:73,1,58.5,2|2,0:0|0:3,0:0:0:0:
390,220,30191,6,0,P|420:185|426:160,1,58.5,0|2,0:3|0:0,0:0:0:0:
342,147,30546,1,8,0:0:0:0:
300,225,30724,1,0,0:0:0:0:
245,155,30901,2,0,P|215:190|209:215,1,58.5,0|0,0:0|0:0,0:0:0:0:
235,285,31256,6,0,P|189:245|131:246,1,117,4|0,0:0|0:0,0:0:0:0:
70,310,31789,1,2,0:3:0:0:
160,330,31966,1,8,0:0:0:0:
89,168,32144,2,0,P|68:186|53:217,1,58.5,2|0,0:0|0:0,0:0:0:0:
160,330,32499,1,2,0:3:0:0:
70,310,32676,1,2,0:0:0:0:
135,244,32854,1,2,0:3:0:0:
241,208,33031,6,0,L|225:265,1,58.5,0|2,0:3|0:0,0:0:0:0:
165,155,33386,2,0,L|181:98,1,58.5,8|0,0:0|0:0,0:0:0:0:
285,60,33741,2,0,L|268:116,1,58.5,2|0,0:0|0:0,0:0:0:0:
100,65,34096,6,0,P|142:21|196:15,1,117,6|0,0:0|0:0,0:0:0:0:
180,99,34629,1,2,0:3:0:0:
285,60,34806,2,0,L|268:116,1,58.5,8|0,0:0|0:0,0:0:0:0:
340,200,35161,2,0,L|357:144,1,58.5,2|2,0:0|0:3,0:0:0:0:
245,205,35517,2,0,L|262:261,1,58.5,2|2,0:0|0:3,0:0:0:0:
190,345,35872,6,0,L|173:289,1,58.5,0|2,0:3|0:0,0:0:0:0:
245,205,36227,1,8,0:0:0:0:
90,235,36404,2,0,L|73:291,2,58.5,0|0|0,0:0|0:0|0:0,0:0:0:0:
70,115,36937,6,0,P|121:152|181:144,1,117,4|0,0:0|0:0,0:0:0:0:
235,75,37469,1,2,0:3:0:0:
145,65,37647,1,8,0:0:0:0:
265,165,37824,6,0,L|256:282,1,117,2|2,0:0|0:3,0:0:0:0:
248,372,38357,1,2,0:0:0:0:
385,299,38534,2,0,L|333:327,1,58.5,2|0,0:3|0:3,0:0:0:0:
256,281,38889,5,2,0:0:0:0:
248,372,39067,2,0,P|215:363|194:346,1,58.5,8|0,0:0|0:0,0:0:0:0:
113,280,39422,2,0,P|141:272|165:256,1,58.5,0|0,0:0|0:0,0:0:0:0:
115,90,39777,6,0,P|91:144|107:199,1,117,4|0,0:0|0:0,0:0:0:0:
175,150,40309,1,2,0:3:0:0:
115,90,40487,2,0,L|49:94,1,58.5,8|0,0:0|0:0,0:0:0:0:
185,35,40842,2,0,L|243:31,1,58.5,2|2,0:0|0:3,0:0:0:0:
365,140,41197,1,2,0:0:0:0:
270,120,41375,2,0,P|251:147|246:178,1,58.5,2|0,0:3|0:3,0:0:0:0:
335,50,41730,5,2,0:0:0:0:
435,65,41907,2,0,L|429:1,1,58.5,8|0,0:0|0:0,0:0:0:0:
365,140,42262,2,0,L|370:198,1,58.5,0|0,0:0|0:0,0:0:0:0:
480,275,42617,6,0,L|467:158,1,117,4|0,0:0|0:0,0:0:0:0:
435,65,43150,1,2,0:3:0:0:
365,140,43327,2,0,P|313:101|260:106,1,117,8|0,0:0|0:0,0:0:0:0:
290,185,43860,1,2,0:3:0:0:
190,65,44037,2,0,P|181:93|182:123,1,58.5,2|2,0:0|0:3,0:0:0:0:
180,245,44392,5,0,0:3:0:0:
290,185,44570,1,2,0:0:0:0:
181,121,44747,2,0,P|149:111|121:115,1,58.5,8|0,0:0|0:0,0:0:0:0:
6,211,45102,2,0,P|38:201|66:205,1,58.5,2|0,0:0|0:0,0:0:0:0:
180,245,45457,5,0,0:0:0:0:
189,128,48390,6,0,L|179:247,1,117,6|0,0:0|0:0,0:0:0:0:
220,330,48922,1,2,0:3:0:0:
280,195,49100,2,0,L|274:253,1,58.5,8|0,0:0|0:0,0:0:0:0:
375,200,49455,2,0,L|380:141,1,58.5,2|2,0:0|0:3,0:0:0:0:
365,290,49810,6,0,P|398:287|425:268,1,58.5,2|2,0:0|0:3,0:0:0:0:
500,245,50165,2,0,P|487:217|457:197,1,58.5,0|2,0:3|0:0,0:0:0:0:
385,83,50520,2,0,L|374:199,1,117,8|0,0:0|0:0,0:0:0:0:
405,0,51230,6,0,P|337:10|306:48,1,117,4|0,0:0|0:0,0:0:0:0:
385,83,51762,1,2,0:3:0:0:
310,130,51940,1,8,0:0:0:0:
225,20,52117,2,0,P|222:63|228:84,1,58.5,2|0,0:0|0:0,0:0:0:0:
310,130,52472,1,2,0:3:0:0:
175,204,52650,2,0,P|202:195|223:175,1,58.5,2|2,0:0|0:3,0:0:0:0:
225,77,53005,5,0,0:3:0:0:
287,248,53182,1,2,0:0:0:0:
363,148,53360,2,0,P|326:130|297:132,1,58.5,8|0,0:0|0:0,0:0:0:0:
223,174,53715,2,0,P|202:194|193:221,1,58.5,0|0,0:0|0:0,0:0:0:0:
240,315,54070,6,0,B|266:296|296:314|296:314|325:330|353:312,1,117,4|0,0:0|0:0,0:0:0:0:
420,250,54603,1,2,0:3:0:0:
475,325,54780,2,0,P|492:343|505:378,1,58.5,8|0,0:0|0:0,0:0:0:0:
420,250,55135,2,0,P|469:198|516:193,1,117,2|2,0:0|0:0,0:0:0:0:
475,325,55668,1,2,0:3:0:0:
350,313,55845,6,0,P|335:289|331:254,1,58.5,0|2,0:3|0:0,0:0:0:0:
245,255,56200,2,0,P|249:226|264:201,1,58.5,8|0,0:0|0:0,0:0:0:0:
200,145,56555,2,0,P|221:125|249:116,1,58.5,0|0,0:0|0:0,0:0:0:0:
125,195,56910,6,0,P|111:141|133:86,1,117,4|0,0:0|0:0,0:0:0:0:
200,145,57443,1,2,0:3:0:0:
125,195,57620,2,0,L|65:193,1,58.5,8|2,0:0|0:0,0:0:0:0:
200,145,58330,2,0,L|222:198,1,58.5,2|2,0:0|0:3,0:0:0:0:
323,238,58863,6,0,P|235:240|192:311,1,175.5,2|2,0:0|0:0,0:0:0:0:
375,349,59750,5,6,0:0:0:0:
323,238,59928,1,0,0:0:0:0:
510,130,60105,1,0,0:0:0:0:
450,245,60283,1,2,0:3:0:0:
265,110,60461,1,8,0:0:0:0:
390,120,60639,1,0,0:0:0:0:
323,238,60816,2,0,P|292:228|261:229,1,58.5,2|2,0:0|0:3,0:0:0:0:
375,349,61171,5,2,0:0:0:0:
450,245,61348,1,2,0:3:0:0:
323,238,61526,1,0,0:3:0:0:
390,120,61703,1,2,0:0:0:0:
265,110,61881,1,8,0:0:0:0:
335,15,62058,1,0,0:0:0:0:
265,110,62236,2,0,P|234:122|211:142,1,58.5,0|0,0:0|0:0,0:0:0:0:
125,150,62591,6,0,P|189:191|199:239,1,117,4|0,0:0|0:0,0:0:0:0:
114,236,63123,1,2,0:3:0:0:
165,310,63301,1,8,0:0:0:0:
73,373,63478,6,0,L|70:315,2,58.5,2|0|2,0:0|0:0|0:3,0:0:0:0:
25,240,64011,2,0,L|21:181,1,58.5,2|2,0:0|0:3,0:0:0:0:
70,315,64366,1,0,0:3:0:0:
115,237,64543,1,2,0:0:0:0:
196,262,64721,2,0,P|175:301|150:318,1,58.5,8|0,0:0|0:0,0:0:0:0:
180,170,65076,2,0,L|238:179,1,58.5,0|0,0:0|0:0,0:0:0:0:
115,237,65431,5,4,0:0:0:0:
139,82,65608,1,0,0:0:0:0:
288,89,65786,2,0,L|230:80,1,58.5,0|2,0:0|0:3,0:0:0:0:
180,170,66141,2,0,L|299:190,1,117,8|2,0:0|0:0,0:0:0:0:
380,130,66674,1,2,0:3:0:0:
287,88,66851,5,2,0:0:0:0:
295,189,67029,1,2,0:3:0:0:
460,75,67206,1,0,0:3:0:0:
370,30,67384,1,2,0:0:0:0:
395,230,67561,1,8,0:0:0:0:
475,175,67739,1,2,0:3:0:0:
287,88,67916,2,0,L|229:97,1,58.5,2|0,0:3|0:0,0:0:0:0:
59,40,68271,6,0,P|110:14|166:27,1,117,4|0,0:0|0:0,0:0:0:0:
120,100,68804,1,2,0:3:0:0:
80,175,68981,2,0,P|51:153|40:127,1,58.5,8|2,0:0|0:0,0:0:0:0:
180,165,69336,2,0,P|202:136|206:108,1,58.5,0|2,0:0|0:3,0:0:0:0:
140,255,69691,5,2,0:0:0:0:
120,100,69869,1,2,0:3:0:0:
140,255,70046,2,0,P|119:268|100:295,1,58.5,0|2,0:3|0:0,0:0:0:0:
240,240,70401,2,0,P|260:252|279:280,1,58.5,8|0,0:0|0:0,0:0:0:0:
250,365,70756,2,0,P|229:352|210:325,1,58.5,2|0,0:0|0:0,0:0:0:0:
340,350,71111,5,6,0:0:0:0:
370,265,71289,1,0,0:0:0:0:
280,280,71466,1,0,0:0:0:0:
430,340,71644,1,2,0:3:0:0:
310,190,71821,1,8,0:0:0:0:
465,250,71999,1,0,0:0:0:0:
430,121,72176,2,0,P|414:146|410:175,1,58.5,2|2,0:0|0:3,0:0:0:0:
430,340,72532,5,2,0:0:0:0:
310,190,72709,1,2,0:3:0:0:
465,250,72887,1,0,0:3:0:0:
280,280,73064,1,2,0:0:0:0:
410,174,73242,2,0,P|405:145|389:120,1,58.5,8|0,0:0|0:0,0:0:0:0:
455,60,73597,2,0,P|433:40|405:32,1,58.5,0|0,0:0|0:0,0:0:0:0:
310,190,73952,6,0,P|369:168|391:117,1,117,4|0,0:0|0:0,0:0:0:0:
315,60,74484,1,2,0:3:0:0:
235,125,74662,1,8,0:0:0:0:
160,29,74839,6,0,P|188:22|216:29,2,58.5,2|0|2,0:0|0:0|0:3,0:0:0:0:
235,125,75372,2,0,P|206:118|178:125,1,58.5,2|2,0:0|0:3,0:0:0:0:
95,180,75727,2,0,P|79:204|75:233,1,58.5,0|2,0:3|0:0,0:0:0:0:
125,315,76082,1,8,0:0:0:0:
170,235,76259,1,0,0:0:0:0:
195,370,76437,2,0,P|210:345|214:316,1,58.5,0|0,0:0|0:0,0:0:0:0:
170,235,76792,6,0,P|225:263|286:242,1,117,4|0,0:0|0:0,0:0:0:0:
320,170,77324,1,2,0:3:0:0:
240,118,77502,2,0,L|232:176,1,58.5,8|0,0:0|0:0,0:0:0:0:
320,80,77857,2,0,L|312:21,1,58.5,2|2,0:0|0:3,0:0:0:0:
320,170,78212,2,0,L|383:155,1,58.5,2|2,0:0|0:3,0:0:0:0:
220,30,78567,5,0,0:3:0:0:
150,95,78745,1,2,0:0:0:0:
320,170,78922,1,8,0:0:0:0:
276,249,79100,1,0,0:0:0:0:
365,250,79277,2,0,L|428:235,1,58.5,0|0,0:0|0:0,0:0:0:0:
276,249,79632,6,0,P|295:311|344:340,1,117,4|0,0:0|0:0,0:0:0:0:
365,250,80165,1,2,0:3:0:0:
425,325,80342,2,0,L|481:311,1,58.5,8|2,0:0|0:0,0:0:0:0:
376,156,80697,2,0,L|319:169,1,58.5,0|2,0:0|0:3,0:0:0:0:
400,65,81052,6,0,P|450:96|467:152,1,117,2|0,0:0|0:3,0:0:0:0:
376,156,81585,1,2,0:0:0:0:
315,85,81762,2,0,L|258:98,1,58.5,0|0,0:0|0:0,0:0:0:0:
175,204,82117,2,0,L|231:190,1,58.5,2|0,0:0|0:0,0:0:0:0:
258,98,82472,5,2,0:0:0:0:
258,98,83182,5,0,0:0:0:0:
258,98,84247,5,0,0:0:0:0:
190,45,84425,1,0,0:0:0:0:
170,130,84603,2,0,B|163:162|163:162|171:188,1,58.5,0|0,0:0|0:0,0:0:0:0:
257,154,84958,2,0,B|264:129|264:129|257:97,1,58.5,0|0,0:0|0:0,0:0:0:0:
245,245,85313,5,2,0:0:0:0:
257,154,85668,1,0,0:0:0:0:
245,245,86023,5,0,0:0:0:0:
330,215,86378,1,0,0:0:0:0:
245,245,86733,5,0,0:0:0:0:
315,305,87088,5,0,0:0:0:0:
330,215,87265,1,0,0:0:0:0:
405,275,87443,2,0,L|467:278,1,58.5,0|0,0:0|0:0,0:0:0:0:
475,190,87798,2,0,L|416:187,1,58.5,0|0,0:0|0:0,0:0:0:0:
315,305,88153,5,2,0:0:0:0:
385,365,88508,1,0,0:0:0:0:
315,305,88863,5,0,0:0:0:0:
405,275,89218,1,0,0:0:0:0:
405,275,89750,5,0,0:0:0:0:
330,215,89928,1,0,0:0:0:0:
315,305,90105,1,0,0:0:0:0:
240,245,90283,2,0,L|243:183,1,58.5,0|0,0:0|0:0,0:0:0:0:
315,305,90638,2,0,L|312:363,1,58.5,0|0,0:0|0:0,0:0:0:0:
330,215,90993,5,2,0:0:0:0:
435,184,91348,1,0,0:0:0:0:
330,215,91703,5,0,0:0:0:0:
356,114,92058,1,0,0:0:0:0:
330,215,92413,5,0,0:0:0:0:
330,215,93833,6,0,P|280:190|219:207,1,122.849996250916,6|0,0:0|0:0,0:0:0:0:
270,275,94366,1,2,0:3:0:0:
145,160,94543,2,0,P|133:190|133:220,1,61.4249981254578,8|0,0:0|0:0,0:0:0:0:
50,235,94898,2,0,P|60:265|79:288,1,61.4249981254578,2|2,0:0|0:3,0:0:0:0:
20,355,95253,6,0,P|46:371|76:376,1,61.4249981254578,2|2,0:0|0:3,0:0:0:0:
209,315,95608,2,0,P|178:320|153:336,1,61.4249981254578,0|2,0:3|0:0,0:0:0:0:
270,245,95963,2,0,P|264:214|248:189,1,61.4249981254578,8|0,0:0|0:0,0:0:0:0:
300,330,96318,2,0,P|325:346|355:351,1,61.4249981254578,0|0,0:0|0:0,0:0:0:0:
465,230,96674,6,0,P|405:225|355:274,1,122.849996250916,4|0,0:0|0:0,0:0:0:0:
355,351,97206,1,2,0:3:0:0:
431,309,97384,1,8,0:0:0:0:
352,141,97561,6,0,L|359:270,1,122.849996250916,2|2,0:0|0:3,0:0:0:0:
260,145,98094,2,0,L|265:209,1,61.4249981254578,2|2,0:0|0:3,0:0:0:0:
300,65,98449,2,0,P|271:56|237:60,1,61.4249981254578,0|2,0:3|0:0,0:0:0:0:
115,130,98804,2,0,P|145:132|174:123,1,61.4249981254578,8|0,0:0|0:0,0:0:0:0:
313,171,99159,2,0,P|288:152|255:144,1,61.4249981254578,0|0,0:0|0:0,0:0:0:0:
145,280,99514,6,0,P|175:282|247:232,1,122.849996250916,4|0,0:0|0:0,0:0:0:0:
259,144,100046,1,2,0:3:0:0:
174,123,100224,2,0,L|112:128,1,61.4249981254578,8|0,0:0|0:0,0:0:0:0:
211,42,100579,2,0,P|255:84|256:151,1,122.849996250916,2|2,0:0|0:0,0:0:0:0:
174,123,101111,1,2,0:3:0:0:
211,42,101289,6,0,L|273:37,1,61.4249981254578,0|2,0:3|0:0,0:0:0:0:
174,123,101644,2,0,L|112:128,1,61.4249981254578,8|0,0:0|0:0,0:0:0:0:
60,45,101999,2,0,L|122:40,1,61.4249981254578,0|0,0:0|0:0,0:0:0:0:
104,217,102354,6,0,P|51:195|28:132,1,122.849996250916,4|0,0:0|0:0,0:0:0:0:
112,127,102887,1,2,0:3:0:0:
200,145,103064,2,0,L|194:215,1,61.4249981254578,8|2,0:0|0:0,0:0:0:0:
170,60,103419,2,0,L|164:-1,1,61.4249981254578,0|2,0:0|0:3,0:0:0:0:
112,127,103774,1,2,0:0:0:0:
112,127,103952,1,2,0:3:0:0:
290,145,104129,6,0,L|284:215,1,61.4249981254578,0|2,0:3|0:0,0:0:0:0:
260,60,104484,2,0,L|254:-1,1,61.4249981254578,8|0,0:0|0:0,0:0:0:0:
380,145,104839,2,0,L|374:215,1,61.4249981254578,2|0,0:0|0:0,0:0:0:0:
350,60,105194,6,0,P|416:60|457:99,1,122.849996250916,6|0,0:0|0:0,0:0:0:0:
470,190,105727,1,2,0:3:0:0:
380,145,105904,2,0,L|374:215,1,61.4249981254578,8|0,0:0|0:0,0:0:0:0:
290,130,106259,2,0,L|284:200,1,61.4249981254578,2|2,0:0|0:3,0:0:0:0:
350,60,106614,5,2,0:0:0:0:
290,130,106792,1,2,0:3:0:0:
260,45,106969,1,0,0:3:0:0:
380,145,107147,1,2,0:0:0:0:
195,115,107324,5,8,0:0:0:0:
440,70,107502,1,0,0:0:0:0:
284,191,107679,2,0,L|290:130,1,61.4249981254578,0|0,0:0|0:0,0:0:0:0:
186,237,108034,6,0,L|194:114,1,122.849996250916,4|0,0:0|0:0,0:0:0:0:
260,45,108567,1,2,0:3:0:0:
290,130,108745,1,8,0:0:0:0:
160,30,108922,6,0,B|121:39|121:39|86:20|86:20|36:31,1,122.849996250916,2|2,0:0|0:3,0:0:0:0:
0,125,109455,2,0,L|62:112,1,61.4249981254578,2|2,0:0|0:3,0:0:0:0:
186,237,109810,6,0,L|125:224,1,61.4249981254578,0|2,0:3|0:0,0:0:0:0:
194,114,110165,1,8,0:0:0:0:
285,185,110342,1,0,0:0:0:0:
375,60,110520,2,0,L|314:72,1,61.4249981254578,0|0,0:0|0:0,0:0:0:0:
445,120,110875,6,0,P|466:43|448:3,1,122.849996250916,4|0,0:0|0:0,0:0:0:0:
375,60,111407,1,2,0:3:0:0:
445,120,111585,2,0,L|509:125,1,61.4249981254578,8|0,0:0|0:0,0:0:0:0:
360,150,111940,2,0,L|298:145,2,61.4249981254578,2|2|2,0:0|0:3|0:0,0:0:0:0:
430,215,112472,1,2,0:3:0:0:
285,240,112650,6,0,L|346:244,1,61.4249981254578,0|2,0:3|0:0,0:0:0:0:
205,180,113005,2,0,L|186:246,1,61.4249981254578,8|2,0:0|0:3,0:0:0:0:
298,145,113360,2,0,L|281:77,1,61.4249981254578,2|0,0:3|0:0,0:0:0:0:
172,61,113715,6,0,L|205:183,1,122.849996250916,4|0,0:0|0:0,0:0:0:0:
110,180,114247,1,2,0:3:0:0:
20,180,114425,2,0,P|57:109|96:95,1,122.849996250916,8|0,0:0|0:0,0:0:0:0:
110,180,114958,1,2,0:3:0:0:
70,260,115135,5,0,0:0:0:0:
70,260,115490,2,0,P|127:231|186:249,1,122.849996250916,0|0,0:0|0:0,0:0:0:0:
136,318,116200,1,0,0:0:0:0:
260,200,116520,5,6,0:0:0:0:
265,285,116697,1,0,0:0:0:0:
180,150,116875,1,0,0:0:0:0:
340,240,117052,1,2,0:3:0:0:
260,110,117230,1,8,0:0:0:0:
181,245,117407,1,0,0:0:0:0:
340,150,117585,2,0,L|404:156,1,64.3500019638062,2|2,0:0|0:3,0:0:0:0:
185,60,117940,5,2,0:0:0:0:
260,200,118117,1,2,0:3:0:0:
265,20,118295,1,0,0:3:0:0:
181,245,118472,1,2,0:0:0:0:
110,5,118650,1,8,0:0:0:0:
260,200,118827,1,0,0:0:0:0:
95,100,119005,2,0,B|112:128|112:128|101:159,1,64.3500019638062,0|0,0:0|0:0,0:0:0:0:
181,245,119360,6,0,P|118:258|86:313,1,128.700003927612,4|0,0:0|0:0,0:0:0:0:
170,330,119892,1,2,0:3:0:0:
250,300,120070,1,8,0:0:0:0:
205,187,120247,6,0,P|185:218|181:253,2,64.3500019638062,2|0|2,0:0|0:0|0:3,0:0:0:0:
347,183,120780,2,0,P|322:163|291:155,1,64.3500019638062,2|2,0:0|0:3,0:0:0:0:
250,300,121135,1,0,0:3:0:0:
341,276,121312,1,2,0:0:0:0:
280,70,121490,2,0,P|249:78|224:98,1,64.3500019638062,8|0,0:0|0:0,0:0:0:0:
160,40,121845,2,0,P|141:66|135:97,1,64.3500019638062,0|0,0:0|0:0,0:0:0:0:
181,178,122200,5,4,0:0:0:0:
291,155,122377,1,0,0:0:0:0:
160,39,122555,2,0,P|141:65|135:97,1,64.3500019638062,0|2,0:0|0:3,0:0:0:0:
63,159,122910,2,0,P|123:190|185:175,1,128.700003927612,8|2,0:0|0:0,0:0:0:0:
134,97,123443,1,2,0:3:0:0:
180,177,123620,5,2,0:0:0:0:
230,100,123798,1,2,0:3:0:0:
215,260,123975,1,0,0:3:0:0:
270,190,124153,1,2,0:0:0:0:
120,250,124330,1,8,0:0:0:0:
155,335,124508,1,2,0:3:0:0:
305,275,124685,2,0,P|338:252|352:220,1,64.3500019638062,2|0,0:3|0:0,0:0:0:0:
345,140,125040,6,0,P|391:195|450:195,1,128.700003927612,4|0,0:0|0:0,0:0:0:0:
425,115,125573,1,2,0:3:0:0:
425,30,125750,2,0,P|386:37|357:67,1,64.3500019638062,8|2,0:0|0:0,0:0:0:0:
287,118,126105,2,0,P|318:121|344:139,1,64.3500019638062,0|2,0:0|0:3,0:0:0:0:
280,20,126460,5,2,0:0:0:0:
285,205,126638,1,2,0:3:0:0:
200,80,126815,2,0,P|161:87|132:117,1,64.3500019638062,0|2,0:3|0:0,0:0:0:0:
62,168,127170,2,0,P|93:171|119:189,1,64.3500019638062,8|2,0:0|0:3,0:0:0:0:
125,275,127525,2,0,P|93:271|67:253,1,64.3500019638062,2|0,0:0|0:0,0:0:0:0:
200,225,127880,5,6,0:0:0:0:
125,275,128058,1,0,0:0:0:0:
190,135,128235,1,0,0:0:0:0:
285,260,128413,1,2,0:3:0:0:
280,170,128591,1,8,0:0:0:0:
210,315,128769,1,0,0:0:0:0:
370,300,128946,2,0,P|399:294|433:268,1,64.3500019638062,2|2,0:0|0:3,0:0:0:0:
280,170,129301,5,2,0:0:0:0:
370,300,129478,1,2,0:3:0:0:
365,130,129656,1,0,0:3:0:0:
295,350,129833,1,2,0:0:0:0:
289,74,130011,2,0,P|261:60|229:61,1,64.3500019638062,8|0,0:0|0:0,0:0:0:0:
175,0,130366,2,0,P|151:21|142:52,1,64.3500019638062,0|0,0:0|0:0,0:0:0:0:
65,90,130721,6,0,P|119:136|185:124,1,128.700003927612,4|0,0:0|0:0,0:0:0:0:
142,51,131253,1,2,0:3:0:0:
228,61,131431,1,8,0:0:0:0:
169,254,131608,6,0,B|154:213|154:213|173:125,1,128.700003927612,2|2,0:0|0:3,0:0:0:0:
255,150,132141,2,0,L|242:219,1,64.3500019638062,2|2,0:0|0:3,0:0:0:0:
320,80,132496,2,0,L|331:16,1,64.3500019638062,0|2,0:3|0:0,0:0:0:0:
345,175,132851,1,8,0:0:0:0:
410,100,133028,1,0,0:0:0:0:
440,200,133206,2,0,L|427:269,1,64.3500019638062,0|0,0:0|0:0,0:0:0:0:
319,384,133561,6,0,P|309:322|345:272,1,128.700003927612,4|0,0:0|0:0,0:0:0:0:
391,341,134093,1,2,0:3:0:0:
428,263,134271,2,0,L|497:276,1,64.3500019638062,8|0,0:0|0:0,0:0:0:0:
380,190,134626,2,0,L|316:178,1,64.3500019638062,2|2,0:0|0:3,0:0:0:0:
450,130,134981,2,0,L|519:143,1,64.3500019638062,2|2,0:0|0:3,0:0:0:0:
390,60,135336,5,0,0:3:0:0:
380,190,135514,1,2,0:0:0:0:
480,45,135691,1,8,0:0:0:0:
450,130,135869,1,0,0:0:0:0:
320,5,136046,2,0,P|302:38|302:66,1,64.3500019638062,0|0,0:0|0:0,0:0:0:0:
299,149,136401,6,0,P|240:125|217:67,1,128.700003927612,4|0,0:0|0:0,0:0:0:0:
165,0,136934,1,2,0:3:0:0:
80,0,137111,1,8,0:0:0:0:
45,80,137289,1,2,0:0:0:0:
30,230,137466,6,0,L|21:158,1,65.8125025105477,0|0,0:0|0:0,0:0:0:0:
103,143,137821,2,0,L|108:186,1,43.875,2|0,0:0|0:0,0:0:0:0:
110,270,138176,6,0,P|149:222|193:215,1,105.299996786499,0|0,0:3|0:0,0:0:0:0:
195,300,138531,2,0,P|224:307|249:332,1,65.8125025105477,0|0,0:0|0:0,0:0:0:0:
330,360,138886,6,0,B|347:328|330:293|330:293|313:263|330:229,1,131.625005021095,2|0,0:0|0:0,0:0:0:0:
410,255,139241,5,4,0:0:0:0:
