osu file format v14

[General]
AudioFilename: audio.mp3
AudioLeadIn: 0
PreviewTime: 45940
Countdown: 0
SampleSet: None
StackLeniency: 0.4
Mode: 0
LetterboxInBreaks: 0
WidescreenStoryboard: 1

[Editor]
DistanceSpacing: 1.5
BeatDivisor: 8
GridSize: 4
TimelineZoom: 3

[Metadata]
Title:Sanctuary
TitleUnicode:Sanctuary
Artist:Joji
ArtistUnicode:Joji
Creator:gokugohan12468
Version:Meouxe's Another
Source:
Tags:Justin Raisen 88rising rnb r&b pop english male pink guy george miller nectar Mayflower Meouxe- Meouxe Yuuya_ke Yuuya Gordon123 KittyAdventure
BeatmapID:2632236
BeatmapSetID:990276

[Difficulty]
HPDrainRate:7
CircleSize:4
OverallDifficulty:7.5
ApproachRate:9
SliderMultiplier:3.2
SliderTickRate:1

[Events]
//Background and Video events
Video,-14910,"video.mp4"
0,0,"bg.png",0,0
//Break Periods
2,46140,55697
2,91854,96768
//Storyboard Layer 0 (Background)
//Storyboard Layer 1 (Fail)
//Storyboard Layer 2 (Pass)
//Storyboard Layer 3 (Foreground)
//Storyboard Layer 4 (Overlay)
//Storyboard Sound Samples

[TimingPoints]
226,714.285714285714,4,2,1,30,1,0
226,-125,4,2,1,30,0,0
11654,-142.857142857143,4,2,1,60,0,0
34511,-142.857142857143,4,2,1,70,0,0
45940,-250.000000000001,4,2,1,50,0,0
56297,-166.666666666667,4,2,1,50,0,0
57368,-166.666666666667,4,2,1,55,0,0
68797,-117.647058823529,4,2,1,70,0,0
77368,-117.647058823529,4,2,1,55,0,0
80225,-117.647058823529,4,2,1,70,0,0
91654,-250,4,2,1,50,0,0
97368,-200,4,2,1,50,0,0
99868,-1000,4,2,1,50,0,0
102547,-1000,4,2,1,50,0,0
102725,-1000,4,2,1,5,0,0
103083,-105.263157894737,4,2,1,80,0,1
125940,-125,4,2,1,70,0,0
133083,-133.333333333333,4,2,1,70,0,0
133797,-133.333333333333,4,2,1,50,0,0
137368,-133.333333333333,4,2,1,65,0,0
140225,-105.263157894737,4,2,1,85,0,1
160225,-222.222222222223,4,2,1,70,0,0
163083,-222.222222222223,4,2,1,60,0,0
165940,-222.222222222223,4,2,1,50,0,0
165984,-222.222222222223,4,2,1,5,0,0
168797,-222.222222222223,4,2,1,5,0,0
169511,-222.222222222223,4,2,1,5,0,0
170225,-222.222222222223,4,2,1,5,0,0
170940,-222.222222222223,4,2,1,5,0,0
171654,-222.222222222223,4,2,1,5,0,0
172368,-222.222222222223,4,2,1,5,0,0
173083,-222.222222222223,4,2,1,5,0,0
173797,-222.222222222223,4,2,1,5,0,0

[Colours]
Combo1 : 130,150,198
Combo2 : 118,114,167
Combo3 : 147,141,160
Combo4 : 142,149,174

[HitObjects]
204,264,11654,5,4,1:0:0:0:
204,264,11833,2,0,P|221:218|194:164,1,111.999996582031,0|0,1:0|0:0,0:0:0:0:
242,101,12368,2,0,P|218:88|190:86,1,55.9999982910157,10|0,0:0|0:0,0:0:0:0:
94,173,12725,2,0,P|140:190|194:163,1,111.999996582031,2|2,1:2|0:0,0:0:0:0:
365,151,13261,2,0,P|389:137|417:135,1,55.9999982910157,0|0,1:0|0:0,0:0:0:0:
390,232,13618,1,0,1:0:0:0:
390,232,13797,2,0,P|365:245|337:247,1,55.9999982910157,10|0,0:0|0:0,0:0:0:0:
230,317,14154,2,0,P|254:303|282:301,1,55.9999982910157,0|0,1:2|0:0,0:0:0:0:
366,152,14511,5,2,1:2:0:0:
365,151,14690,2,0,P|334:107|338:52,1,111.999996582031,0|0,1:0|0:0,0:0:0:0:
223,137,15225,2,0,P|237:114|239:73,1,55.9999982910157,10|0,0:0|0:0,0:0:0:0:
143,151,15583,2,0,P|149:177|169:203,1,55.9999982910157,2|0,1:2|0:0,0:0:0:0:
163,73,15940,2,0,P|104:79|65:134,1,111.999996582031,2|2,0:0|0:0,0:0:0:0:
112,196,16475,1,0,1:0:0:0:
112,196,16654,2,0,P|132:177|142:151,1,55.9999982910157,10|0,0:0|0:0,0:0:0:0:
217,284,17011,2,0,P|196:265|186:239,1,55.9999982910157,2|0,1:2|0:0,0:0:0:0:
305,126,17368,5,2,1:2:0:0:
305,126,17547,2,0,L|416:159,1,111.999996582031,0|0,1:0|0:0,0:0:0:0:
480,119,18083,2,0,P|489:145|488:175,1,55.9999982910157,10|0,0:0|0:0,0:0:0:0:
407,262,18440,2,0,B|392:240|392:240|418:133,1,111.999996582031,2|0,1:2|0:0,0:0:0:0:
382,37,18975,6,0,L|316:53,1,55.9999982910157,0|0,1:0|0:0,0:0:0:0:
245,22,19333,1,0,1:0:0:0:
245,22,19511,2,0,L|208:80,1,55.9999982910157,8|0,0:0|0:0,0:0:0:0:
225,154,19868,2,0,P|252:149|279:119,1,55.9999982910157,0|0,1:0|0:0,0:0:0:0:
146,114,20225,5,0,1:0:0:0:
145,113,20404,2,0,B|130:135|130:135|151:218,1,111.999996582031,0|0,1:0|0:0,0:0:0:0:
206,285,20940,2,0,P|233:249|235:219,1,55.9999982910157,8|0,0:0|0:0,0:0:0:0:
341,223,21297,2,0,P|313:258|318:331,1,111.999996582031,0|0,1:0|0:0,0:0:0:0:
130,302,21833,2,0,P|98:294|68:303,1,55.9999982910157,0|0,1:0|0:0,0:0:0:0:
92,214,22190,1,0,1:0:0:0:
92,214,22368,2,0,P|60:222|30:213,1,55.9999982910157,8|0,0:0|0:0,0:0:0:0:
120,138,22725,2,0,P|148:154|163:182,1,55.9999982910157,0|0,1:0|0:0,0:0:0:0:
63,55,23083,5,4,1:0:0:0:
63,55,23261,2,0,P|119:39|175:55,1,111.999996582031,0|0,1:0|0:0,0:0:0:0:
236,100,23797,2,0,P|269:107|307:99,1,55.9999982910157,10|0,0:0|0:0,0:0:0:0:
326,21,24154,2,0,P|369:55|380:109,1,111.999996582031,2|2,1:2|0:0,0:0:0:0:
328,182,24690,6,0,L|336:246,1,55.9999982910157,0|0,1:0|0:0,0:0:0:0:
347,348,25047,1,0,1:0:0:0:
389,245,25225,2,0,P|363:237|327:238,1,55.9999982910157,10|0,0:0|0:0,0:0:0:0:
225,293,25583,2,0,P|251:301|287:300,1,55.9999982910157,0|0,1:2|0:0,0:0:0:0:
470,254,25940,5,0,1:2:0:0:
469,253,26118,2,0,L|483:142,1,111.999996582031,0|0,1:0|0:0,0:0:0:0:
415,94,26654,2,0,P|432:73|457:60,1,55.9999982910157,10|0,0:0|0:0,0:0:0:0:
336,58,27011,2,0,P|285:26|226:36,1,111.999996582031,2|2,1:2|0:0,0:0:0:0:
249,159,27547,6,0,P|265:118|268:94,1,55.9999982910157,0|2,1:0|0:0,0:0:0:0:
181,202,27904,2,0,P|197:222|223:234,2,55.9999982910157,0|10|0,1:0|0:0|0:0,0:0:0:0:
347,265,28440,2,0,P|330:244|304:232,1,55.9999982910157,2|0,1:2|0:0,0:0:0:0:
110,270,28797,5,2,1:2:0:0:
110,270,28975,2,0,P|73:245|3:255,1,111.999996582031,0|0,1:0|0:0,0:0:0:0:
20,371,29511,2,0,P|41:343|47:314,1,55.9999982910157,10|0,0:0|0:0,0:0:0:0:
21,151,29868,2,0,B|-1:167|-1:167|8:256,1,111.999996582031,2|0,1:2|0:0,0:0:0:0:
186,266,30404,6,0,P|181:238|166:214,1,55.9999982910157,0|0,1:0|0:0,0:0:0:0:
224,157,30761,1,0,1:0:0:0:
224,157,30940,2,0,P|201:140|174:134,1,55.9999982910157,8|0,0:0|0:0,0:0:0:0:
283,226,31297,2,0,P|311:222|335:207,1,55.9999982910157,0|0,1:0|0:0,0:0:0:0:
100,152,31654,5,0,1:0:0:0:
100,152,31833,2,0,L|87:38,1,111.999996582031,0|0,1:0|0:0,0:0:0:0:
238,103,32368,2,0,L|219:172,1,55.9999982910157,8|0,0:0|0:0,0:0:0:0:
283,226,32725,2,0,L|315:107,1,111.999996582031,0|0,1:0|0:0,0:0:0:0:
377,68,33261,6,0,P|347:46|324:41,1,55.9999982910157,0|0,1:0|0:0,0:0:0:0:
223,156,33618,1,0,1:0:0:0:
223,156,33797,2,0,L|238:103,1,55.9999982910157,8|0,0:0|0:0,0:0:0:0:
312,117,34154,2,0,L|297:170,1,55.9999982910157,0|0,1:0|0:0,0:0:0:0:
355,247,34511,6,0,L|387:124,1,111.999996582031,4|0,1:0|0:0,0:0:0:0:
384,139,35225,2,0,P|415:137|443:152,1,55.9999982910157,10|0,0:0|0:0,0:0:0:0:
359,249,35583,2,0,P|328:251|272:187,1,111.999996582031,2|2,1:2|0:0,0:0:0:0:
325,64,36118,2,0,L|385:57,1,55.9999982910157,0|2,1:0|0:0,0:0:0:0:
255,120,36475,1,0,1:0:0:0:
255,120,36654,2,0,L|195:113,1,55.9999982910157,10|0,0:0|0:0,0:0:0:0:
119,189,37011,2,0,L|179:196,1,55.9999982910157,0|0,1:2|0:0,0:0:0:0:
125,280,37368,6,0,L|4:266,1,111.999996582031,4|2,1:0|0:0,0:0:0:0:
13,267,38083,2,0,P|5:237|17:197,1,55.9999982910157,10|0,0:0|0:0,0:0:0:0:
12,128,38440,2,0,P|63:145|90:195,1,111.999996582031,2|0,1:2|0:0,0:0:0:0:
74,354,38975,6,0,L|13:346,1,55.9999982910157,0|0,1:0|0:0,0:0:0:0:
125,280,39333,1,0,1:0:0:0:
125,280,39511,2,0,L|186:272,1,55.9999982910157,10|0,0:0|0:0,0:0:0:0:
239,157,39868,2,0,P|208:169|189:193,1,55.9999982910157,2|0,1:2|0:0,0:0:0:0:
248,363,40225,5,4,1:0:0:0:
248,363,40404,2,0,P|271:315|253:251,1,111.999996582031,0|0,1:0|0:0,0:0:0:0:
317,189,40940,2,0,P|348:177|367:153,1,55.9999982910157,10|0,0:0|0:0,0:0:0:0:
309,8,41297,2,0,P|286:56|304:120,1,111.999996582031,2|2,1:2|0:0,0:0:0:0:
406,224,41833,6,0,P|433:188|435:159,1,55.9999982910157,0|2,1:0|0:0,0:0:0:0:
420,80,42190,1,0,1:0:0:0:
420,80,42368,2,0,P|394:68|366:68,1,55.9999982910157,8|0,0:0|0:0,0:0:0:0:
245,99,42725,2,0,P|270:110|298:110,1,55.9999982910157,0|0,1:0|0:0,0:0:0:0:
167,157,43083,5,4,1:0:0:0:
167,157,43261,2,0,L|154:45,1,111.999996582031,0|0,1:0|0:0,0:0:0:0:
302,190,43797,2,0,P|249:194|211:241,1,111.999996582031,8|0,0:0|1:0,0:0:0:0:
208,352,44333,1,2,0:0:0:0:
285,268,44511,1,2,0:0:0:0:
179,238,44690,2,0,L|99:247,2,55.9999982910157,0|0|0,1:0|0:0|1:0,0:0:0:0:
349,230,45225,1,8,0:0:0:0:
350,383,45404,5,2,0:0:0:0:
346,356,45583,1,2,1:2:0:0:
344,330,45761,1,2,0:0:0:0:
342,304,45940,5,4,1:0:0:0:
161,114,56297,6,0,P|257:114|233:168,1,191.999994140625,4|2,1:0|3:0,0:0:0:0:
85,137,57368,1,4,1:0:0:0:
85,137,57725,6,0,L|80:203,1,47.9999985351563,2|0,0:0|0:0,0:0:0:0:
151,246,58083,2,0,L|156:180,1,47.9999985351563,2|0,0:0|0:0,0:0:0:0:
80,283,58440,2,0,P|91:302|122:320,1,47.9999985351563,2|0,0:0|0:0,0:0:0:0:
182,279,58797,6,0,P|171:260|140:242,1,47.9999985351563,2|0,0:0|0:0,0:0:0:0:
257,358,59154,2,0,L|269:206,1,143.999995605469,2|0,0:0|0:0,0:0:0:0:
242,139,59868,2,0,P|219:150|200:174,1,47.9999985351563,2|0,0:0|0:0,0:0:0:0:
345,252,60225,6,0,L|348:192,1,47.9999985351563,2|0,0:0|0:0,0:0:0:0:
373,128,60583,2,0,P|396:139|415:163,1,47.9999985351563,2|0,0:0|0:0,0:0:0:0:
347,204,60940,2,0,P|324:193|305:169,1,47.9999985351563,2|0,0:0|0:0,0:0:0:0:
456,73,61297,2,0,L|451:275,1,191.999994140625,2|0,0:0|0:0,0:0:0:0:
451,264,62368,2,0,P|414:273|396:290,1,47.9999985351563,2|0,0:0|0:0,0:0:0:0:
358,340,62725,2,0,P|337:328|314:326,1,47.9999985351563,2|0,0:0|0:0,0:0:0:0:
206,366,63083,6,0,L|213:298,1,47.9999985351563,2|0,0:0|0:0,0:0:0:0:
225,240,63440,2,0,P|255:251|276:273,1,47.9999985351563,2|0,0:0|0:0,0:0:0:0:
347,210,63797,2,0,P|317:199|296:177,1,47.9999985351563,2|0,0:0|0:0,0:0:0:0:
132,276,64154,2,0,L|147:84,1,191.999994140625,2|2,0:0|0:0,0:0:0:0:
247,48,65225,2,0,L|250:114,2,47.9999985351563,2|0|2,0:0|0:0|0:0,0:0:0:0:
256,192,65761,12,2,68618,0:0:0:0:
246,221,68797,5,4,1:0:0:0:
170,230,68975,2,0,L|30:250,1,136.000002593994,0|0,1:0|0:0,0:0:0:0:
77,156,69511,2,0,L|153:147,1,68.0000012969971,10|0,0:0|0:0,0:0:0:0:
263,305,69868,2,0,P|203:292|170:221,1,136.000002593994,2|2,1:2|0:0,0:0:0:0:
317,215,70404,2,0,L|241:224,1,68.0000012969971,0|0,1:0|0:0,0:0:0:0:
169,229,70761,1,0,1:0:0:0:
202,130,70940,2,0,L|278:121,1,68.0000012969971,10|0,0:0|0:0,0:0:0:0:
138,54,71297,2,0,L|62:63,1,68.0000012969971,0|0,1:2|0:0,0:0:0:0:
340,40,71654,5,4,1:0:0:0:
343,118,71833,2,0,L|345:266,1,136.000002593994,0|0,1:0|0:0,0:0:0:0:
304,323,72368,2,0,P|278:303|267:271,1,68.0000012969971,10|0,0:0|0:0,0:0:0:0:
188,298,72725,2,0,P|218:203|250:192,1,136.000002593994,2|2,1:2|0:0,0:0:0:0:
390,321,73261,5,0,1:0:0:0:
480,260,73440,1,2,0:0:0:0:
380,215,73618,1,0,1:0:0:0:
484,365,73797,2,0,L|482:286,1,68.0000012969971,10|0,0:0|0:0,0:0:0:0:
378,147,74154,2,0,L|380:226,1,68.0000012969971,2|0,1:2|0:0,0:0:0:0:
188,298,74511,5,4,1:0:0:0:
187,218,74690,2,0,L|184:79,1,136.000002593994,0|0,1:0|0:0,0:0:0:0:
268,166,75225,2,0,L|270:248,1,68.0000012969971,10|0,0:0|0:0,0:0:0:0:
107,276,75583,2,0,L|105:135,1,136.000002593994,2|0,1:2|0:0,0:0:0:0:
274,88,76118,6,0,P|318:104|337:128,1,68.0000012969971,0|2,1:0|0:0,0:0:0:0:
269,233,76475,1,0,1:0:0:0:
188,217,76654,2,0,L|186:135,1,68.0000012969971,8|0,0:0|0:0,0:0:0:0:
346,235,77011,2,0,P|335:276|314:297,1,68.0000012969971,0|0,1:0|0:0,0:0:0:0:
53,294,77368,5,0,1:0:0:0:
54,218,77547,2,0,L|55:80,1,136.000002593994,0|0,1:0|0:0,0:0:0:0:
143,28,78083,2,0,P|176:37|210:32,1,68.0000012969971,8|0,0:0|0:0,0:0:0:0:
327,106,78440,1,0,1:0:0:0:
263,163,78618,2,0,P|245:121|249:85,1,68.0000012969971
326,6,78975,5,2,1:2:0:0:
414,62,79154,1,2,0:0:0:0:
327,106,79333,1,2,1:2:0:0:
462,131,79511,2,0,L|461:203,1,68.0000012969971,10|2,0:0|0:0,0:0:0:0:
358,255,79868,2,0,L|359:183,1,68.0000012969971,2|2,1:2|0:0,0:0:0:0:
226,355,80225,5,4,1:0:0:0:
241,276,80404,2,0,P|176:290|146:348,1,136.000002593994,0|0,1:0|0:0,0:0:0:0:
226,355,80940,2,0,L|296:354,1,68.0000012969971,10|0,0:0|0:0,0:0:0:0:
146,348,81297,2,0,L|6:343,1,136.000002593994,2|2,1:2|0:0,0:0:0:0:
62,265,81833,6,0,L|134:268,1,68.0000012969971,0|2,1:0|0:0,0:0:0:0:
201,165,82190,1,0,1:0:0:0:
159,101,82368,2,0,P|134:126|124:157,1,68.0000012969971,10|0,0:0|0:0,0:0:0:0:
245,231,82725,2,0,P|266:208|278:163,1,68.0000012969971,0|0,1:2|0:0,0:0:0:0:
180,27,83083,5,4,1:0:0:0:
159,101,83261,2,0,L|23:103,1,136.000002593994,0|0,1:0|0:0,0:0:0:0:
112,27,83797,2,0,L|191:26,1,68.0000012969971,10|0,0:0|0:0,0:0:0:0:
233,102,84154,2,0,B|266:81|272:44|272:44|347:39,1,136.000002593994,2|2,1:2|0:0,0:0:0:0:
465,34,84690,5,0,1:0:0:0:
496,138,84868,1,2,0:0:0:0:
390,113,85047,1,0,1:0:0:0:
326,160,85225,2,0,P|349:183|382:191,1,68.0000012969971,10|0,0:0|0:0,0:0:0:0:
273,232,85583,2,0,P|249:208|216:200,1,68.0000012969971,2|0,1:2|0:0,0:0:0:0:
81,303,85940,5,4,1:0:0:0:
114,377,86118,2,0,L|209:279,1,136.000002593994,0|0,1:0|0:0,0:0:0:0:
93,239,86654,2,0,P|78:273|85:313,1,68.0000012969971,10|0,0:0|0:0,0:0:0:0:
274,330,87011,2,0,P|288:266|253:207,1,136.000002593994,2|0,1:2|0:0,0:0:0:0:
118,142,87547,6,0,L|187:141,2,68.0000012969971,0|0|0,1:0|0:0|1:0,0:0:0:0:
212,68,88083,2,0,P|240:85|257:114,1,68.0000012969971,8|0,0:0|0:0,0:0:0:0:
292,251,88440,2,0,P|263:233|246:204,1,68.0000012969971,0|0,1:0|0:0,0:0:0:0:
366,48,88797,5,4,1:0:0:0:
387,127,88975,1,0,1:0:0:0:
285,39,89154,1,0,0:0:0:0:
257,114,89333,1,0,0:0:0:0:
410,204,89511,2,0,P|438:190|459:160,1,68.0000012969971,8|0,0:0|0:0,0:0:0:0:
318,170,89868,2,0,L|310:264,1,68.0000012969971,0|0,1:0|0:0,0:0:0:0:
302,349,90225,5,0,0:0:0:0:
233,255,90404,1,2,1:2:0:0:
383,273,90583,1,2,0:0:0:0:
229,332,90761,1,2,1:2:0:0:
158,303,90940,2,0,P|152:338|162:374,1,68.0000012969971,10|2,0:0|0:0,0:0:0:0:
77,196,91297,2,0,P|110:201|137:221,1,68.0000012969971,2|2,1:2|0:0,0:0:0:0:
78,277,91654,5,4,1:0:0:0:
70,316,97368,5,2,0:0:0:0:
70,316,97725,2,0,L|63:227,2,80,2|2|2,0:0|0:0|0:0,0:0:0:0:
105,165,98797,2,0,P|72:154|19:167,1,80,2|2,0:0|0:0,0:0:0:0:
194,256,99511,2,0,L|189:203,1,40,2|0,0:0|0:0,0:0:0:0:
265,230,99868,2,0,L|251:101,1,128,2|0,0:0|0:0,0:0:0:0:
60,53,103083,6,0,L|72:207,1,151.999995941162,4|2,1:0|0:0,0:0:0:0:
211,242,103618,1,0,0:0:0:0:
211,242,103797,2,0,P|191:210|158:191,1,75.9999979705811,10|0,0:0|0:0,0:0:0:0:
241,345,104154,2,0,P|260:313|293:294,1,75.9999979705811,2|0,1:2|0:0,0:0:0:0:
133,269,104511,5,2,0:0:0:0:
158,191,104690,2,0,L|193:38,1,151.999995941162,0|0,1:0|1:0,0:0:0:0:
257,88,105225,2,0,P|229:113|192:121,1,75.9999979705811,10|0,0:0|0:0,0:0:0:0:
305,166,105583,2,0,P|332:140|369:132,1,75.9999979705811,0|0,1:2|0:0,0:0:0:0:
348,365,105940,6,0,L|364:208,1,151.999995941162,4|2,1:0|0:0,0:0:0:0:
382,58,106475,1,0,0:0:0:0:
382,58,106654,2,0,P|420:76|439:103,1,75.9999979705811,10|0,0:0|0:0,0:0:0:0:
285,240,107011,2,0,P|227:196|225:123,1,151.999995941162,2|2,1:2|0:0,0:0:0:0:
314,155,107547,5,0,1:0:0:0:
225,299,107725,1,2,0:0:0:0:
314,155,107904,1,0,1:0:0:0:
174,234,108083,2,0,P|149:262|141:298,1,75.9999979705811,10|0,0:0|0:0,0:0:0:0:
283,358,108440,2,0,P|303:326|305:288,1,75.9999979705811,2|0,1:2|0:0,0:0:0:0:
99,127,108797,6,0,P|169:153|254:128,1,151.999995941162,4|2,1:0|0:0,0:0:0:0:
360,89,109333,1,0,0:0:0:0:
364,4,109511,2,0,P|327:9|296:31,1,75.9999979705811,10|0,0:0|0:0,0:0:0:0:
432,180,109868,2,0,L|443:22,1,151.999995941162,2|0,1:2|0:0,0:0:0:0:
228,71,110404,5,0,1:0:0:0:
228,71,110583,2,0,P|190:77|155:66,1,75.9999979705811,2|0,0:0|1:0,0:0:0:0:
35,125,110940,2,0,P|72:118|107:129,1,75.9999979705811,8|0,0:0|0:0,0:0:0:0:
220,211,111297,2,0,P|182:204|147:215,1,75.9999979705811,0|0,1:0|0:0,0:0:0:0:
328,271,111654,5,4,1:0:0:0:
286,132,111833,1,0,1:0:0:0:
189,290,112011,1,2,0:0:0:0:
341,268,112190,1,2,0:0:0:0:
268,129,112368,2,0,L|190:134,1,75.9999979705811,10|2,0:0|0:0,0:0:0:0:
96,288,112725,2,0,L|174:293,1,75.9999979705811,0|2,1:0|0:0,0:0:0:0:
337,298,113083,5,2,0:0:0:0:
410,179,113261,1,2,1:2:0:0:
264,256,113440,2,0,P|253:304|269:348,1,75.9999979705811,2|2,0:0|1:2,0:0:0:0:
337,298,113797,1,10,0:0:0:0:
264,179,113975,1,2,0:0:0:0:
410,256,114154,2,0,P|421:304|405:348,1,75.9999979705811,2|2,1:2|0:0,0:0:0:0:
180,213,114511,6,0,L|186:61,1,151.999995941162,4|2,1:0|0:0,0:0:0:0:
264,179,115047,1,0,0:0:0:0:
180,213,115225,2,0,L|95:210,1,75.9999979705811,10|0,0:0|0:0,0:0:0:0:
277,101,115583,2,0,P|312:115|334:146,1,75.9999979705811,2|0,1:2|0:0,0:0:0:0:
262,294,115940,6,0,L|265:209,1,75.9999979705811,2|0,0:0|1:0,0:0:0:0:
192,61,116297,2,0,L|188:163,1,75.9999979705811,2|0,0:0|1:0,0:0:0:0:
284,316,116654,2,0,P|300:279|347:254,1,75.9999979705811,10|0,0:0|0:0,0:0:0:0:
434,327,117011,2,0,P|387:337|354:321,1,75.9999979705811,0|0,1:2|0:0,0:0:0:0:
101,298,117368,6,0,P|173:295|214:356,1,151.999995941162,4|2,1:0|0:0,0:0:0:0:
397,257,117904,1,0,0:0:0:0:
397,257,118083,2,0,P|439:248|483:269,1,75.9999979705811,10|0,0:0|0:0,0:0:0:0:
284,316,118440,6,0,L|288:142,1,151.999995941162,2|2,1:2|0:0,0:0:0:0:
290,33,118975,1,0,1:0:0:0:
195,174,119154,1,2,0:0:0:0:
365,129,119333,1,0,1:0:0:0:
169,98,119511,2,0,P|136:117|117:150,1,75.9999979705811,10|0,0:0|0:0,0:0:0:0:
222,251,119868,2,0,P|254:231|274:199,1,75.9999979705811,2|0,1:2|0:0,0:0:0:0:
42,17,120225,6,0,L|40:187,1,151.999995941162,4|2,1:0|0:0,0:0:0:0:
39,287,120761,1,0,0:0:0:0:
39,287,120940,2,0,L|118:290,1,75.9999979705811,10|0,0:0|0:0,0:0:0:0:
226,368,121297,2,0,L|56:366,1,151.999995941162,2|0,1:2|0:0,0:0:0:0:
230,286,121833,5,0,1:0:0:0:
229,286,122011,2,0,P|265:295|292:321,1,75.9999979705811,2|0,0:0|1:0,0:0:0:0:
262,198,122368,2,0,P|225:188|198:162,1,75.9999979705811,8|0,0:0|0:0,0:0:0:0:
336,141,122725,2,0,P|355:173|355:210,1,75.9999979705811,0|0,1:0|0:0,0:0:0:0:
151,222,123083,5,4,1:0:0:0:
105,74,123261,1,0,1:0:0:0:
265,116,123440,1,2,0:0:0:0:
128,235,123618,1,2,0:0:0:0:
93,51,123797,2,0,L|176:51,1,75.9999979705811,8|2,0:0|0:0,0:0:0:0:
282,143,124154,2,0,L|199:143,1,75.9999979705811,0|2,1:0|0:0,0:0:0:0:
406,268,124511,5,2,0:0:0:0:
372,115,124690,1,2,1:2:0:0:
299,283,124868,1,2,0:0:0:0:
370,84,125047,1,2,1:2:0:0:
411,290,125225,2,0,L|429:377,1,75.9999979705811,10|2,0:0|0:0,0:0:0:0:
238,233,125583,2,0,P|267:210|305:207,1,75.9999979705811,2|2,1:2|0:0,0:0:0:0:
124,328,125940,6,0,L|157:131,1,192,4|0,1:0|0:0,0:0:0:0:
174,59,126654,2,0,P|202:69|227:102,1,64,10|0,0:0|0:0,0:0:0:0:
281,209,127011,2,0,P|252:198|227:165,1,64,2|0,1:2|0:0,0:0:0:0:
358,84,127368,2,0,L|375:282,1,192,2|0,0:0|1:0,0:0:0:0:
317,338,128083,2,0,P|292:305|290:270,1,64,10|0,0:0|0:0,0:0:0:0:
186,288,128440,2,0,P|211:255|213:220,1,64,0|0,1:2|0:0,0:0:0:0:
375,274,128797,6,0,P|417:192|509:187,1,192,4|0,1:0|0:0,0:0:0:0:
478,323,129511,2,0,P|463:294|463:263,1,64,10|0,0:0|0:0,0:0:0:0:
494,126,129868,2,0,P|508:154|508:185,1,64,2|0,1:2|0:0,0:0:0:0:
314,271,130225,2,0,L|361:69,1,192,2|0,0:0|1:0,0:0:0:0:
264,133,130940,2,0,P|238:113|197:112,1,64,10|0,0:0|0:0,0:0:0:0:
144,169,131297,2,0,P|170:189|211:190,1,64,2|0,1:2|0:0,0:0:0:0:
376,229,131654,6,0,P|288:208|246:287,1,192,4|0,1:0|0:0,0:0:0:0:
339,340,132368,2,0,L|318:270,1,64,10|0,0:0|0:0,0:0:0:0:
189,161,132725,2,0,L|149:348,1,192,2|0,1:2|1:0,0:0:0:0:
266,104,133440,1,2,0:0:0:0:
256,192,133797,12,0,136833,0:0:0:0:
258,34,137368,5,4,1:0:0:0:
296,106,137725,2,0,L|369:112,1,60.0000022888184,2|0,0:0|0:0,0:0:0:0:
158,138,138083,2,0,L|85:144,1,60.0000022888184,2|0,0:0|0:0,0:0:0:0:
370,183,138440,2,0,L|443:189,1,60.0000022888184,2|0,0:0|0:0,0:0:0:0:
255,356,138797,2,0,B|183:274|236:169|309:216|338:93|249:27,1,360.000013732911,2|2,0:0|0:0,0:0:0:0:
258,34,140225,6,0,P|304:89|377:82,1,151.999995941162,4|2,1:0|0:0,0:0:0:0:
218,153,140761,1,0,0:0:0:0:
166,82,140940,2,0,P|137:115|134:168,1,75.9999979705811,10|0,0:0|0:0,0:0:0:0:
325,225,141297,2,0,P|315:188|201:161,1,151.999995941162,2|2,1:2|0:0,0:0:0:0:
140,327,141833,5,0,1:0:0:0:
269,381,142011,1,2,0:0:0:0:
245,227,142190,1,0,1:0:0:0:
110,354,142368,2,0,L|30:357,1,75.9999979705811,10|0,0:0|0:0,0:0:0:0:
299,345,142725,2,0,L|379:342,1,75.9999979705811,2|0,1:2|0:0,0:0:0:0:
217,152,143083,6,0,L|52:160,1,151.999995941162,4|2,1:0|0:0,0:0:0:0:
260,80,143618,1,0,0:0:0:0:
260,80,143797,2,0,P|292:114|299:155,1,75.9999979705811,10|0,0:0|0:0,0:0:0:0:
234,283,144154,2,0,P|202:249|226:143,1,151.999995941162,2|0,1:2|0:0,0:0:0:0:
354,37,144690,5,0,1:0:0:0:
354,37,144868,2,0,L|451:37,1,75.9999979705811,2|0,0:0|1:0,0:0:0:0:
468,124,145225,2,0,L|371:124,1,75.9999979705811,8|0,0:0|0:0,0:0:0:0:
436,212,145583,2,0,L|533:212,1,75.9999979705811,0|0,1:0|0:0,0:0:0:0:
299,141,145940,5,4,1:0:0:0:
234,283,146118,1,0,1:0:0:0:
393,275,146297,1,2,0:0:0:0:
298,116,146475,1,2,0:0:0:0:
216,293,146654,2,0,L|187:363,1,75.9999979705811,10|2,0:0|0:0,0:0:0:0:
370,269,147011,2,0,L|341:199,1,75.9999979705811,0|2,1:0|0:0,0:0:0:0:
260,36,147368,5,2,0:0:0:0:
198,186,147547,1,2,1:2:0:0:
291,35,147725,2,0,L|380:35,1,75.9999979705811,2|2,0:0|1:2,0:0:0:0:
192,220,148083,1,10,0:0:0:0:
129,56,148261,1,2,0:0:0:0:
163,220,148440,2,0,L|87:220,1,75.9999979705811,2|2,1:2|0:0,0:0:0:0:
277,344,148797,6,0,L|430:346,1,151.999995941162,4|2,1:0|0:0,0:0:0:0:
375,232,149333,1,0,0:0:0:0:
341,162,149511,2,0,P|307:192|299:231,1,75.9999979705811,10|0,0:0|0:0,0:0:0:0:
173,262,149868,2,0,P|207:232|215:193,1,75.9999979705811,2|0,1:2|0:0,0:0:0:0:
76,144,150225,6,0,P|106:178|145:186,1,75.9999979705811,2|0,0:0|1:0,0:0:0:0:
210,71,150583,2,0,P|173:79|147:106,1,75.9999979705811,2|0,0:0|1:0,0:0:0:0:
153,331,150940,2,0,P|172:299|172:261,1,75.9999979705811,10|0,0:0|0:0,0:0:0:0:
279,217,151297,2,0,P|259:248|259:286,1,75.9999979705811,0|0,1:2|0:0,0:0:0:0:
76,143,151654,6,0,L|51:293,1,151.999995941162,4|2,1:0|0:0,0:0:0:0:
98,37,152190,1,0,0:0:0:0:
98,37,152368,2,0,P|60:34|16:56,1,75.9999979705811,10|0,0:0|0:0,0:0:0:0:
146,107,152725,2,0,L|306:120,1,151.999995941162,2|2,1:2|0:0,0:0:0:0:
424,126,153261,5,0,1:0:0:0:
264,221,153440,1,2,0:0:0:0:
280,38,153618,1,0,1:0:0:0:
423,147,153797,2,0,L|417:240,1,75.9999979705811,10|0,0:0|0:0,0:0:0:0:
258,315,154154,2,0,L|264:222,1,75.9999979705811,2|0,1:2|0:0,0:0:0:0:
125,100,154511,6,0,L|116:251,1,151.999995941162,4|2,1:0|0:0,0:0:0:0:
49,60,155047,1,0,0:0:0:0:
49,60,155225,2,0,P|70:29|106:15,1,75.9999979705811,10|0,0:0|0:0,0:0:0:0:
251,70,155583,2,0,P|229:100|119:94,1,151.999995941162,2|0,1:2|0:0,0:0:0:0:
313,154,156118,5,0,1:0:0:0:
313,154,156297,2,0,L|400:152,1,75.9999979705811,2|0,0:0|1:0,0:0:0:0:
288,234,156654,2,0,P|256:216|232:178,1,75.9999979705811,8|0,0:0|0:0,0:0:0:0:
412,74,157011,2,0,P|444:92|468:130,1,75.9999979705811,0|0,1:0|0:0,0:0:0:0:
373,321,157368,5,4,1:0:0:0:
388,152,157547,1,0,1:0:0:0:
291,323,157725,1,2,0:0:0:0:
448,207,157904,1,2,0:0:0:0:
268,321,158083,2,0,L|180:316,1,75.9999979705811,8|2,0:0|0:0,0:0:0:0:
295,148,158440,2,0,L|383:153,1,75.9999979705811,0|2,1:0|0:0,0:0:0:0:
162,140,158797,5,2,0:0:0:0:
286,231,158975,1,2,1:2:0:0:
83,272,159154,2,0,L|128:198,1,75.9999979705811,2|2,0:0|1:2,0:0:0:0:
209,68,159511,1,10,0:0:0:0:
198,252,159690,1,2,0:0:0:0:
90,137,159868,2,0,P|122:128|171:146,1,75.9999979705811,2|2,1:2|0:0,0:0:0:0:
141,348,160225,5,4,1:0:0:0:
237,348,162011,2,0,L|395:349,1,143.999995605469,2|0,0:0|0:0,0:0:0:0:
119,345,163083,5,4,1:0:0:0:
266,349,164868,2,0,L|424:350,1,143.999995605469,2|0,0:0|0:0,0:0:0:0:
80,346,165940,1,4,1:0:0:0:
256,192,166118,12,0,171833,0:0:0:0:
256,192,172011,12,0,173975,0:0:0:0:
256,192,174154,12,0,175940,0:0:0:0:
