osu file format v14

[General]
AudioFilename: audio.mp3
AudioLeadIn: 0
PreviewTime: 103053
Countdown: 0
SampleSet: Normal
StackLeniency: 0.7
Mode: 1
LetterboxInBreaks: 0
WidescreenStoryboard: 1

[Editor]
Bookmarks: 11714,45999,68856,103142
DistanceSpacing: 0.1
BeatDivisor: 2
GridSize: 4
TimelineZoom: 1

[Metadata]
Title:Sanctuary
TitleUnicode:Sanctuary
Artist:Joji
ArtistUnicode:Joji
Creator:The Default Guy
Version:Muzukashii
Source:
Tags:lofi hip hop trap english hivie filthy frank pink guy 88rising records 12 tone
BeatmapID:2358880
BeatmapSetID:1129114

[Difficulty]
HPDrainRate:7
CircleSize:2
OverallDifficulty:4
ApproachRate:10
SliderMultiplier:1.4
SliderTickRate:1

[Events]
//Background and Video events
0,0,"r.jpg",0,-20
//Break Periods
//Storyboard Layer 0 (Background)
//Storyboard Layer 1 (Fail)
//Storyboard Layer 2 (Pass)
//Storyboard Layer 3 (Foreground)
//Storyboard Layer 4 (Overlay)
//Storyboard Sound Samples

[TimingPoints]
285,357.142857142857,4,1,0,70,1,8
45999,-100,4,1,0,40,0,0
68856,-100,4,1,0,50,0,0
91713,333.333333333333,4,1,0,70,1,0
91713,-107.52688172043,4,1,0,50,0,8
92046,357.142857142857,4,1,0,60,1,8
92046,-100,4,1,0,40,0,0
93117,357.142857142857,4,1,0,60,1,0
102046,-97.0873786407767,4,1,0,50,0,8
102048,364.741641337386,4,1,0,70,1,8
103142,357.142857142857,4,1,0,90,1,0
103142,-100,4,1,0,55,0,1
125999,-100,4,1,0,55,0,0
137071,-100,4,2,0,5,0,0
137160,-100,4,1,0,45,0,0
140284,-100,4,1,0,55,0,1
160284,-100,4,1,0,40,0,0
167427,-100,4,1,0,25,0,0

[HitObjects]
239,272,11714,5,4,0:0:0:0:
307,238,12071,1,0,0:0:0:0:
304,259,12428,1,8,0:0:0:0:
304,259,12785,1,0,0:0:0:0:
304,259,13142,1,8,0:0:0:0:
293,226,13321,1,0,0:0:0:0:
293,226,13678,1,0,0:0:0:0:
293,226,13856,1,8,0:0:0:0:
317,215,14214,1,0,0:0:0:0:
239,272,14571,1,0,0:0:0:0:
239,272,14749,1,0,0:0:0:0:
304,259,15285,1,8,0:0:0:0:
304,259,15642,1,0,0:0:0:0:
304,259,15999,1,8,0:0:0:0:
293,226,16178,1,0,0:0:0:0:
272,176,16356,1,8,0:0:0:0:
293,226,16534,1,0,0:0:0:0:
293,226,16713,1,8,0:0:0:0:
317,215,17071,1,0,0:0:0:0:
207,202,17428,1,8,0:0:0:0:
207,202,17606,1,0,0:0:0:0:
208,202,18142,1,8,0:0:0:0:
208,202,18499,1,0,0:0:0:0:
208,202,19035,1,0,0:0:0:0:
208,202,19392,1,0,0:0:0:0:
224,192,19571,1,8,0:0:0:0:
294,180,19928,1,0,0:0:0:0:
294,180,20285,1,0,0:0:0:0:
294,180,20464,1,0,0:0:0:0:
266,197,20999,1,8,0:0:0:0:
266,197,21356,1,0,0:0:0:0:
246,183,21892,1,0,0:0:0:0:
246,183,22249,1,0,0:0:0:0:
224,162,22428,1,8,0:0:0:0:
224,162,22785,1,0,0:0:0:0:
224,162,23142,1,4,0:0:0:0:
249,161,23856,1,8,0:0:0:0:
249,161,24214,1,8,0:0:0:0:
251,162,24571,1,0,0:0:0:0:
251,162,24749,1,0,0:0:0:0:
252,162,25106,1,0,0:0:0:0:
252,162,25285,1,8,0:0:0:0:
252,162,25642,1,8,0:0:0:0:
252,162,25999,1,8,0:0:0:0:
252,162,26178,1,0,0:0:0:0:
241,139,26714,1,8,0:0:0:0:
241,139,27071,1,8,0:0:0:0:
241,139,27428,1,0,0:0:0:0:
246,174,27785,1,8,0:0:0:0:
246,174,27964,1,0,0:0:0:0:
246,174,28142,1,8,0:0:0:0:
200,222,28321,1,0,0:0:0:0:
220,209,28499,1,8,0:0:0:0:
234,206,28856,1,0,0:0:0:0:
234,206,29035,1,0,0:0:0:0:
234,206,29571,1,8,0:0:0:0:
242,194,29928,1,8,0:0:0:0:
242,194,30106,1,8,0:0:0:0:
100,144,30284,1,8,0:0:0:0:
140,173,30463,1,0,0:0:0:0:
217,187,30821,1,0,0:0:0:0:
217,187,30999,1,8,0:0:0:0:
226,124,31356,1,0,0:0:0:0:
200,144,31714,1,0,0:0:0:0:
200,144,31892,1,0,0:0:0:0:
200,144,32428,1,8,0:0:0:0:
200,144,32785,1,0,0:0:0:0:
200,144,33321,1,0,0:0:0:0:
200,144,33678,1,0,0:0:0:0:
209,160,33856,1,8,0:0:0:0:
216,263,34214,1,0,0:0:0:0:
239,272,34571,5,4,0:0:0:0:
304,259,35285,1,8,0:0:0:0:
304,259,35642,1,0,0:0:0:0:
304,259,35999,1,8,0:0:0:0:
293,226,36178,1,0,0:0:0:0:
293,226,36535,1,0,0:0:0:0:
293,226,36713,1,8,0:0:0:0:
317,215,37071,1,0,0:0:0:0:
239,272,37428,1,8,0:0:0:0:
239,272,37606,1,0,0:0:0:0:
258,189,37785,1,0,0:0:0:0:
304,259,38142,1,8,0:0:0:0:
304,259,38499,1,0,0:0:0:0:
293,226,39035,1,0,0:0:0:0:
272,176,39392,1,0,0:0:0:0:
293,226,39570,1,8,0:0:0:0:
190,171,39928,1,0,0:0:0:0:
208,176,40285,1,0,0:0:0:0:
207,202,40463,1,0,0:0:0:0:
208,202,40642,1,8,0:0:0:0:
239,172,40999,1,8,0:0:0:0:
208,202,41356,1,0,0:0:0:0:
208,202,41714,1,0,0:0:0:0:
339,152,41892,1,0,0:0:0:0:
239,158,42071,1,8,0:0:0:0:
208,202,42249,1,0,0:0:0:0:
224,192,42428,1,8,0:0:0:0:
294,180,42785,1,8,0:0:0:0:
294,180,43142,1,0,0:0:0:0:
294,180,43321,1,0,0:0:0:0:
266,197,43856,1,8,0:0:0:0:
266,197,44213,1,0,0:0:0:0:
187,167,44392,1,8,0:0:0:0:
187,167,44571,1,8,0:0:0:0:
246,183,44749,1,0,0:0:0:0:
246,183,45106,1,0,0:0:0:0:
224,162,45285,1,8,0:0:0:0:
224,162,45642,1,0,0:0:0:0:
224,162,45999,1,4,0:0:0:0:
172,140,46356,1,8,0:0:0:0:
172,140,46714,1,8,0:0:0:0:
172,140,47071,1,0,0:0:0:0:
225,164,47249,1,0,0:0:0:0:
172,140,47428,1,8,0:0:0:0:
172,140,47785,1,8,0:0:0:0:
226,164,48499,1,0,0:0:0:0:
226,164,48856,1,8,0:0:0:0:
251,160,49214,1,8,0:0:0:0:
259,163,49392,1,0,0:0:0:0:
251,160,49571,1,8,0:0:0:0:
251,160,49928,1,0,0:0:0:0:
208,172,50999,1,0,0:0:0:0:
208,172,51356,1,0,0:0:0:0:
209,172,51714,1,8,0:0:0:0:
209,172,52071,1,8,0:0:0:0:
202,159,52249,1,8,0:0:0:0:
209,172,52428,1,0,0:0:0:0:
209,172,52785,1,8,0:0:0:0:
243,144,53499,1,0,0:0:0:0:
243,144,53856,1,8,0:0:0:0:
234,164,54035,1,8,0:0:0:0:
243,144,54214,1,8,0:0:0:0:
203,269,56356,1,8,0:0:0:0:
224,162,57428,1,4,0:0:0:0:
172,140,57785,1,8,0:0:0:0:
172,140,58143,1,8,0:0:0:0:
172,140,58500,1,8,0:0:0:0:
225,164,58678,1,0,0:0:0:0:
172,140,58857,1,8,0:0:0:0:
172,140,59214,1,0,0:0:0:0:
226,164,59928,1,0,0:0:0:0:
226,164,60285,1,8,0:0:0:0:
251,160,60643,1,8,0:0:0:0:
259,163,60821,1,0,0:0:0:0:
251,160,61000,1,8,0:0:0:0:
251,160,61357,1,0,0:0:0:0:
208,172,62428,1,0,0:0:0:0:
208,172,62785,1,0,0:0:0:0:
209,172,63143,1,8,0:0:0:0:
209,172,63500,1,8,0:0:0:0:
112,94,63677,1,8,0:0:0:0:
209,172,63856,1,0,0:0:0:0:
209,172,64214,1,0,0:0:0:0:
243,144,64928,1,0,0:0:0:0:
243,144,65285,1,8,0:0:0:0:
234,164,65464,1,8,0:0:0:0:
243,144,65643,1,8,0:0:0:0:
263,140,67964,1,8,0:0:0:0:
263,140,68143,1,8,0:0:0:0:
263,140,68321,1,8,0:0:0:0:
263,140,68500,1,8,0:0:0:0:
172,137,68677,1,8,0:0:0:0:
239,272,68856,1,4,0:0:0:0:
307,238,69213,1,0,0:0:0:0:
304,259,69570,1,8,0:0:0:0:
304,259,69927,1,0,0:0:0:0:
304,259,70284,1,8,0:0:0:0:
293,226,70463,1,0,0:0:0:0:
293,226,70820,1,0,0:0:0:0:
293,226,70998,1,8,0:0:0:0:
317,215,71356,1,8,0:0:0:0:
239,272,71713,1,0,0:0:0:0:
239,272,71891,1,0,0:0:0:0:
304,259,72427,1,0,0:0:0:0:
304,259,72784,1,8,0:0:0:0:
304,259,73141,1,8,0:0:0:0:
293,226,73320,1,0,0:0:0:0:
272,176,73498,1,0,0:0:0:0:
293,226,73677,1,0,0:0:0:0:
293,226,73855,1,8,0:0:0:0:
317,215,74213,1,0,0:0:0:0:
207,202,74570,1,8,0:0:0:0:
207,202,74748,1,0,0:0:0:0:
208,202,75284,1,0,0:0:0:0:
208,202,75641,1,8,0:0:0:0:
208,202,76177,1,0,0:0:0:0:
318,193,76356,1,8,0:0:0:0:
208,202,76534,1,0,0:0:0:0:
224,192,76713,1,8,0:0:0:0:
294,180,77070,1,0,0:0:0:0:
294,180,77427,1,0,0:0:0:0:
294,180,77606,1,0,0:0:0:0:
234,163,77964,1,0,0:0:0:0:
266,197,78141,1,8,0:0:0:0:
234,163,78321,1,0,0:0:0:0:
266,197,78499,1,0,0:0:0:0:
123,181,78678,1,0,0:0:0:0:
246,183,79391,1,0,0:0:0:0:
224,162,79570,1,8,0:0:0:0:
215,192,79749,1,0,0:0:0:0:
224,162,79927,1,0,0:0:0:0:
224,162,80284,1,4,0:0:0:0:
317,168,80642,1,0,0:0:0:0:
249,161,80998,1,8,0:0:0:0:
214,179,81178,1,0,0:0:0:0:
249,161,81356,1,8,0:0:0:0:
251,162,81713,1,0,0:0:0:0:
251,162,81891,1,0,0:0:0:0:
252,162,82248,1,0,0:0:0:0:
252,162,82427,1,8,0:0:0:0:
252,162,82784,1,8,0:0:0:0:
252,162,83141,1,8,0:0:0:0:
252,162,83320,1,0,0:0:0:0:
241,139,83856,1,8,0:0:0:0:
241,139,84213,1,0,0:0:0:0:
241,139,84570,1,8,0:0:0:0:
246,174,84927,1,0,0:0:0:0:
246,174,85106,1,0,0:0:0:0:
195,148,85284,1,8,0:0:0:0:
220,209,85641,1,8,0:0:0:0:
234,206,85998,1,0,0:0:0:0:
234,206,86177,1,0,0:0:0:0:
219,161,86356,1,8,0:0:0:0:
234,206,86713,1,8,0:0:0:0:
242,194,87070,1,0,0:0:0:0:
234,206,87606,1,0,0:0:0:0:
217,187,87963,1,0,0:0:0:0:
217,187,88141,1,8,0:0:0:0:
226,124,88498,1,0,0:0:0:0:
200,144,88856,1,0,0:0:0:0:
200,144,89034,1,0,0:0:0:0:
200,144,89570,1,8,0:0:0:0:
200,144,89927,1,0,0:0:0:0:
200,144,90463,1,0,0:0:0:0:
192,171,90642,1,8,0:0:0:0:
200,144,90820,1,0,0:0:0:0:
209,160,90998,1,8,0:0:0:0:
216,263,91356,1,0,0:0:0:0:
239,272,91713,5,4,0:0:0:0:
221,161,92403,1,0,0:0:0:0:
221,161,92939,1,8,0:0:0:0:
221,161,93296,1,0,0:0:0:0:
221,161,93474,1,8,0:0:0:0:
221,161,93831,1,0,0:0:0:0:
232,175,94546,1,0,0:0:0:0:
232,175,94903,1,8,0:0:0:0:
237,175,95260,1,8,0:0:0:0:
261,195,97760,1,0,0:0:0:0:
221,161,98117,1,8,0:0:0:0:
226,168,98474,1,0,0:0:0:0:
221,161,98831,1,8,0:0:0:0:
221,161,99188,1,8,0:0:0:0:
221,161,99546,1,0,0:0:0:0:
232,175,99903,1,8,0:0:0:0:
126,117,100617,1,0,0:0:0:0:
237,175,100974,1,8,0:0:0:0:
224,162,103142,5,4,0:0:0:0:
172,140,103498,1,8,0:0:0:0:
298,164,103678,1,0,0:0:0:0:
172,140,103856,1,8,0:0:0:0:
172,140,104213,1,8,0:0:0:0:
225,164,104391,1,0,0:0:0:0:
172,140,104570,1,0,0:0:0:0:
172,140,104927,1,8,0:0:0:0:
226,164,105641,1,0,0:0:0:0:
226,164,105998,1,8,0:0:0:0:
251,160,106356,1,0,0:0:0:0:
259,163,106534,1,0,0:0:0:0:
251,160,106713,1,8,0:0:0:0:
251,160,107070,1,0,0:0:0:0:
268,165,107606,1,0,0:0:0:0:
267,62,107964,1,0,0:0:0:0:
208,172,108141,1,8,0:0:0:0:
208,172,108498,1,0,0:0:0:0:
209,172,108856,1,8,0:0:0:0:
280,190,109035,1,0,0:0:0:0:
209,172,109213,1,8,0:0:0:0:
209,172,109570,1,0,0:0:0:0:
209,172,109927,1,8,0:0:0:0:
243,144,110641,1,0,0:0:0:0:
243,144,110998,1,8,0:0:0:0:
234,164,111177,1,8,0:0:0:0:
243,144,111356,1,8,0:0:0:0:
286,165,111714,1,0,0:0:0:0:
286,165,112249,1,0,0:0:0:0:
286,165,112428,1,8,0:0:0:0:
325,162,112785,1,0,0:0:0:0:
302,164,113142,1,0,0:0:0:0:
302,164,113321,1,0,0:0:0:0:
203,269,113498,1,8,0:0:0:0:
344,291,113856,1,8,0:0:0:0:
224,162,114571,5,4,0:0:0:0:
172,140,114928,1,8,0:0:0:0:
298,164,115106,1,0,0:0:0:0:
172,140,115285,1,8,0:0:0:0:
172,140,115642,1,8,0:0:0:0:
225,164,115821,1,0,0:0:0:0:
172,140,115999,1,0,0:0:0:0:
172,140,116357,1,0,0:0:0:0:
330,214,116714,1,8,0:0:0:0:
226,164,117071,1,0,0:0:0:0:
226,164,117428,1,8,0:0:0:0:
251,160,117784,1,8,0:0:0:0:
259,163,117963,1,0,0:0:0:0:
251,160,118142,1,8,0:0:0:0:
251,160,118500,1,0,0:0:0:0:
268,165,119034,1,0,0:0:0:0:
267,62,119392,1,0,0:0:0:0:
208,172,119571,1,8,0:0:0:0:
208,172,119928,1,0,0:0:0:0:
209,172,120284,1,8,0:0:0:0:
280,190,120463,1,0,0:0:0:0:
209,172,120642,1,8,0:0:0:0:
209,172,121000,1,8,0:0:0:0:
209,172,121356,1,0,0:0:0:0:
243,144,122071,1,0,0:0:0:0:
243,144,122427,1,8,0:0:0:0:
234,164,122606,1,8,0:0:0:0:
243,144,122784,1,8,0:0:0:0:
286,165,123142,1,0,0:0:0:0:
246,189,123320,1,0,0:0:0:0:
286,165,123678,1,0,0:0:0:0:
286,165,123856,1,8,0:0:0:0:
325,162,124214,1,0,0:0:0:0:
302,164,124571,1,0,0:0:0:0:
302,164,124749,1,0,0:0:0:0:
203,269,124928,1,8,0:0:0:0:
242,204,125285,1,8,0:0:0:0:
221,220,125642,1,0,0:0:0:0:
242,204,125999,1,0,0:0:0:0:
277,203,126178,1,0,0:0:0:0:
247,217,126714,1,8,0:0:0:0:
270,210,127071,1,0,0:0:0:0:
268,186,127427,1,0,0:0:0:0:
279,201,127606,1,0,0:0:0:0:
279,201,127785,1,0,0:0:0:0:
247,217,128142,1,8,0:0:0:0:
273,213,128499,1,0,0:0:0:0:
273,213,128856,1,8,0:0:0:0:
277,203,129035,1,0,0:0:0:0:
277,203,129571,1,8,0:0:0:0:
277,203,129928,1,0,0:0:0:0:
277,203,130285,1,0,0:0:0:0:
277,203,130464,1,0,0:0:0:0:
276,203,130821,1,0,0:0:0:0:
276,203,130999,1,8,0:0:0:0:
291,258,131356,1,0,0:0:0:0:
291,258,131714,1,8,0:0:0:0:
291,258,132071,1,0,0:0:0:0:
291,258,132249,1,0,0:0:0:0:
291,258,132428,1,8,0:0:0:0:
291,258,132785,1,8,0:0:0:0:
291,258,133499,1,0,0:0:0:0:
291,258,133856,1,8,0:0:0:0:
260,185,134571,1,0,0:0:0:0:
260,185,134928,1,0,0:0:0:0:
224,162,137428,5,12,0:0:0:0:
172,140,137784,1,0,0:0:0:0:
172,140,138143,1,8,0:0:0:0:
172,140,138500,1,8,0:0:0:0:
172,140,138857,1,0,0:0:0:0:
172,140,139214,1,8,0:0:0:0:
226,164,139928,1,0,0:0:0:0:
226,164,140285,1,12,0:0:0:0:
251,160,140643,1,8,0:0:0:0:
259,163,140821,1,0,0:0:0:0:
251,160,141000,1,8,0:0:0:0:
251,160,141357,1,0,0:0:0:0:
268,165,141892,1,0,0:0:0:0:
267,62,142249,1,0,0:0:0:0:
208,172,142428,1,8,0:0:0:0:
208,172,142785,1,0,0:0:0:0:
209,172,143142,1,8,0:0:0:0:
280,190,143321,1,0,0:0:0:0:
209,172,143499,1,8,0:0:0:0:
209,172,143857,1,0,0:0:0:0:
209,172,144214,1,8,0:0:0:0:
297,195,144749,1,0,0:0:0:0:
243,144,144928,1,0,0:0:0:0:
243,144,145285,1,8,0:0:0:0:
234,164,145464,1,8,0:0:0:0:
243,144,145642,1,8,0:0:0:0:
286,165,145999,1,0,0:0:0:0:
297,195,146356,1,0,0:0:0:0:
286,165,146534,1,0,0:0:0:0:
286,165,146713,1,8,0:0:0:0:
325,162,147070,1,0,0:0:0:0:
302,164,147427,1,0,0:0:0:0:
302,164,147606,1,0,0:0:0:0:
203,269,147784,1,8,0:0:0:0:
297,195,148142,1,8,0:0:0:0:
224,162,148856,5,4,0:0:0:0:
172,140,149213,1,8,0:0:0:0:
298,164,149391,1,0,0:0:0:0:
172,140,149570,1,8,0:0:0:0:
172,140,149928,1,8,0:0:0:0:
225,164,150106,1,0,0:0:0:0:
172,140,150285,1,0,0:0:0:0:
172,140,150642,1,8,0:0:0:0:
293,187,150999,1,8,0:0:0:0:
226,164,151356,1,0,0:0:0:0:
226,164,151714,1,8,0:0:0:0:
251,160,152071,1,8,0:0:0:0:
259,163,152249,1,0,0:0:0:0:
251,160,152428,1,8,0:0:0:0:
251,160,152785,1,0,0:0:0:0:
268,165,153142,1,0,0:0:0:0:
267,62,153678,1,0,0:0:0:0:
208,172,153856,1,8,0:0:0:0:
208,172,154214,1,0,0:0:0:0:
209,172,154571,1,8,0:0:0:0:
280,190,154749,1,0,0:0:0:0:
209,172,154928,1,8,0:0:0:0:
209,172,155285,1,8,0:0:0:0:
209,172,155642,1,0,0:0:0:0:
268,163,156178,1,0,0:0:0:0:
243,144,156356,1,0,0:0:0:0:
243,144,156714,1,8,0:0:0:0:
234,164,156892,1,8,0:0:0:0:
243,144,157071,1,8,0:0:0:0:
286,165,157428,1,0,0:0:0:0:
286,165,157964,1,0,0:0:0:0:
286,165,158142,1,8,0:0:0:0:
325,162,158499,1,0,0:0:0:0:
302,164,158856,1,0,0:0:0:0:
302,164,159035,1,0,0:0:0:0:
203,269,159214,1,8,0:0:0:0:
221,220,159571,1,8,0:0:0:0:
242,204,159927,1,0,0:0:0:0:
242,204,160285,1,4,0:0:0:0:
231,185,162071,1,12,0:0:0:0:
232,185,163142,1,4,0:0:0:0:
224,175,164928,1,12,0:0:0:0:
224,175,165999,1,4,0:0:0:0:
256,192,167427,12,0,173141,0:0:0:0:
