osu file format v14

[General]
AudioFilename: audio.mp3
AudioLeadIn: 0
PreviewTime: -1
Countdown: 0
SampleSet: None
StackLeniency: 0.3
Mode: 0
LetterboxInBreaks: 0
WidescreenStoryboard: 0

[Editor]
DistanceSpacing: 1
BeatDivisor: 4
GridSize: 16
TimelineZoom: 1

[Metadata]
Title:SLOW DANCING IN THE DARK
TitleUnicode:SLOW DANCING IN THE DARK
Artist:Joji
ArtistUnicode:Joji
Creator:Vel0ciTy
Version:In The Dark
Source:
Tags:
BeatmapID:1910796
BeatmapSetID:914896

[Difficulty]
HPDrainRate:5
CircleSize:4
OverallDifficulty:8
ApproachRate:9
SliderMultiplier:1.5
SliderTickRate:1

[Events]
//Background and Video events
0,0,"thumb-1920-856363.jpg",0,0
//Break Periods
//Storyboard Layer 0 (Background)
//Storyboard Layer 1 (Fail)
//Storyboard Layer 2 (Pass)
//Storyboard Layer 3 (Foreground)
//Storyboard Sound Samples

[TimingPoints]
500,337.078651685393,4,2,0,5,1,0
2522,-83.3333333333333,4,2,0,5,0,0
3196,-100,4,2,0,5,0,0
5219,-125,4,2,0,5,0,0
5893,-100,4,2,0,5,0,0
7915,-83.3333333333333,4,2,0,5,0,0
8589,-100,4,2,0,5,0,0
10612,-125,4,2,0,5,0,0
11286,-100,4,2,0,5,0,0
15331,-100,4,2,0,5,0,0
18702,-125,4,2,0,5,0,0
21735,-500,4,2,0,5,0,0
22073,-133.333333333333,4,2,0,5,0,0
22747,-66.6666666666667,4,2,0,5,0,0
23421,-200,4,2,0,5,0,0
24769,-125,4,2,0,5,0,0
25780,-66.6666666666667,4,2,0,5,0,0
26455,-200,4,2,0,5,0,0
27129,-66.6666666666667,4,2,0,5,0,0
27466,-125,4,2,0,5,0,0
28477,-400,4,2,0,5,0,0
30162,-250,4,2,0,5,0,0
31511,-200,4,2,0,5,0,0
32859,-200,4,2,0,5,0,0
36904,-90.9090909090909,4,2,0,5,0,0
38252,-250,4,2,0,5,0,0
40612,-66.6666666666667,4,2,0,5,0,0
40949,-250,4,2,0,5,0,0
42297,-500,4,2,0,5,0,0
43646,-333.333333333333,4,2,0,5,0,0
46005,-100,4,2,0,5,0,0
49039,-250,4,2,0,5,0,0
50387,-133.333333333333,4,2,0,5,0,0
52241,-50,4,2,0,5,0,0
52410,-133.333333333333,4,2,0,5,0,0
52915,-100,4,2,0,5,0,0
54432,-200,4,2,0,5,0,0
56117,-100,4,2,0,5,0,0
56792,-200,4,2,0,5,0,0
57129,-250,4,2,0,5,0,0
58814,-100,4,2,0,5,0,0
59825,-166.666666666667,4,2,0,5,0,0
64544,-40,4,2,0,5,0,0
65219,-66.6666666666667,4,2,0,5,0,0

[HitObjects]
47,192,500,6,0,P|96:119|178:88,1,150
47,192,1174,2,0,P|118:140|205:139,1,150
47,192,1848,2,0,P|131:167|214:196,1,150
46,192,2522,2,0,P|128:195|205:261,1,179.999994506836
87,316,3196,6,0,P|153:365|247:359,1,150
87,316,3870,2,0,P|165:339|252:301,1,150
87,316,4544,2,0,P|169:311|237:246,1,150
87,316,5219,2,0,P|157:285|199:232,1,120
76,187,5893,6,0,P|122:122|197:96,1,150
76,187,6567,2,0,P|97:109|158:60,1,150
76,187,7241,2,0,P|70:106|110:39,1,150
76,187,7915,2,0,P|40:113|63:20,1,179.999994506836
169,95,8589,6,0,P|201:145|196:237,1,150
169,95,9264,2,0,P|216:131|242:219,1,150
169,95,9938,2,0,P|225:112|280:186,1,150
169,94,10613,2,0,P|228:92|285:115,1,120
204,233,11286,6,0,P|270:282|364:276,1,150
204,233,11960,2,0,P|282:256|369:218,1,150
204,233,12634,2,0,P|286:228|354:163,1,150
204,233,13308,2,0,P|274:202|316:144,1,150
193,103,13983,5,0,0:0:0:0:
193,103,14320,1,0,0:0:0:0:
193,103,14657,1,0,0:0:0:0:
193,103,14994,1,0,0:0:0:0:
275,42,15331,2,0,L|372:43,6,75
316,143,16679,6,0,P|362:208|437:234,1,150
316,143,17353,2,0,P|337:221|398:270,1,150
316,143,18027,2,0,P|310:224|350:291,1,150
316,143,18701,2,0,P|280:217|297:298,1,150
408,233,19376,1,0,0:0:0:0:
444,152,19713,1,0,0:0:0:0:
419,67,20050,1,0,0:0:0:0:
316,143,20387,5,0,0:0:0:0:
279,224,20724,1,0,0:0:0:0:
313,339,21061,2,0,L|321:359,4,15
316,67,21735,6,0,L|304:82,1,15
157,184,22073,2,0,B|183:139|226:118|226:118|246:155|281:164,1,168.750006437302
392,189,22747,6,0,P|446:195|485:239,1,112.500004291535
392,189,23084,2,0,P|359:233|301:244,1,112.500004291535
392,189,23421,2,0,P|370:138|388:78,1,112.5
466,131,24095,5,0,0:0:0:0:
407,281,24432,1,0,0:0:0:0:
309,154,24769,2,0,B|224:172|194:270|110:288,1,240
95,126,25780,6,0,P|146:107|200:130,1,112.500004291535
95,126,26117,2,0,P|84:180|37:215,1,112.500004291535
95,126,26455,2,0,P|52:89|42:31,1,112.5
95,126,27129,6,0,P|137:162|143:228,1,112.500004291535
56,212,27466,2,0,B|55:270|108:299|108:299|145:283|181:305,1,180
139,374,28140,1,0,0:0:0:0:
257,353,28477,2,0,P|274:316|264:258,1,93.75
176,302,29488,1,0,0:0:0:0:
204,156,29825,1,0,0:0:0:0:
268,261,30162,6,0,B|316:245|332:178|332:178|348:245|396:261,1,210
454,151,31511,6,0,B|423:124|426:83|426:83|452:93|476:86,1,112.5
455,8,32185,1,0,0:0:0:0:
455,8,32522,1,0,0:0:0:0:
388,134,32859,6,0,B|349:117|325:67|325:67|368:158|368:158|379:189|378:224,1,262.5
235,211,34207,1,0,0:0:0:0:
235,211,34544,1,0,0:0:0:0:
235,211,34882,1,0,0:0:0:0:
235,211,35219,2,0,P|234:244|228:261,1,37.5
161,225,35556,2,0,B|84:200|87:120|87:120|11:95|14:15,1,262.5
110,27,36904,6,0,P|184:58|173:144,1,165.000005035401
87,123,37578,2,0,P|86:200|159:229,1,165.000005035401
182,133,38252,6,0,B|239:150|260:201|260:201|258:266|303:291,1,210
356,213,39601,1,0,0:0:0:0:
159,229,39938,5,0,0:0:0:0:
159,229,40106,1,0,0:0:0:0:
182,133,40275,5,0,0:0:0:0:
181,132,40443,1,0,0:0:0:0:
181,132,40612,2,0,B|159:150|130:140|130:140|154:113|181:132,1,112.500004291535
189,47,40949,6,0,B|254:62|265:121|265:121|252:174|282:212,1,210
356,152,42297,2,0,P|369:162|378:179,1,30
282,212,43308,5,0,0:0:0:0:
282,212,43646,2,0,B|239:196|239:196|223:239|223:239|181:223|181:223|165:266|165:266|123:250|123:250|118:278|101:292|101:292,1,269.999991760254
44,233,46005,2,0,P|57:179|71:148,1,75
175,141,46342,2,0,B|197:95|197:27,1,112.5
339,155,46764,6,0,B|354:166|354:166|374:189,1,37.5
312,219,47016,2,0,B|366:275|366:275|440:314,1,150
470,181,47522,6,0,L|447:144,1,37.5
398,70,47691,2,0,L|316:111,1,75
309,280,48028,2,0,L|376:246,1,75
219,166,48365,2,0,L|151:199,1,75
43,163,48870,5,0,0:0:0:0:
25,41,49039,6,0,B|47:86|113:93|113:93|51:117|42:167,1,210
151,199,50387,1,0,0:0:0:0:
219,166,50724,1,0,0:0:0:0:
309,280,51061,1,0,0:0:0:0:
398,70,51398,6,0,P|438:81|469:110,1,84.3750032186509
303,97,51735,2,0,P|337:143|404:167,1,112.500004291535
386,165,52241,6,0,P|355:193|315:206,1,75
324,204,52410,2,0,P|358:250|425:274,1,112.500004291535
504,292,52915,1,0,0:0:0:0:
504,292,53084,5,0,0:0:0:0:
454,334,53252,1,0,0:0:0:0:
393,357,53421,1,0,0:0:0:0:
327,358,53589,1,0,0:0:0:0:
266,338,53758,1,0,0:0:0:0:
200,288,53926,1,0,0:0:0:0:
90,147,54264,5,0,0:0:0:0:
90,147,54432,2,0,B|214:163|219:47|334:78,1,262.5
297,183,55780,1,0,0:0:0:0:
484,212,56117,5,0,0:0:0:0:
387,326,56286,1,0,0:0:0:0:
385,175,56455,5,0,0:0:0:0:
288,289,56624,1,0,0:0:0:0:
286,138,56792,2,0,L|286:100,1,37.5
90,147,57129,6,0,B|223:133|154:299|295:291,1,270
438,267,58814,2,0,L|463:260,4,18.75
286,138,59151,1,0,0:0:0:0:
440,105,59320,1,0,0:0:0:0:
290,291,59488,1,0,0:0:0:0:
104,44,59825,6,0,B|171:108|170:168|170:168|116:219|127:295,1,269.999991760254
290,291,61174,1,0,0:0:0:0:
256,192,61511,12,0,64207,0:0:0:0:
362,49,64544,6,0,B|429:47|467:111|467:111|397:155|295:88|295:88|334:116|347:168,1,375
216,200,65219,6,0,P|191:217|163:228,4,56.2500021457673
380,225,65724,1,0,0:0:0:0:
365,257,65893,6,0,P|351:284|347:310,4,56.2500021457673
296,88,66398,1,0,0:0:0:0:
264,89,66567,6,0,P|234:90|202:79,4,56.2500021457673,0|0|0|0|0,2:0|2:0|2:0|2:0|2:0,2:0:0:0:
208,305,67157,5,0,0:0:0:0:
182,284,67241,2,0,P|156:268|112:271,6,56.2500021457673
452,115,67915,6,0,P|350:167|239:103,1,225.000008583069
349,41,68421,1,0,0:0:0:0:
138,79,68589,2,0,P|144:186|233:250,1,225.000008583069
256,125,69095,1,0,0:0:0:0:
452,115,69264,2,0,P|430:221|332:271,1,225.000008583069
329,145,69769,1,0,0:0:0:0:
