osu file format v14

[General]
AudioFilename: SDITD140.mp3
AudioLeadIn: 0
PreviewTime: 48275
Countdown: 0
SampleSet: None
StackLeniency: 0.7
Mode: 3
LetterboxInBreaks: 0
SpecialStyle: 0
WidescreenStoryboard: 0

[Editor]
DistanceSpacing: 0.8
BeatDivisor: 6
GridSize: 32
TimelineZoom: 1.6

[Metadata]
Title:SLOW DANCING IN THE DARK
TitleUnicode:SLOW DANCING IN THE DARK
Artist:Joji
ArtistUnicode:Joji
Creator:Shoegazer
Version:ballads 1.4x
Source:
Tags:ballads 1 alternative r&b ambient pop 88rising sditd wiosna valedict
BeatmapID:2193889
BeatmapSetID:869760

[Difficulty]
HPDrainRate:8
CircleSize:4
OverallDifficulty:7.5
ApproachRate:5
SliderMultiplier:1.4
SliderTickRate:1

[Events]
//Background and Video events
0,0,"dancing.jpg",0,0
//Break Periods
//Storyboard Layer 0 (Background)
//Storyboard Layer 1 (Fail)
//Storyboard Layer 2 (Pass)
//Storyboard Layer 3 (Foreground)
//Storyboard Layer 4 (Overlay)
//Storyboard Sound Samples

[TimingPoints]
121,481.540930714286,4,3,0,35,1,0

[HitObjects]
64,192,121,5,0,0:0:0:0:
192,192,121,1,0,0:0:0:0:
192,192,361,1,0,0:0:0:0:
320,192,602,1,0,0:0:0:0:
448,192,843,1,0,0:0:0:0:
64,192,1084,1,0,0:0:0:0:
448,192,1084,1,0,0:0:0:0:
320,192,1324,1,0,0:0:0:0:
448,192,1565,1,0,0:0:0:0:
448,192,1806,1,0,0:0:0:0:
320,192,2047,1,0,0:0:0:0:
448,192,2047,1,0,0:0:0:0:
320,192,2287,1,0,0:0:0:0:
192,192,2528,1,0,0:0:0:0:
64,192,2769,1,0,0:0:0:0:
64,192,3010,1,0,0:0:0:0:
448,192,3010,1,0,0:0:0:0:
192,192,3130,1,0,0:0:0:0:
320,192,3251,1,0,0:0:0:0:
192,192,3371,1,0,0:0:0:0:
448,192,3491,1,0,0:0:0:0:
192,192,3612,1,0,0:0:0:0:
320,192,3732,1,0,0:0:0:0:
64,192,3973,1,0,0:0:0:0:
192,192,3973,1,0,0:0:0:0:
64,192,4214,1,0,0:0:0:0:
192,192,4454,1,0,0:0:0:0:
320,192,4695,1,0,0:0:0:0:
64,192,4936,1,0,0:0:0:0:
448,192,4936,1,0,0:0:0:0:
192,192,5177,1,0,0:0:0:0:
448,192,5417,1,0,0:0:0:0:
448,192,5658,1,0,0:0:0:0:
64,192,5899,1,0,0:0:0:0:
192,192,5899,1,0,0:0:0:0:
320,192,6140,1,0,0:0:0:0:
192,192,6381,1,0,0:0:0:0:
64,192,6621,1,0,0:0:0:0:
64,192,6862,1,0,0:0:0:0:
448,192,6862,1,0,0:0:0:0:
64,192,7103,1,0,0:0:0:0:
192,192,7143,1,0,0:0:0:0:
320,192,7183,1,0,0:0:0:0:
448,192,7223,1,0,0:0:0:0:
192,192,7263,1,0,0:0:0:0:
64,192,7344,1,0,0:0:0:0:
448,192,7584,1,0,0:0:0:0:
64,192,7825,1,0,0:0:0:0:
192,192,7825,1,0,0:0:0:0:
64,192,8066,1,0,0:0:0:0:
192,192,8307,1,0,0:0:0:0:
320,192,8547,1,0,0:0:0:0:
64,192,8788,1,0,0:0:0:0:
448,192,8788,1,0,0:0:0:0:
192,192,9029,1,0,0:0:0:0:
192,192,9270,1,0,0:0:0:0:
64,192,9511,1,0,0:0:0:0:
64,192,9751,1,0,0:0:0:0:
192,192,9751,1,0,0:0:0:0:
448,192,9992,1,0,0:0:0:0:
64,192,10233,1,0,0:0:0:0:
320,192,10474,1,0,0:0:0:0:
64,192,10714,1,0,0:0:0:0:
448,192,10714,1,0,0:0:0:0:
192,192,10835,1,0,0:0:0:0:
448,192,10955,1,0,0:0:0:0:
192,192,11076,1,0,0:0:0:0:
320,192,11196,1,0,0:0:0:0:
192,192,11316,1,0,0:0:0:0:
448,192,11437,1,0,0:0:0:0:
64,192,11677,1,0,0:0:0:0:
192,192,11677,1,0,0:0:0:0:
64,192,11918,1,0,0:0:0:0:
192,192,12159,1,0,0:0:0:0:
320,192,12400,1,0,0:0:0:0:
64,192,12641,1,0,0:0:0:0:
448,192,12641,1,0,0:0:0:0:
320,192,13122,1,0,0:0:0:0:
64,192,13604,1,0,0:0:0:0:
192,192,13604,1,0,0:0:0:0:
192,192,13844,1,0,0:0:0:0:
320,192,14085,1,0,0:0:0:0:
448,192,14326,1,0,0:0:0:0:
192,192,14567,1,0,0:0:0:0:
320,192,14807,1,0,0:0:0:0:
64,192,14848,1,0,0:0:0:0:
448,192,14888,1,0,0:0:0:0:
320,192,14928,1,0,0:0:0:0:
192,192,14968,1,0,0:0:0:0:
64,192,15289,1,0,0:0:0:0:
64,192,15530,1,0,0:0:0:0:
192,192,15530,1,0,0:0:0:0:
192,192,15771,1,0,0:0:0:0:
320,192,16022,1,0,0:0:0:0:
64,192,16143,1,0,0:0:0:0:
448,192,16263,1,0,0:0:0:0:
192,192,16383,1,0,0:0:0:0:
64,192,16493,1,0,0:0:0:0:
448,192,16493,1,0,0:0:0:0:
192,192,16544,1,0,0:0:0:0:
320,192,16594,1,0,0:0:0:0:
64,192,16643,1,0,0:0:0:0:
320,192,16694,1,0,0:0:0:0:
448,192,16734,1,0,0:0:0:0:
448,192,16974,1,0,0:0:0:0:
448,192,17215,1,0,0:0:0:0:
320,192,17456,1,0,0:0:0:0:
448,192,17456,1,0,0:0:0:0:
320,192,17697,1,0,0:0:0:0:
192,192,17938,1,0,0:0:0:0:
64,192,18189,1,0,0:0:0:0:
64,192,18419,1,0,0:0:0:0:
448,192,18419,1,0,0:0:0:0:
320,192,18470,1,0,0:0:0:0:
192,192,18520,1,0,0:0:0:0:
448,192,18570,1,0,0:0:0:0:
64,192,18660,1,0,0:0:0:0:
320,192,18720,1,0,0:0:0:0:
192,192,18771,1,0,0:0:0:0:
448,192,18820,1,0,0:0:0:0:
320,192,18870,1,0,0:0:0:0:
64,192,18901,1,0,0:0:0:0:
320,192,18961,1,0,0:0:0:0:
448,192,19021,1,0,0:0:0:0:
192,192,19081,1,0,0:0:0:0:
448,192,19141,1,0,0:0:0:0:
320,192,19181,1,0,0:0:0:0:
192,192,19222,1,0,0:0:0:0:
64,192,19262,1,0,0:0:0:0:
448,192,19322,1,0,0:0:0:0:
64,192,19382,1,0,0:0:0:0:
192,192,19382,1,0,0:0:0:0:
448,192,19422,1,0,0:0:0:0:
320,192,19462,1,0,0:0:0:0:
192,192,19503,1,0,0:0:0:0:
320,192,19563,1,0,0:0:0:0:
64,192,19623,1,0,0:0:0:0:
448,192,19683,1,0,0:0:0:0:
320,192,19743,1,0,0:0:0:0:
192,192,19864,1,0,0:0:0:0:
64,192,19915,1,0,0:0:0:0:
320,192,19965,1,0,0:0:0:0:
448,192,20104,1,0,0:0:0:0:
192,192,20156,1,0,0:0:0:0:
64,192,20206,1,0,0:0:0:0:
320,192,20265,1,0,0:0:0:0:
64,192,20345,1,0,0:0:0:0:
448,192,20345,1,0,0:0:0:0:
320,192,20425,1,0,0:0:0:0:
192,192,20506,1,0,0:0:0:0:
320,192,20597,1,0,0:0:0:0:
64,192,20666,1,0,0:0:0:0:
448,192,20838,1,0,0:0:0:0:
320,192,20947,1,0,0:0:0:0:
448,192,21078,1,0,0:0:0:0:
64,192,21319,1,0,0:0:0:0:
192,192,21319,1,0,0:0:0:0:
320,192,21549,1,0,0:0:0:0:
192,192,21801,1,0,0:0:0:0:
64,192,22041,1,0,0:0:0:0:
64,192,22271,1,0,0:0:0:0:
448,192,22271,1,0,0:0:0:0:
192,192,22322,1,0,0:0:0:0:
448,192,22373,1,0,0:0:0:0:
320,192,22432,1,0,0:0:0:0:
64,192,22512,1,0,0:0:0:0:
448,192,22563,1,0,0:0:0:0:
320,192,22613,1,0,0:0:0:0:
192,192,22663,1,0,0:0:0:0:
448,192,22753,1,0,0:0:0:0:
192,192,22824,1,0,0:0:0:0:
64,192,22884,1,0,0:0:0:0:
448,192,22994,1,0,0:0:0:0:
320,192,23045,1,0,0:0:0:0:
64,192,23095,1,0,0:0:0:0:
448,192,23144,1,0,0:0:0:0:
320,192,23194,1,0,0:0:0:0:
64,192,23234,1,0,0:0:0:0:
192,192,23234,1,0,0:0:0:0:
448,192,23286,1,0,0:0:0:0:
192,192,23336,1,0,0:0:0:0:
448,192,23475,1,0,0:0:0:0:
320,192,23526,1,0,0:0:0:0:
192,192,23576,1,0,0:0:0:0:
448,192,23626,1,0,0:0:0:0:
320,192,23716,1,0,0:0:0:0:
448,192,23767,1,0,0:0:0:0:
192,192,23817,1,0,0:0:0:0:
64,192,23866,1,0,0:0:0:0:
320,192,23917,1,0,0:0:0:0:
192,192,23957,1,0,0:0:0:0:
64,192,24008,1,0,0:0:0:0:
448,192,24058,1,0,0:0:0:0:
320,192,24107,1,0,0:0:0:0:
192,192,24157,1,0,0:0:0:0:
64,192,24198,1,0,0:0:0:0:
448,192,24198,1,0,0:0:0:0:
192,192,24438,1,0,0:0:0:0:
192,192,24679,1,0,0:0:0:0:
64,192,24920,1,0,0:0:0:0:
64,192,25161,1,0,0:0:0:0:
192,192,25161,1,0,0:0:0:0:
448,192,25401,1,0,0:0:0:0:
64,192,25642,1,0,0:0:0:0:
320,192,25883,1,0,0:0:0:0:
64,192,26124,1,0,0:0:0:0:
448,192,26124,1,0,0:0:0:0:
192,192,26175,1,0,0:0:0:0:
448,192,26225,1,0,0:0:0:0:
320,192,26274,1,0,0:0:0:0:
64,192,26364,1,0,0:0:0:0:
448,192,26416,1,0,0:0:0:0:
320,192,26466,1,0,0:0:0:0:
192,192,26515,1,0,0:0:0:0:
448,192,26605,1,0,0:0:0:0:
64,192,26656,1,0,0:0:0:0:
448,192,26706,1,0,0:0:0:0:
64,192,26766,1,0,0:0:0:0:
320,192,26846,1,0,0:0:0:0:
192,192,26897,1,0,0:0:0:0:
64,192,26947,1,0,0:0:0:0:
448,192,26997,1,0,0:0:0:0:
64,192,27087,1,0,0:0:0:0:
192,192,27087,1,0,0:0:0:0:
448,192,27138,1,0,0:0:0:0:
320,192,27188,1,0,0:0:0:0:
64,192,27237,1,0,0:0:0:0:
320,192,27328,1,0,0:0:0:0:
192,192,27568,1,0,0:0:0:0:
64,192,27809,1,0,0:0:0:0:
64,192,28050,1,0,0:0:0:0:
448,192,28050,1,0,0:0:0:0:
192,192,28301,1,0,0:0:0:0:
64,192,28422,1,0,0:0:0:0:
448,192,28542,1,0,0:0:0:0:
192,192,28663,1,0,0:0:0:0:
320,192,28783,1,0,0:0:0:0:
64,192,29023,1,0,0:0:0:0:
192,192,29023,1,0,0:0:0:0:
64,192,29254,1,0,0:0:0:0:
192,192,29494,1,0,0:0:0:0:
320,192,29735,1,0,0:0:0:0:
64,192,29976,1,0,0:0:0:0:
448,192,29976,1,0,0:0:0:0:
448,192,30217,1,0,0:0:0:0:
64,192,30698,1,0,0:0:0:0:
64,192,30939,1,0,0:0:0:0:
192,192,30939,1,0,0:0:0:0:
448,192,30939,128,0,31782:0:0:0:0:
64,192,31180,1,0,0:0:0:0:
192,192,31421,1,0,0:0:0:0:
320,192,31661,1,0,0:0:0:0:
64,192,31902,1,0,0:0:0:0:
448,192,31902,1,0,0:0:0:0:
192,192,32143,1,0,0:0:0:0:
320,192,32384,1,0,0:0:0:0:
320,192,32625,1,0,0:0:0:0:
192,192,32665,1,0,0:0:0:0:
64,192,32865,1,0,0:0:0:0:
192,192,32865,1,0,0:0:0:0:
320,192,32905,1,0,0:0:0:0:
448,192,32946,1,0,0:0:0:0:
192,192,32986,1,0,0:0:0:0:
320,192,33046,1,0,0:0:0:0:
64,192,33106,1,0,0:0:0:0:
448,192,33166,1,0,0:0:0:0:
192,192,33226,1,0,0:0:0:0:
64,192,33267,1,0,0:0:0:0:
64,192,33347,1,0,0:0:0:0:
320,192,33387,1,0,0:0:0:0:
448,192,33427,1,0,0:0:0:0:
192,192,33467,1,0,0:0:0:0:
64,192,33527,1,0,0:0:0:0:
448,192,33588,1,0,0:0:0:0:
192,192,33648,1,0,0:0:0:0:
320,192,33708,1,0,0:0:0:0:
448,192,33748,1,0,0:0:0:0:
64,192,33828,1,0,0:0:0:0:
448,192,33828,1,0,0:0:0:0:
320,192,33868,1,0,0:0:0:0:
192,192,33909,1,0,0:0:0:0:
64,192,33949,1,0,0:0:0:0:
320,192,33989,1,0,0:0:0:0:
192,192,34069,1,0,0:0:0:0:
448,192,34190,1,0,0:0:0:0:
320,192,34230,1,0,0:0:0:0:
320,192,34310,1,0,0:0:0:0:
192,192,34350,1,0,0:0:0:0:
64,192,34390,1,0,0:0:0:0:
448,192,34430,1,0,0:0:0:0:
320,192,34470,1,0,0:0:0:0:
192,192,34551,1,0,0:0:0:0:
320,192,34671,1,0,0:0:0:0:
64,192,34711,1,0,0:0:0:0:
64,192,34791,1,0,0:0:0:0:
192,192,34791,1,0,0:0:0:0:
320,192,34832,1,0,0:0:0:0:
448,192,34872,1,0,0:0:0:0:
192,192,34912,1,0,0:0:0:0:
320,192,34952,1,0,0:0:0:0:
192,192,34992,1,0,0:0:0:0:
64,192,35032,1,0,0:0:0:0:
448,192,35072,1,0,0:0:0:0:
320,192,35112,1,0,0:0:0:0:
192,192,35153,1,0,0:0:0:0:
64,192,35193,1,0,0:0:0:0:
448,192,35233,1,0,0:0:0:0:
320,192,35273,1,0,0:0:0:0:
192,192,35313,1,0,0:0:0:0:
448,192,35353,1,0,0:0:0:0:
192,192,35393,1,0,0:0:0:0:
64,192,35434,1,0,0:0:0:0:
448,192,35474,1,0,0:0:0:0:
320,192,35514,1,0,0:0:0:0:
64,192,35755,1,0,0:0:0:0:
448,192,35755,1,0,0:0:0:0:
320,192,35995,1,0,0:0:0:0:
448,192,36236,1,0,0:0:0:0:
448,192,36477,1,0,0:0:0:0:
192,192,36517,1,0,0:0:0:0:
64,192,36718,1,0,0:0:0:0:
192,192,36718,1,0,0:0:0:0:
320,192,36758,1,0,0:0:0:0:
448,192,36798,1,0,0:0:0:0:
192,192,36838,1,0,0:0:0:0:
64,192,36898,1,0,0:0:0:0:
448,192,36958,1,0,0:0:0:0:
192,192,37019,1,0,0:0:0:0:
320,192,37079,1,0,0:0:0:0:
448,192,37119,1,0,0:0:0:0:
448,192,37199,1,0,0:0:0:0:
320,192,37239,1,0,0:0:0:0:
192,192,37279,1,0,0:0:0:0:
64,192,37320,1,0,0:0:0:0:
320,192,37380,1,0,0:0:0:0:
192,192,37440,1,0,0:0:0:0:
448,192,37500,1,0,0:0:0:0:
192,192,37560,1,0,0:0:0:0:
64,192,37600,1,0,0:0:0:0:
64,192,37681,1,0,0:0:0:0:
448,192,37681,1,0,0:0:0:0:
192,192,37721,1,0,0:0:0:0:
320,192,37761,1,0,0:0:0:0:
448,192,37801,1,0,0:0:0:0:
64,192,37841,1,0,0:0:0:0:
192,192,37921,1,0,0:0:0:0:
448,192,38042,1,0,0:0:0:0:
320,192,38082,1,0,0:0:0:0:
320,192,38162,1,0,0:0:0:0:
192,192,38202,1,0,0:0:0:0:
64,192,38242,1,0,0:0:0:0:
448,192,38283,1,0,0:0:0:0:
192,192,38323,1,0,0:0:0:0:
320,192,38523,1,0,0:0:0:0:
448,192,38564,1,0,0:0:0:0:
320,192,38644,1,0,0:0:0:0:
448,192,38644,1,0,0:0:0:0:
192,192,38684,1,0,0:0:0:0:
64,192,38724,1,0,0:0:0:0:
320,192,38764,1,0,0:0:0:0:
192,192,38804,1,0,0:0:0:0:
448,192,38844,1,0,0:0:0:0:
192,192,38885,1,0,0:0:0:0:
64,192,38925,1,0,0:0:0:0:
320,192,38965,1,0,0:0:0:0:
192,192,39005,1,0,0:0:0:0:
64,192,39045,1,0,0:0:0:0:
448,192,39085,1,0,0:0:0:0:
320,192,39125,1,0,0:0:0:0:
192,192,39165,1,0,0:0:0:0:
448,192,39206,1,0,0:0:0:0:
320,192,39246,1,0,0:0:0:0:
64,192,39286,1,0,0:0:0:0:
320,192,39326,1,0,0:0:0:0:
192,192,39366,1,0,0:0:0:0:
64,192,39607,1,0,0:0:0:0:
448,192,39607,1,0,0:0:0:0:
64,192,39858,1,0,0:0:0:0:
448,192,39979,1,0,0:0:0:0:
192,192,40099,1,0,0:0:0:0:
448,192,40220,1,0,0:0:0:0:
320,192,40340,1,0,0:0:0:0:
64,192,40581,1,0,0:0:0:0:
192,192,40581,1,0,0:0:0:0:
320,192,40610,1,0,0:0:0:0:
448,192,40811,1,0,0:0:0:0:
192,192,41051,1,0,0:0:0:0:
320,192,41292,1,0,0:0:0:0:
64,192,41533,1,0,0:0:0:0:
448,192,41533,1,0,0:0:0:0:
448,192,41785,1,0,0:0:0:0:
64,192,41905,1,0,0:0:0:0:
320,192,42026,1,0,0:0:0:0:
64,192,42146,1,0,0:0:0:0:
192,192,42266,1,0,0:0:0:0:
320,192,42507,1,0,0:0:0:0:
448,192,42507,1,0,0:0:0:0:
192,192,42536,1,0,0:0:0:0:
64,192,42737,1,0,0:0:0:0:
192,192,42978,1,0,0:0:0:0:
320,192,43218,1,0,0:0:0:0:
64,192,43459,1,0,0:0:0:0:
448,192,43459,1,0,0:0:0:0:
192,192,43711,1,0,0:0:0:0:
64,192,43831,1,0,0:0:0:0:
64,192,43941,128,0,45867:0:0:0:0:
320,192,44422,1,0,0:0:0:0:
448,192,44422,1,0,0:0:0:0:
192,192,44663,1,0,0:0:0:0:
320,192,44904,1,0,0:0:0:0:
448,192,45145,1,0,0:0:0:0:
192,192,45385,1,0,0:0:0:0:
448,192,45385,1,0,0:0:0:0:
448,192,45637,1,0,0:0:0:0:
320,192,45757,1,0,0:0:0:0:
192,192,45867,128,0,46108:0:0:0:0:
320,192,45867,128,0,46108:0:0:0:0:
64,192,46108,1,0,0:0:0:0:
64,192,46348,128,0,46389:0:0:0:0:
320,192,46348,1,0,0:0:0:0:
448,192,46348,1,0,0:0:0:0:
192,192,46429,128,0,46469:0:0:0:0:
320,192,46509,128,0,46549:0:0:0:0:
64,192,46589,128,0,46629:0:0:0:0:
192,192,46669,128,0,46710:0:0:0:0:
320,192,46750,128,0,46790:0:0:0:0:
448,192,46830,128,0,46870:0:0:0:0:
192,192,46910,128,0,46950:0:0:0:0:
320,192,46990,128,0,47031:0:0:0:0:
448,192,47071,128,0,47111:0:0:0:0:
64,192,47151,128,0,47191:0:0:0:0:
192,192,47231,128,0,47271:0:0:0:0:
64,192,47312,1,0,0:0:0:0:
448,192,47312,1,0,0:0:0:0:
192,192,47392,128,0,47432:0:0:0:0:
320,192,47472,128,0,47512:0:0:0:0:
448,192,47552,128,0,47592:0:0:0:0:
192,192,47713,128,0,47753:0:0:0:0:
64,192,47793,128,0,47833:0:0:0:0:
192,192,47873,128,0,47913:0:0:0:0:
320,192,47954,128,0,47994:0:0:0:0:
448,192,48034,128,0,48074:0:0:0:0:
64,192,48114,128,0,48154:0:0:0:0:
192,192,48194,128,0,48234:0:0:0:0:
320,192,48275,1,0,0:0:0:0:
448,192,48275,1,0,0:0:0:0:
64,192,48315,1,0,0:0:0:0:
448,192,48355,1,0,0:0:0:0:
320,192,48395,1,0,0:0:0:0:
192,192,48435,1,0,0:0:0:0:
64,192,48515,1,0,0:0:0:0:
320,192,48576,1,0,0:0:0:0:
64,192,48636,1,0,0:0:0:0:
192,192,48676,1,0,0:0:0:0:
320,192,48756,1,0,0:0:0:0:
64,192,48796,1,0,0:0:0:0:
320,192,48836,1,0,0:0:0:0:
448,192,48877,1,0,0:0:0:0:
192,192,48917,1,0,0:0:0:0:
64,192,48997,1,0,0:0:0:0:
320,192,49057,1,0,0:0:0:0:
448,192,49117,1,0,0:0:0:0:
320,192,49157,1,0,0:0:0:0:
64,192,49238,1,0,0:0:0:0:
448,192,49238,1,0,0:0:0:0:
192,192,49278,1,0,0:0:0:0:
448,192,49318,1,0,0:0:0:0:
320,192,49358,1,0,0:0:0:0:
192,192,49398,1,0,0:0:0:0:
320,192,49478,1,0,0:0:0:0:
448,192,49599,1,0,0:0:0:0:
320,192,49639,1,0,0:0:0:0:
64,192,49719,1,0,0:0:0:0:
320,192,49759,1,0,0:0:0:0:
64,192,49799,1,0,0:0:0:0:
192,192,49840,1,0,0:0:0:0:
448,192,49880,1,0,0:0:0:0:
320,192,49960,1,0,0:0:0:0:
64,192,50080,1,0,0:0:0:0:
320,192,50120,1,0,0:0:0:0:
64,192,50201,1,0,0:0:0:0:
192,192,50201,1,0,0:0:0:0:
448,192,50241,1,0,0:0:0:0:
192,192,50281,1,0,0:0:0:0:
64,192,50321,1,0,0:0:0:0:
448,192,50361,1,0,0:0:0:0:
320,192,50401,1,0,0:0:0:0:
192,192,50442,1,0,0:0:0:0:
64,192,50493,1,0,0:0:0:0:
192,192,50538,1,0,0:0:0:0:
448,192,50588,1,0,0:0:0:0:
320,192,50633,1,0,0:0:0:0:
192,192,50682,128,0,50722:0:0:0:0:
320,192,50763,128,0,50803:0:0:0:0:
448,192,50843,128,0,50883:0:0:0:0:
192,192,50923,128,0,50963:0:0:0:0:
320,192,51003,128,0,51043:0:0:0:0:
64,192,51084,128,0,51124:0:0:0:0:
192,192,51164,1,0,0:0:0:0:
448,192,51164,1,0,0:0:0:0:
448,192,51405,1,0,0:0:0:0:
192,192,51565,128,0,51605:0:0:0:0:
64,192,51645,128,0,51686:0:0:0:0:
192,192,51726,128,0,51766:0:0:0:0:
320,192,51886,1,0,0:0:0:0:
64,192,52127,1,0,0:0:0:0:
192,192,52127,1,0,0:0:0:0:
448,192,52167,1,0,0:0:0:0:
320,192,52207,1,0,0:0:0:0:
192,192,52247,1,0,0:0:0:0:
448,192,52287,1,0,0:0:0:0:
320,192,52368,1,0,0:0:0:0:
448,192,52428,1,0,0:0:0:0:
64,192,52488,1,0,0:0:0:0:
192,192,52528,1,0,0:0:0:0:
320,192,52608,1,0,0:0:0:0:
64,192,52649,1,0,0:0:0:0:
320,192,52689,1,0,0:0:0:0:
448,192,52729,1,0,0:0:0:0:
192,192,52769,1,0,0:0:0:0:
64,192,52849,1,0,0:0:0:0:
320,192,52909,1,0,0:0:0:0:
448,192,52970,1,0,0:0:0:0:
320,192,53010,1,0,0:0:0:0:
64,192,53090,1,0,0:0:0:0:
448,192,53090,1,0,0:0:0:0:
320,192,53130,1,0,0:0:0:0:
192,192,53170,1,0,0:0:0:0:
64,192,53210,1,0,0:0:0:0:
320,192,53251,1,0,0:0:0:0:
192,192,53331,1,0,0:0:0:0:
192,192,53451,1,0,0:0:0:0:
64,192,53491,1,0,0:0:0:0:
320,192,53572,1,0,0:0:0:0:
192,192,53608,1,0,0:0:0:0:
64,192,53643,1,0,0:0:0:0:
320,192,53678,1,0,0:0:0:0:
448,192,53713,1,0,0:0:0:0:
192,192,53748,1,0,0:0:0:0:
320,192,53782,1,0,0:0:0:0:
448,192,53812,1,0,0:0:0:0:
448,192,53933,1,0,0:0:0:0:
320,192,53973,1,0,0:0:0:0:
64,192,54053,1,0,0:0:0:0:
192,192,54053,1,0,0:0:0:0:
448,192,54093,1,0,0:0:0:0:
320,192,54133,1,0,0:0:0:0:
192,192,54173,1,0,0:0:0:0:
448,192,54214,1,0,0:0:0:0:
64,192,54254,1,0,0:0:0:0:
320,192,54294,1,0,0:0:0:0:
192,192,54334,1,0,0:0:0:0:
64,192,54374,1,0,0:0:0:0:
448,192,54414,1,0,0:0:0:0:
320,192,54454,1,0,0:0:0:0:
64,192,54494,1,0,0:0:0:0:
192,192,54535,128,0,54575:0:0:0:0:
320,192,54615,128,0,54655:0:0:0:0:
448,192,54695,128,0,54735:0:0:0:0:
192,192,54775,128,0,54816:0:0:0:0:
320,192,54856,128,0,54896:0:0:0:0:
64,192,54936,128,0,54976:0:0:0:0:
192,192,55016,1,0,0:0:0:0:
448,192,55016,1,0,0:0:0:0:
64,192,55096,128,0,55137:0:0:0:0:
192,192,55177,128,0,55217:0:0:0:0:
320,192,55257,128,0,55297:0:0:0:0:
192,192,55417,128,0,55458:0:0:0:0:
64,192,55498,1,0,0:0:0:0:
192,192,55578,128,0,55618:0:0:0:0:
320,192,55658,128,0,55698:0:0:0:0:
448,192,55738,128,0,55779:0:0:0:0:
320,192,55779,1,0,0:0:0:0:
64,192,55819,128,0,55859:0:0:0:0:
192,192,55899,128,0,55939:0:0:0:0:
320,192,55979,1,0,0:0:0:0:
448,192,56030,1,0,0:0:0:0:
192,192,56076,1,0,0:0:0:0:
64,192,56126,1,0,0:0:0:0:
192,192,56220,1,0,0:0:0:0:
448,192,56280,1,0,0:0:0:0:
320,192,56340,1,0,0:0:0:0:
64,192,56366,1,0,0:0:0:0:
64,192,56461,1,0,0:0:0:0:
448,192,56512,1,0,0:0:0:0:
320,192,56557,1,0,0:0:0:0:
192,192,56607,1,0,0:0:0:0:
64,192,56652,1,0,0:0:0:0:
448,192,56702,1,0,0:0:0:0:
320,192,56762,1,0,0:0:0:0:
192,192,56822,1,0,0:0:0:0:
448,192,56848,1,0,0:0:0:0:
64,192,56942,1,0,0:0:0:0:
448,192,56942,1,0,0:0:0:0:
192,192,56993,1,0,0:0:0:0:
320,192,57038,1,0,0:0:0:0:
448,192,57088,1,0,0:0:0:0:
192,192,57133,1,0,0:0:0:0:
320,192,57183,1,0,0:0:0:0:
192,192,57303,1,0,0:0:0:0:
320,192,57424,1,0,0:0:0:0:
448,192,57475,1,0,0:0:0:0:
192,192,57520,1,0,0:0:0:0:
64,192,57570,1,0,0:0:0:0:
320,192,57616,1,0,0:0:0:0:
192,192,57665,1,0,0:0:0:0:
448,192,57785,1,0,0:0:0:0:
320,192,57825,1,0,0:0:0:0:
64,192,57905,1,0,0:0:0:0:
192,192,57905,1,0,0:0:0:0:
448,192,57951,1,0,0:0:0:0:
320,192,57996,1,0,0:0:0:0:
192,192,58041,1,0,0:0:0:0:
64,192,58106,1,0,0:0:0:0:
448,192,58146,1,0,0:0:0:0:
320,192,58192,1,0,0:0:0:0:
64,192,58236,1,0,0:0:0:0:
192,192,58283,1,0,0:0:0:0:
320,192,58327,1,0,0:0:0:0:
448,192,58387,1,0,0:0:0:0:
320,192,58433,1,0,0:0:0:0:
192,192,58477,1,0,0:0:0:0:
64,192,58523,1,0,0:0:0:0:
320,192,58628,1,0,0:0:0:0:
64,192,58868,1,0,0:0:0:0:
448,192,58868,1,0,0:0:0:0:
192,192,58949,128,0,58989:0:0:0:0:
320,192,59029,128,0,59069:0:0:0:0:
64,192,59109,128,0,59149:0:0:0:0:
448,192,59270,128,0,59310:0:0:0:0:
192,192,59350,128,0,59390:0:0:0:0:
64,192,59430,128,0,59470:0:0:0:0:
192,192,59511,128,0,59551:0:0:0:0:
320,192,59591,128,0,59631:0:0:0:0:
448,192,59671,128,0,59711:0:0:0:0:
64,192,59711,1,0,0:0:0:0:
320,192,59751,128,0,59791:0:0:0:0:
64,192,59832,1,0,0:0:0:0:
192,192,59832,1,0,0:0:0:0:
448,192,59878,1,0,0:0:0:0:
320,192,59922,1,0,0:0:0:0:
192,192,59968,1,0,0:0:0:0:
64,192,60032,1,0,0:0:0:0:
448,192,60072,1,0,0:0:0:0:
320,192,60118,1,0,0:0:0:0:
64,192,60163,1,0,0:0:0:0:
192,192,60208,1,0,0:0:0:0:
320,192,60253,1,0,0:0:0:0:
448,192,60313,1,0,0:0:0:0:
320,192,60359,1,0,0:0:0:0:
192,192,60403,1,0,0:0:0:0:
64,192,60449,1,0,0:0:0:0:
320,192,60554,1,0,0:0:0:0:
64,192,60795,1,0,0:0:0:0:
448,192,60795,1,0,0:0:0:0:
320,192,60835,1,0,0:0:0:0:
192,192,60875,1,0,0:0:0:0:
320,192,61276,1,0,0:0:0:0:
192,192,61316,1,0,0:0:0:0:
320,192,61356,1,0,0:0:0:0:
64,192,61637,1,0,0:0:0:0:
320,192,61758,1,0,0:0:0:0:
448,192,61758,1,0,0:0:0:0:
64,192,61798,1,0,0:0:0:0:
192,192,61838,1,0,0:0:0:0:
320,192,61878,1,0,0:0:0:0:
448,192,61918,1,0,0:0:0:0:
192,192,61999,1,0,0:0:0:0:
320,192,62059,1,0,0:0:0:0:
64,192,62119,1,0,0:0:0:0:
448,192,62170,1,0,0:0:0:0:
320,192,62215,1,0,0:0:0:0:
192,192,62265,1,0,0:0:0:0:
64,192,62311,1,0,0:0:0:0:
448,192,62360,1,0,0:0:0:0:
320,192,62420,1,0,0:0:0:0:
64,192,62480,1,0,0:0:0:0:
448,192,62560,1,0,0:0:0:0:
192,192,62641,1,0,0:0:0:0:
64,192,62721,1,0,0:0:0:0:
448,192,62721,1,0,0:0:0:0:
320,192,62801,128,0,62841:0:0:0:0:
64,192,62881,128,0,62921:0:0:0:0:
192,192,62962,128,0,63002:0:0:0:0:
320,192,63042,128,0,63082:0:0:0:0:
448,192,63122,128,0,63162:0:0:0:0:
192,192,63202,128,0,63242:0:0:0:0:
320,192,63283,128,0,63323:0:0:0:0:
448,192,63363,128,0,63403:0:0:0:0:
64,192,63443,128,0,63483:0:0:0:0:
192,192,63523,128,0,63564:0:0:0:0:
448,192,63604,128,0,63644:0:0:0:0:
64,192,63684,1,0,0:0:0:0:
192,192,63684,1,0,0:0:0:0:
448,192,63844,128,0,63885:0:0:0:0:
320,192,63925,128,0,63965:0:0:0:0:
192,192,64005,128,0,64045:0:0:0:0:
64,192,64085,128,0,64125:0:0:0:0:
448,192,64165,128,0,64206:0:0:0:0:
320,192,64246,128,0,64286:0:0:0:0:
64,192,64326,128,0,64366:0:0:0:0:
320,192,64406,128,0,64446:0:0:0:0:
192,192,64486,128,0,64527:0:0:0:0:
64,192,64567,128,0,64607:0:0:0:0:
192,192,64647,1,0,0:0:0:0:
448,192,64647,1,0,0:0:0:0:
64,192,64698,1,0,0:0:0:0:
320,192,64743,1,0,0:0:0:0:
448,192,64793,1,0,0:0:0:0:
448,192,64938,1,0,0:0:0:0:
64,192,64984,1,0,0:0:0:0:
192,192,65034,1,0,0:0:0:0:
320,192,65129,1,0,0:0:0:0:
448,192,65179,1,0,0:0:0:0:
64,192,65225,1,0,0:0:0:0:
320,192,65275,1,0,0:0:0:0:
448,192,65421,1,0,0:0:0:0:
320,192,65466,1,0,0:0:0:0:
64,192,65516,1,0,0:0:0:0:
64,192,65610,1,0,0:0:0:0:
192,192,65610,1,0,0:0:0:0:
448,192,65656,1,0,0:0:0:0:
192,192,65700,1,0,0:0:0:0:
64,192,65746,1,0,0:0:0:0:
320,192,65791,1,0,0:0:0:0:
192,192,65851,1,0,0:0:0:0:
448,192,65957,1,0,0:0:0:0:
320,192,66001,1,0,0:0:0:0:
192,192,66047,1,0,0:0:0:0:
64,192,66092,1,0,0:0:0:0:
448,192,66143,1,0,0:0:0:0:
320,192,66188,1,0,0:0:0:0:
192,192,66238,1,0,0:0:0:0:
320,192,66283,1,0,0:0:0:0:
192,192,66332,1,0,0:0:0:0:
64,192,66383,1,0,0:0:0:0:
448,192,66428,1,0,0:0:0:0:
320,192,66478,1,0,0:0:0:0:
192,192,66523,1,0,0:0:0:0:
64,192,66573,1,0,0:0:0:0:
448,192,66573,128,0,66934:0:0:0:0:
64,192,66814,1,0,0:0:0:0:
192,192,66934,128,0,67295:0:0:0:0:
320,192,67055,1,0,0:0:0:0:
64,192,67295,128,0,67536:0:0:0:0:
320,192,67536,128,0,67897:0:0:0:0:
448,192,67536,1,0,0:0:0:0:
192,192,67777,1,0,0:0:0:0:
448,192,67897,128,0,68379:0:0:0:0:
64,192,68018,1,0,0:0:0:0:
64,192,68259,1,0,0:0:0:0:
64,192,68499,1,0,0:0:0:0:
448,192,68499,1,0,0:0:0:0:
192,192,68539,1,0,0:0:0:0:
448,192,68580,1,0,0:0:0:0:
320,192,68981,1,0,0:0:0:0:
192,192,69021,1,0,0:0:0:0:
320,192,69061,1,0,0:0:0:0:
320,192,69462,1,0,0:0:0:0:
448,192,69462,1,0,0:0:0:0:
192,192,69503,1,0,0:0:0:0:
448,192,69543,1,0,0:0:0:0:
64,192,69583,1,0,0:0:0:0:
192,192,69623,1,0,0:0:0:0:
320,192,69663,1,0,0:0:0:0:
64,192,69703,1,0,0:0:0:0:
320,192,69743,1,0,0:0:0:0:
448,192,69783,1,0,0:0:0:0:
192,192,69824,1,0,0:0:0:0:
320,192,69864,1,0,0:0:0:0:
64,192,69904,1,0,0:0:0:0:
192,192,69944,1,0,0:0:0:0:
320,192,69984,1,0,0:0:0:0:
448,192,70024,1,0,0:0:0:0:
192,192,70064,1,0,0:0:0:0:
320,192,70104,1,0,0:0:0:0:
64,192,70145,1,0,0:0:0:0:
320,192,70185,1,0,0:0:0:0:
448,192,70225,1,0,0:0:0:0:
64,192,70265,1,0,0:0:0:0:
192,192,70305,1,0,0:0:0:0:
448,192,70345,1,0,0:0:0:0:
320,192,70385,1,0,0:0:0:0:
64,192,70425,1,0,0:0:0:0:
448,192,70425,1,0,0:0:0:0:
192,192,70471,1,0,0:0:0:0:
320,192,70516,1,0,0:0:0:0:
64,192,70562,1,0,0:0:0:0:
320,192,70606,1,0,0:0:0:0:
448,192,70652,1,0,0:0:0:0:
192,192,70696,1,0,0:0:0:0:
320,192,70742,1,0,0:0:0:0:
64,192,70787,1,0,0:0:0:0:
192,192,70833,1,0,0:0:0:0:
320,192,70877,1,0,0:0:0:0:
448,192,70923,1,0,0:0:0:0:
64,192,70967,1,0,0:0:0:0:
192,192,71013,1,0,0:0:0:0:
320,192,71057,1,0,0:0:0:0:
192,192,71103,1,0,0:0:0:0:
320,192,71148,1,0,0:0:0:0:
448,192,71193,1,0,0:0:0:0:
64,192,71238,1,0,0:0:0:0:
192,192,71284,1,0,0:0:0:0:
320,192,71328,1,0,0:0:0:0:
448,192,71374,1,0,0:0:0:0:
64,192,71389,1,0,0:0:0:0:
192,192,71389,1,0,0:0:0:0:
320,192,71429,1,0,0:0:0:0:
192,192,71469,1,0,0:0:0:0:
448,192,71509,1,0,0:0:0:0:
320,192,71549,1,0,0:0:0:0:
64,192,71589,1,0,0:0:0:0:
448,192,71629,1,0,0:0:0:0:
192,192,71669,1,0,0:0:0:0:
64,192,71710,1,0,0:0:0:0:
320,192,71750,1,0,0:0:0:0:
192,192,71790,1,0,0:0:0:0:
448,192,71830,1,0,0:0:0:0:
320,192,71870,1,0,0:0:0:0:
192,192,71910,1,0,0:0:0:0:
64,192,71950,1,0,0:0:0:0:
320,192,71990,1,0,0:0:0:0:
192,192,72031,1,0,0:0:0:0:
448,192,72071,1,0,0:0:0:0:
192,192,72111,1,0,0:0:0:0:
64,192,72151,1,0,0:0:0:0:
448,192,72191,1,0,0:0:0:0:
320,192,72231,1,0,0:0:0:0:
64,192,72271,1,0,0:0:0:0:
192,192,72312,1,0,0:0:0:0:
64,192,72352,1,0,0:0:0:0:
448,192,72352,1,0,0:0:0:0:
320,192,72398,1,0,0:0:0:0:
192,192,72442,1,0,0:0:0:0:
448,192,72488,1,0,0:0:0:0:
192,192,72532,1,0,0:0:0:0:
64,192,72578,1,0,0:0:0:0:
320,192,72623,1,0,0:0:0:0:
192,192,72668,1,0,0:0:0:0:
448,192,72713,1,0,0:0:0:0:
320,192,72758,1,0,0:0:0:0:
192,192,72803,1,0,0:0:0:0:
64,192,72833,128,0,73315:0:0:0:0:
320,192,73074,1,0,0:0:0:0:
320,192,73315,1,0,0:0:0:0:
448,192,73315,1,0,0:0:0:0:
192,192,73355,1,0,0:0:0:0:
448,192,73395,1,0,0:0:0:0:
64,192,73435,1,0,0:0:0:0:
192,192,73475,1,0,0:0:0:0:
320,192,73515,1,0,0:0:0:0:
64,192,73555,1,0,0:0:0:0:
320,192,73596,1,0,0:0:0:0:
448,192,73636,1,0,0:0:0:0:
192,192,73676,1,0,0:0:0:0:
320,192,73716,1,0,0:0:0:0:
64,192,73756,1,0,0:0:0:0:
192,192,73796,1,0,0:0:0:0:
320,192,73836,1,0,0:0:0:0:
448,192,73877,1,0,0:0:0:0:
192,192,73917,1,0,0:0:0:0:
320,192,73957,1,0,0:0:0:0:
64,192,73997,1,0,0:0:0:0:
320,192,74037,1,0,0:0:0:0:
448,192,74077,1,0,0:0:0:0:
64,192,74117,1,0,0:0:0:0:
192,192,74157,1,0,0:0:0:0:
448,192,74198,1,0,0:0:0:0:
320,192,74238,1,0,0:0:0:0:
64,192,74278,1,0,0:0:0:0:
448,192,74278,1,0,0:0:0:0:
192,192,74323,1,0,0:0:0:0:
320,192,74368,1,0,0:0:0:0:
64,192,74414,1,0,0:0:0:0:
320,192,74458,1,0,0:0:0:0:
448,192,74504,1,0,0:0:0:0:
192,192,74549,1,0,0:0:0:0:
320,192,74595,1,0,0:0:0:0:
64,192,74639,1,0,0:0:0:0:
192,192,74685,1,0,0:0:0:0:
320,192,74729,1,0,0:0:0:0:
448,192,74775,1,0,0:0:0:0:
64,192,74820,1,0,0:0:0:0:
192,192,74866,1,0,0:0:0:0:
320,192,74910,1,0,0:0:0:0:
192,192,74956,1,0,0:0:0:0:
320,192,75000,1,0,0:0:0:0:
448,192,75046,1,0,0:0:0:0:
64,192,75090,1,0,0:0:0:0:
192,192,75136,1,0,0:0:0:0:
320,192,75181,1,0,0:0:0:0:
448,192,75226,1,0,0:0:0:0:
64,192,75241,1,0,0:0:0:0:
192,192,75241,1,0,0:0:0:0:
320,192,75281,1,0,0:0:0:0:
192,192,75321,1,0,0:0:0:0:
448,192,75361,1,0,0:0:0:0:
320,192,75401,1,0,0:0:0:0:
64,192,75442,1,0,0:0:0:0:
448,192,75482,1,0,0:0:0:0:
192,192,75522,1,0,0:0:0:0:
64,192,75562,1,0,0:0:0:0:
320,192,75602,1,0,0:0:0:0:
192,192,75642,1,0,0:0:0:0:
448,192,75682,1,0,0:0:0:0:
320,192,75722,1,0,0:0:0:0:
192,192,75763,1,0,0:0:0:0:
64,192,75803,1,0,0:0:0:0:
320,192,75843,1,0,0:0:0:0:
192,192,75883,1,0,0:0:0:0:
448,192,75923,1,0,0:0:0:0:
192,192,75963,1,0,0:0:0:0:
64,192,76003,1,0,0:0:0:0:
448,192,76043,1,0,0:0:0:0:
320,192,76084,1,0,0:0:0:0:
64,192,76124,1,0,0:0:0:0:
192,192,76164,1,0,0:0:0:0:
64,192,76204,1,0,0:0:0:0:
448,192,76204,1,0,0:0:0:0:
320,192,76250,1,0,0:0:0:0:
192,192,76294,1,0,0:0:0:0:
64,192,76340,1,0,0:0:0:0:
448,192,76385,1,0,0:0:0:0:
320,192,76431,1,0,0:0:0:0:
192,192,76475,1,0,0:0:0:0:
64,192,76521,1,0,0:0:0:0:
448,192,76565,1,0,0:0:0:0:
320,192,76611,1,0,0:0:0:0:
192,192,76655,1,0,0:0:0:0:
64,192,76701,1,0,0:0:0:0:
448,192,76746,1,0,0:0:0:0:
320,192,76791,1,0,0:0:0:0:
64,192,76846,128,0,76886:0:0:0:0:
192,192,76886,128,0,76926:0:0:0:0:
320,192,76926,128,0,76966:0:0:0:0:
448,192,76966,128,0,77007:0:0:0:0:
64,192,77007,128,0,77047:0:0:0:0:
192,192,77047,128,0,77087:0:0:0:0:
320,192,77087,128,0,77127:0:0:0:0:
448,192,77127,128,0,77167:0:0:0:0:
64,192,77167,1,0,0:0:0:0:
192,192,77167,1,0,0:0:0:0:
192,192,77408,1,0,0:0:0:0:
448,192,77659,1,0,0:0:0:0:
192,192,77780,1,0,0:0:0:0:
320,192,77900,1,0,0:0:0:0:
192,192,78021,1,0,0:0:0:0:
64,192,78130,1,0,0:0:0:0:
448,192,78130,1,0,0:0:0:0:
320,192,78181,1,0,0:0:0:0:
192,192,78231,1,0,0:0:0:0:
64,192,78281,1,0,0:0:0:0:
448,192,78331,1,0,0:0:0:0:
320,192,78371,1,0,0:0:0:0:
448,192,78612,1,0,0:0:0:0:
448,192,78852,1,0,0:0:0:0:
320,192,79093,1,0,0:0:0:0:
448,192,79093,1,0,0:0:0:0:
320,192,79334,1,0,0:0:0:0:
192,192,79575,1,0,0:0:0:0:
64,192,79826,1,0,0:0:0:0:
64,192,80056,1,0,0:0:0:0:
448,192,80056,1,0,0:0:0:0:
192,192,80116,1,0,0:0:0:0:
320,192,80177,1,0,0:0:0:0:
64,192,80237,1,0,0:0:0:0:
192,192,80297,1,0,0:0:0:0:
320,192,80337,1,0,0:0:0:0:
448,192,80387,1,0,0:0:0:0:
192,192,80438,1,0,0:0:0:0:
320,192,80488,1,0,0:0:0:0:
64,192,80538,1,0,0:0:0:0:
192,192,80598,1,0,0:0:0:0:
320,192,80658,1,0,0:0:0:0:
448,192,80718,1,0,0:0:0:0:
192,192,80779,1,0,0:0:0:0:
64,192,80819,1,0,0:0:0:0:
448,192,80859,1,0,0:0:0:0:
320,192,80899,1,0,0:0:0:0:
192,192,80959,1,0,0:0:0:0:
320,192,81019,1,0,0:0:0:0:
448,192,81019,1,0,0:0:0:0:
192,192,81060,1,0,0:0:0:0:
64,192,81100,1,0,0:0:0:0:
448,192,81140,1,0,0:0:0:0:
320,192,81200,1,0,0:0:0:0:
192,192,81260,1,0,0:0:0:0:
64,192,81320,1,0,0:0:0:0:
192,192,81381,1,0,0:0:0:0:
320,192,81501,1,0,0:0:0:0:
448,192,81552,1,0,0:0:0:0:
192,192,81602,1,0,0:0:0:0:
64,192,81651,1,0,0:0:0:0:
448,192,81742,1,0,0:0:0:0:
320,192,81793,1,0,0:0:0:0:
64,192,81843,1,0,0:0:0:0:
320,192,81892,1,0,0:0:0:0:
192,192,81933,1,0,0:0:0:0:
64,192,81982,1,0,0:0:0:0:
448,192,81982,1,0,0:0:0:0:
320,192,82063,1,0,0:0:0:0:
192,192,82143,1,0,0:0:0:0:
320,192,82223,1,0,0:0:0:0:
64,192,82303,1,0,0:0:0:0:
448,192,82464,1,0,0:0:0:0:
448,192,82705,1,0,0:0:0:0:
64,192,82946,1,0,0:0:0:0:
192,192,82946,1,0,0:0:0:0:
320,192,83186,1,0,0:0:0:0:
192,192,83427,1,0,0:0:0:0:
64,192,83668,1,0,0:0:0:0:
64,192,83909,1,0,0:0:0:0:
448,192,83909,1,0,0:0:0:0:
320,192,83949,1,0,0:0:0:0:
192,192,83989,1,0,0:0:0:0:
64,192,84029,1,0,0:0:0:0:
192,192,84149,1,0,0:0:0:0:
320,192,84201,1,0,0:0:0:0:
448,192,84251,1,0,0:0:0:0:
192,192,84291,1,0,0:0:0:0:
64,192,84330,1,0,0:0:0:0:
448,192,84390,1,0,0:0:0:0:
192,192,84430,1,0,0:0:0:0:
320,192,84470,1,0,0:0:0:0:
448,192,84511,1,0,0:0:0:0:
64,192,84551,1,0,0:0:0:0:
320,192,84631,1,0,0:0:0:0:
448,192,84671,1,0,0:0:0:0:
192,192,84711,1,0,0:0:0:0:
320,192,84751,1,0,0:0:0:0:
448,192,84832,1,0,0:0:0:0:
64,192,84872,1,0,0:0:0:0:
192,192,84872,1,0,0:0:0:0:
320,192,84912,1,0,0:0:0:0:
448,192,84952,1,0,0:0:0:0:
64,192,84992,1,0,0:0:0:0:
320,192,85032,1,0,0:0:0:0:
448,192,85072,1,0,0:0:0:0:
192,192,85112,1,0,0:0:0:0:
64,192,85163,1,0,0:0:0:0:
448,192,85213,1,0,0:0:0:0:
320,192,85263,1,0,0:0:0:0:
192,192,85313,1,0,0:0:0:0:
448,192,85353,1,0,0:0:0:0:
64,192,85434,1,0,0:0:0:0:
192,192,85514,1,0,0:0:0:0:
448,192,85594,1,0,0:0:0:0:
320,192,85645,1,0,0:0:0:0:
64,192,85695,1,0,0:0:0:0:
320,192,85744,1,0,0:0:0:0:
192,192,85795,1,0,0:0:0:0:
64,192,85835,1,0,0:0:0:0:
448,192,85835,1,0,0:0:0:0:
320,192,85886,1,0,0:0:0:0:
192,192,85936,1,0,0:0:0:0:
64,192,85985,1,0,0:0:0:0:
192,192,86076,1,0,0:0:0:0:
192,192,86316,1,0,0:0:0:0:
64,192,86557,1,0,0:0:0:0:
64,192,86798,1,0,0:0:0:0:
192,192,86798,1,0,0:0:0:0:
448,192,87039,1,0,0:0:0:0:
64,192,87279,1,0,0:0:0:0:
320,192,87520,1,0,0:0:0:0:
64,192,87761,1,0,0:0:0:0:
448,192,87761,1,0,0:0:0:0:
320,192,87801,1,0,0:0:0:0:
192,192,87841,1,0,0:0:0:0:
64,192,87881,1,0,0:0:0:0:
192,192,88002,1,0,0:0:0:0:
320,192,88053,1,0,0:0:0:0:
448,192,88103,1,0,0:0:0:0:
64,192,88143,1,0,0:0:0:0:
192,192,88182,1,0,0:0:0:0:
448,192,88242,1,0,0:0:0:0:
320,192,88283,1,0,0:0:0:0:
192,192,88323,1,0,0:0:0:0:
64,192,88363,1,0,0:0:0:0:
320,192,88423,1,0,0:0:0:0:
64,192,88483,1,0,0:0:0:0:
192,192,88523,1,0,0:0:0:0:
320,192,88564,1,0,0:0:0:0:
448,192,88604,1,0,0:0:0:0:
192,192,88684,1,0,0:0:0:0:
320,192,88724,1,0,0:0:0:0:
448,192,88724,1,0,0:0:0:0:
64,192,88764,1,0,0:0:0:0:
192,192,88804,1,0,0:0:0:0:
320,192,88844,1,0,0:0:0:0:
448,192,88885,1,0,0:0:0:0:
64,192,88925,1,0,0:0:0:0:
320,192,88965,1,0,0:0:0:0:
448,192,89016,1,0,0:0:0:0:
192,192,89066,1,0,0:0:0:0:
64,192,89115,1,0,0:0:0:0:
320,192,89165,1,0,0:0:0:0:
192,192,89206,1,0,0:0:0:0:
192,192,89446,1,0,0:0:0:0:
64,192,89687,1,0,0:0:0:0:
448,192,89687,1,0,0:0:0:0:
192,192,89928,1,0,0:0:0:0:
448,192,90169,1,0,0:0:0:0:
64,192,90409,1,0,0:0:0:0:
320,192,90650,1,0,0:0:0:0:
448,192,90650,1,0,0:0:0:0:
64,192,90891,1,0,0:0:0:0:
192,192,91132,1,0,0:0:0:0:
320,192,91373,1,0,0:0:0:0:
64,192,91613,1,0,0:0:0:0:
448,192,91613,1,0,0:0:0:0:
448,192,91854,1,0,0:0:0:0:
64,192,92336,1,0,0:0:0:0:
64,192,92576,1,0,0:0:0:0:
192,192,92576,1,0,0:0:0:0:
64,192,92817,1,0,0:0:0:0:
192,192,93058,1,0,0:0:0:0:
320,192,93299,1,0,0:0:0:0:
64,192,93539,1,0,0:0:0:0:
448,192,93539,1,0,0:0:0:0:
320,192,93591,1,0,0:0:0:0:
192,192,93630,1,0,0:0:0:0:
64,192,93671,1,0,0:0:0:0:
192,192,93780,1,0,0:0:0:0:
448,192,93911,1,0,0:0:0:0:
320,192,94021,1,0,0:0:0:0:
320,192,94262,1,0,0:0:0:0:
448,192,94313,1,0,0:0:0:0:
192,192,94363,1,0,0:0:0:0:
64,192,94433,1,0,0:0:0:0:
320,192,94503,1,0,0:0:0:0:
448,192,94503,1,0,0:0:0:0:
192,192,94563,1,0,0:0:0:0:
64,192,94623,1,0,0:0:0:0:
448,192,94683,1,0,0:0:0:0:
192,192,94743,1,0,0:0:0:0:
320,192,94783,1,0,0:0:0:0:
448,192,94824,1,0,0:0:0:0:
64,192,94864,1,0,0:0:0:0:
320,192,94904,1,0,0:0:0:0:
192,192,94984,1,0,0:0:0:0:
320,192,95104,1,0,0:0:0:0:
448,192,95225,1,0,0:0:0:0:
192,192,95276,1,0,0:0:0:0:
64,192,95326,1,0,0:0:0:0:
320,192,95385,1,0,0:0:0:0:
64,192,95466,1,0,0:0:0:0:
448,192,95466,1,0,0:0:0:0:
192,192,95516,1,0,0:0:0:0:
320,192,95556,1,0,0:0:0:0:
448,192,95646,1,0,0:0:0:0:
320,192,95736,1,0,0:0:0:0:
192,192,95778,1,0,0:0:0:0:
64,192,95827,1,0,0:0:0:0:
448,192,95887,1,0,0:0:0:0:
64,192,95977,1,0,0:0:0:0:
320,192,96018,1,0,0:0:0:0:
448,192,96068,1,0,0:0:0:0:
192,192,96128,1,0,0:0:0:0:
448,192,96248,1,0,0:0:0:0:
320,192,96289,1,0,0:0:0:0:
64,192,96338,1,0,0:0:0:0:
320,192,96429,1,0,0:0:0:0:
448,192,96429,1,0,0:0:0:0:
64,192,96549,1,0,0:0:0:0:
192,192,96600,1,0,0:0:0:0:
448,192,96650,1,0,0:0:0:0:
320,192,96700,1,0,0:0:0:0:
192,192,96750,1,0,0:0:0:0:
320,192,96811,1,0,0:0:0:0:
64,192,96861,1,0,0:0:0:0:
448,192,96910,1,0,0:0:0:0:
320,192,96961,1,0,0:0:0:0:
192,192,97011,1,0,0:0:0:0:
64,192,97061,1,0,0:0:0:0:
320,192,97111,1,0,0:0:0:0:
192,192,97162,1,0,0:0:0:0:
64,192,97202,1,0,0:0:0:0:
448,192,97252,1,0,0:0:0:0:
320,192,97301,1,0,0:0:0:0:
192,192,97352,1,0,0:0:0:0:
64,192,97392,1,0,0:0:0:0:
448,192,97392,1,0,0:0:0:0:
320,192,97633,1,0,0:0:0:0:
192,192,97873,1,0,0:0:0:0:
320,192,97924,1,0,0:0:0:0:
448,192,97974,1,0,0:0:0:0:
192,192,98024,1,0,0:0:0:0:
448,192,98074,1,0,0:0:0:0:
320,192,98144,1,0,0:0:0:0:
192,192,98194,1,0,0:0:0:0:
64,192,98246,1,0,0:0:0:0:
320,192,98286,1,0,0:0:0:0:
64,192,98355,1,0,0:0:0:0:
192,192,98355,1,0,0:0:0:0:
64,192,98596,1,0,0:0:0:0:
192,192,98836,1,0,0:0:0:0:
320,192,99077,1,0,0:0:0:0:
64,192,99318,1,0,0:0:0:0:
448,192,99318,1,0,0:0:0:0:
192,192,99570,1,0,0:0:0:0:
320,192,99690,1,0,0:0:0:0:
64,192,99811,1,0,0:0:0:0:
320,192,99931,1,0,0:0:0:0:
448,192,100051,1,0,0:0:0:0:
64,192,100292,1,0,0:0:0:0:
192,192,100292,1,0,0:0:0:0:
320,192,100321,1,0,0:0:0:0:
320,192,100533,1,0,0:0:0:0:
192,192,100653,1,0,0:0:0:0:
448,192,100773,1,0,0:0:0:0:
192,192,100893,1,0,0:0:0:0:
64,192,101014,1,0,0:0:0:0:
64,192,101244,1,0,0:0:0:0:
448,192,101244,1,0,0:0:0:0:
320,192,101496,1,0,0:0:0:0:
64,192,101616,1,0,0:0:0:0:
448,192,101736,1,0,0:0:0:0:
64,192,101857,1,0,0:0:0:0:
192,192,101977,1,0,0:0:0:0:
320,192,102218,1,0,0:0:0:0:
448,192,102218,1,0,0:0:0:0:
192,192,102247,1,0,0:0:0:0:
192,192,102458,1,0,0:0:0:0:
448,192,102579,1,0,0:0:0:0:
64,192,102700,1,0,0:0:0:0:
448,192,102820,1,0,0:0:0:0:
320,192,102941,1,0,0:0:0:0:
64,192,103170,1,0,0:0:0:0:
448,192,103170,1,0,0:0:0:0:
192,192,103422,1,0,0:0:0:0:
320,192,103542,1,0,0:0:0:0:
192,192,103663,1,0,0:0:0:0:
64,192,103903,1,0,0:0:0:0:
64,192,104144,1,0,0:0:0:0:
192,192,104144,1,0,0:0:0:0:
320,192,104294,128,0,104334:0:0:0:0:
192,192,104374,128,0,104414:0:0:0:0:
320,192,104454,128,0,104494:0:0:0:0:
320,192,104615,128,0,104655:0:0:0:0:
448,192,104695,128,0,104735:0:0:0:0:
64,192,104775,128,0,104816:0:0:0:0:
192,192,104856,128,0,104896:0:0:0:0:
64,192,104936,128,0,104976:0:0:0:0:
320,192,105016,128,0,105056:0:0:0:0:
192,192,105096,1,0,0:0:0:0:
448,192,105096,1,0,0:0:0:0:
64,192,105177,128,0,105217:0:0:0:0:
192,192,105257,128,0,105297:0:0:0:0:
448,192,105337,128,0,105377:0:0:0:0:
320,192,105417,128,0,105458:0:0:0:0:
192,192,105498,128,0,105538:0:0:0:0:
64,192,105578,128,0,105618:0:0:0:0:
448,192,105658,128,0,105698:0:0:0:0:
192,192,105738,128,0,105779:0:0:0:0:
64,192,105819,128,0,105859:0:0:0:0:
320,192,105899,128,0,105939:0:0:0:0:
448,192,107274,1,0,0:0:0:0:
320,192,107395,1,0,0:0:0:0:
64,192,107464,1,0,0:0:0:0:
192,192,107485,1,0,0:0:0:0:
64,192,107584,1,0,0:0:0:0:
192,192,107606,1,0,0:0:0:0:
448,192,107705,1,0,0:0:0:0:
320,192,107726,1,0,0:0:0:0:
64,192,107766,1,0,0:0:0:0:
192,192,107785,1,0,0:0:0:0:
448,192,107825,1,0,0:0:0:0:
320,192,107846,1,0,0:0:0:0:
64,192,107986,128,0,108026:0:0:0:0:
320,192,107986,1,0,0:0:0:0:
448,192,107986,1,0,0:0:0:0:
192,192,108066,128,0,108106:0:0:0:0:
320,192,108146,128,0,108186:0:0:0:0:
64,192,108226,128,0,108267:0:0:0:0:
192,192,108307,128,0,108347:0:0:0:0:
320,192,108387,128,0,108427:0:0:0:0:
448,192,108467,128,0,108507:0:0:0:0:
192,192,108547,128,0,108588:0:0:0:0:
320,192,108628,128,0,108668:0:0:0:0:
448,192,108708,128,0,108748:0:0:0:0:
64,192,108788,128,0,108828:0:0:0:0:
192,192,108868,128,0,108909:0:0:0:0:
64,192,108949,1,0,0:0:0:0:
448,192,108949,1,0,0:0:0:0:
192,192,109029,128,0,109069:0:0:0:0:
320,192,109109,128,0,109149:0:0:0:0:
448,192,109190,128,0,109230:0:0:0:0:
192,192,109350,128,0,109390:0:0:0:0:
64,192,109430,128,0,109470:0:0:0:0:
192,192,109511,128,0,109551:0:0:0:0:
320,192,109591,128,0,109631:0:0:0:0:
448,192,109671,128,0,109711:0:0:0:0:
64,192,109751,128,0,109791:0:0:0:0:
192,192,109832,128,0,109872:0:0:0:0:
320,192,109912,1,0,0:0:0:0:
448,192,109912,1,0,0:0:0:0:
64,192,109952,1,0,0:0:0:0:
448,192,109992,1,0,0:0:0:0:
320,192,110032,1,0,0:0:0:0:
192,192,110072,1,0,0:0:0:0:
64,192,110153,1,0,0:0:0:0:
320,192,110213,1,0,0:0:0:0:
64,192,110273,1,0,0:0:0:0:
192,192,110313,1,0,0:0:0:0:
320,192,110393,1,0,0:0:0:0:
64,192,110434,1,0,0:0:0:0:
320,192,110474,1,0,0:0:0:0:
448,192,110514,1,0,0:0:0:0:
192,192,110554,1,0,0:0:0:0:
64,192,110634,1,0,0:0:0:0:
320,192,110694,1,0,0:0:0:0:
448,192,110755,1,0,0:0:0:0:
320,192,110795,1,0,0:0:0:0:
64,192,110875,1,0,0:0:0:0:
448,192,110875,1,0,0:0:0:0:
192,192,110915,1,0,0:0:0:0:
448,192,110955,1,0,0:0:0:0:
320,192,110995,1,0,0:0:0:0:
192,192,111035,1,0,0:0:0:0:
320,192,111116,1,0,0:0:0:0:
448,192,111236,1,0,0:0:0:0:
320,192,111276,1,0,0:0:0:0:
64,192,111356,1,0,0:0:0:0:
320,192,111397,1,0,0:0:0:0:
64,192,111437,1,0,0:0:0:0:
192,192,111477,1,0,0:0:0:0:
448,192,111517,1,0,0:0:0:0:
320,192,111597,1,0,0:0:0:0:
64,192,111718,1,0,0:0:0:0:
320,192,111758,1,0,0:0:0:0:
64,192,111838,1,0,0:0:0:0:
192,192,111838,1,0,0:0:0:0:
448,192,111878,1,0,0:0:0:0:
192,192,111918,1,0,0:0:0:0:
64,192,111958,1,0,0:0:0:0:
448,192,111999,1,0,0:0:0:0:
320,192,112039,1,0,0:0:0:0:
192,192,112079,1,0,0:0:0:0:
64,192,112130,1,0,0:0:0:0:
192,192,112175,1,0,0:0:0:0:
448,192,112225,1,0,0:0:0:0:
320,192,112270,1,0,0:0:0:0:
192,192,112320,128,0,112360:0:0:0:0:
320,192,112400,128,0,112440:0:0:0:0:
448,192,112480,128,0,112520:0:0:0:0:
192,192,112560,128,0,112600:0:0:0:0:
320,192,112641,128,0,112681:0:0:0:0:
64,192,112721,128,0,112761:0:0:0:0:
192,192,112801,1,0,0:0:0:0:
448,192,112801,1,0,0:0:0:0:
448,192,113042,1,0,0:0:0:0:
192,192,113202,128,0,113242:0:0:0:0:
64,192,113283,128,0,113323:0:0:0:0:
192,192,113363,128,0,113403:0:0:0:0:
320,192,113523,1,0,0:0:0:0:
64,192,113764,1,0,0:0:0:0:
192,192,113764,1,0,0:0:0:0:
448,192,113804,1,0,0:0:0:0:
320,192,113844,1,0,0:0:0:0:
192,192,113885,1,0,0:0:0:0:
448,192,113925,1,0,0:0:0:0:
320,192,114005,1,0,0:0:0:0:
448,192,114065,1,0,0:0:0:0:
64,192,114125,1,0,0:0:0:0:
192,192,114165,1,0,0:0:0:0:
320,192,114246,1,0,0:0:0:0:
64,192,114286,1,0,0:0:0:0:
320,192,114326,1,0,0:0:0:0:
448,192,114366,1,0,0:0:0:0:
192,192,114406,1,0,0:0:0:0:
64,192,114486,1,0,0:0:0:0:
320,192,114547,1,0,0:0:0:0:
448,192,114607,1,0,0:0:0:0:
320,192,114647,1,0,0:0:0:0:
64,192,114727,1,0,0:0:0:0:
448,192,114727,1,0,0:0:0:0:
320,192,114767,1,0,0:0:0:0:
192,192,114807,1,0,0:0:0:0:
64,192,114848,1,0,0:0:0:0:
320,192,114888,1,0,0:0:0:0:
192,192,114968,1,0,0:0:0:0:
192,192,115088,1,0,0:0:0:0:
64,192,115129,1,0,0:0:0:0:
320,192,115209,1,0,0:0:0:0:
192,192,115245,1,0,0:0:0:0:
64,192,115280,1,0,0:0:0:0:
320,192,115315,1,0,0:0:0:0:
448,192,115350,1,0,0:0:0:0:
192,192,115385,1,0,0:0:0:0:
320,192,115419,1,0,0:0:0:0:
448,192,115450,1,0,0:0:0:0:
448,192,115570,1,0,0:0:0:0:
320,192,115610,1,0,0:0:0:0:
64,192,115690,1,0,0:0:0:0:
192,192,115690,1,0,0:0:0:0:
448,192,115730,1,0,0:0:0:0:
320,192,115771,1,0,0:0:0:0:
192,192,115811,1,0,0:0:0:0:
448,192,115851,1,0,0:0:0:0:
64,192,115891,1,0,0:0:0:0:
320,192,115931,1,0,0:0:0:0:
192,192,115971,1,0,0:0:0:0:
64,192,116011,1,0,0:0:0:0:
448,192,116051,1,0,0:0:0:0:
320,192,116092,1,0,0:0:0:0:
64,192,116132,1,0,0:0:0:0:
192,192,116172,128,0,116212:0:0:0:0:
320,192,116252,128,0,116292:0:0:0:0:
448,192,116332,128,0,116373:0:0:0:0:
192,192,116413,128,0,116453:0:0:0:0:
320,192,116493,128,0,116533:0:0:0:0:
64,192,116573,128,0,116613:0:0:0:0:
192,192,116653,1,0,0:0:0:0:
448,192,116653,1,0,0:0:0:0:
64,192,116734,128,0,116774:0:0:0:0:
192,192,116814,128,0,116854:0:0:0:0:
320,192,116894,128,0,116934:0:0:0:0:
192,192,117055,128,0,117095:0:0:0:0:
64,192,117135,1,0,0:0:0:0:
192,192,117215,128,0,117255:0:0:0:0:
320,192,117295,128,0,117336:0:0:0:0:
448,192,117376,128,0,117416:0:0:0:0:
320,192,117416,1,0,0:0:0:0:
64,192,117456,128,0,117496:0:0:0:0:
192,192,117536,128,0,117576:0:0:0:0:
320,192,117616,1,0,0:0:0:0:
448,192,117668,1,0,0:0:0:0:
192,192,117713,1,0,0:0:0:0:
64,192,117763,1,0,0:0:0:0:
192,192,117857,1,0,0:0:0:0:
448,192,117917,1,0,0:0:0:0:
320,192,117978,1,0,0:0:0:0:
64,192,118003,1,0,0:0:0:0:
64,192,118098,1,0,0:0:0:0:
448,192,118149,1,0,0:0:0:0:
320,192,118194,1,0,0:0:0:0:
192,192,118244,1,0,0:0:0:0:
64,192,118289,1,0,0:0:0:0:
448,192,118339,1,0,0:0:0:0:
320,192,118399,1,0,0:0:0:0:
192,192,118459,1,0,0:0:0:0:
448,192,118485,1,0,0:0:0:0:
64,192,118580,1,0,0:0:0:0:
448,192,118580,1,0,0:0:0:0:
192,192,118631,1,0,0:0:0:0:
320,192,118676,1,0,0:0:0:0:
448,192,118726,1,0,0:0:0:0:
192,192,118771,1,0,0:0:0:0:
320,192,118820,1,0,0:0:0:0:
192,192,118941,1,0,0:0:0:0:
320,192,119061,1,0,0:0:0:0:
448,192,119112,1,0,0:0:0:0:
192,192,119157,1,0,0:0:0:0:
64,192,119208,1,0,0:0:0:0:
320,192,119253,1,0,0:0:0:0:
192,192,119302,1,0,0:0:0:0:
448,192,119422,1,0,0:0:0:0:
320,192,119462,1,0,0:0:0:0:
64,192,119543,1,0,0:0:0:0:
192,192,119543,1,0,0:0:0:0:
320,192,119588,1,0,0:0:0:0:
448,192,119633,1,0,0:0:0:0:
192,192,119679,1,0,0:0:0:0:
64,192,119743,1,0,0:0:0:0:
448,192,119783,1,0,0:0:0:0:
320,192,119829,1,0,0:0:0:0:
64,192,119874,1,0,0:0:0:0:
192,192,119920,1,0,0:0:0:0:
320,192,119964,1,0,0:0:0:0:
448,192,120024,1,0,0:0:0:0:
320,192,120070,1,0,0:0:0:0:
192,192,120114,1,0,0:0:0:0:
64,192,120161,1,0,0:0:0:0:
320,192,120265,1,0,0:0:0:0:
64,192,120506,1,0,0:0:0:0:
448,192,120506,1,0,0:0:0:0:
192,192,120586,128,0,120626:0:0:0:0:
320,192,120666,128,0,120706:0:0:0:0:
64,192,120747,128,0,120787:0:0:0:0:
448,192,120907,128,0,120947:0:0:0:0:
192,192,120987,128,0,121027:0:0:0:0:
64,192,121068,128,0,121108:0:0:0:0:
192,192,121148,128,0,121188:0:0:0:0:
320,192,121228,128,0,121268:0:0:0:0:
448,192,121308,128,0,121348:0:0:0:0:
64,192,121348,1,0,0:0:0:0:
320,192,121389,128,0,121429:0:0:0:0:
64,192,121469,1,0,0:0:0:0:
192,192,121469,1,0,0:0:0:0:
320,192,121515,1,0,0:0:0:0:
448,192,121559,1,0,0:0:0:0:
192,192,121605,1,0,0:0:0:0:
64,192,121669,1,0,0:0:0:0:
448,192,121710,1,0,0:0:0:0:
320,192,121756,1,0,0:0:0:0:
64,192,121800,1,0,0:0:0:0:
192,192,121846,1,0,0:0:0:0:
320,192,121890,1,0,0:0:0:0:
448,192,121950,1,0,0:0:0:0:
320,192,121996,1,0,0:0:0:0:
192,192,122041,1,0,0:0:0:0:
64,192,122086,1,0,0:0:0:0:
320,192,122191,1,0,0:0:0:0:
64,192,122432,1,0,0:0:0:0:
448,192,122432,1,0,0:0:0:0:
320,192,122472,1,0,0:0:0:0:
192,192,122512,1,0,0:0:0:0:
320,192,122913,1,0,0:0:0:0:
192,192,122954,1,0,0:0:0:0:
320,192,122994,1,0,0:0:0:0:
64,192,123275,1,0,0:0:0:0:
320,192,123395,1,0,0:0:0:0:
448,192,123395,1,0,0:0:0:0:
64,192,123435,1,0,0:0:0:0:
192,192,123475,1,0,0:0:0:0:
320,192,123515,1,0,0:0:0:0:
448,192,123555,1,0,0:0:0:0:
192,192,123636,1,0,0:0:0:0:
320,192,123696,1,0,0:0:0:0:
64,192,123756,1,0,0:0:0:0:
448,192,123807,1,0,0:0:0:0:
320,192,123852,1,0,0:0:0:0:
192,192,123903,1,0,0:0:0:0:
64,192,123948,1,0,0:0:0:0:
448,192,123997,1,0,0:0:0:0:
320,192,124057,1,0,0:0:0:0:
64,192,124117,1,0,0:0:0:0:
448,192,124198,1,0,0:0:0:0:
192,192,124278,1,0,0:0:0:0:
64,192,124358,1,0,0:0:0:0:
448,192,124358,1,0,0:0:0:0:
320,192,124438,128,0,124478:0:0:0:0:
64,192,124519,128,0,124559:0:0:0:0:
192,192,124599,128,0,124639:0:0:0:0:
320,192,124679,128,0,124719:0:0:0:0:
448,192,124759,128,0,124799:0:0:0:0:
192,192,124840,128,0,124880:0:0:0:0:
320,192,124920,128,0,124960:0:0:0:0:
448,192,125000,128,0,125040:0:0:0:0:
64,192,125080,128,0,125120:0:0:0:0:
192,192,125161,128,0,125201:0:0:0:0:
448,192,125241,128,0,125281:0:0:0:0:
64,192,125321,1,0,0:0:0:0:
192,192,125321,1,0,0:0:0:0:
448,192,125482,128,0,125522:0:0:0:0:
320,192,125562,128,0,125602:0:0:0:0:
192,192,125642,128,0,125682:0:0:0:0:
64,192,125722,128,0,125763:0:0:0:0:
448,192,125803,128,0,125843:0:0:0:0:
320,192,125883,128,0,125923:0:0:0:0:
64,192,125963,128,0,126003:0:0:0:0:
320,192,126043,128,0,126084:0:0:0:0:
192,192,126124,128,0,126164:0:0:0:0:
64,192,126204,128,0,126244:0:0:0:0:
192,192,126284,1,0,0:0:0:0:
448,192,126284,1,0,0:0:0:0:
64,192,126335,1,0,0:0:0:0:
320,192,126381,1,0,0:0:0:0:
448,192,126431,1,0,0:0:0:0:
448,192,126576,1,0,0:0:0:0:
64,192,126621,1,0,0:0:0:0:
192,192,126671,1,0,0:0:0:0:
320,192,126766,1,0,0:0:0:0:
448,192,126817,1,0,0:0:0:0:
64,192,126862,1,0,0:0:0:0:
320,192,126912,1,0,0:0:0:0:
448,192,127058,1,0,0:0:0:0:
320,192,127103,1,0,0:0:0:0:
64,192,127153,1,0,0:0:0:0:
64,192,127247,1,0,0:0:0:0:
192,192,127247,1,0,0:0:0:0:
448,192,127293,1,0,0:0:0:0:
192,192,127338,1,0,0:0:0:0:
64,192,127383,1,0,0:0:0:0:
320,192,127428,1,0,0:0:0:0:
192,192,127488,1,0,0:0:0:0:
448,192,127594,1,0,0:0:0:0:
320,192,127639,1,0,0:0:0:0:
192,192,127684,1,0,0:0:0:0:
64,192,127729,1,0,0:0:0:0:
448,192,127780,1,0,0:0:0:0:
320,192,127825,1,0,0:0:0:0:
192,192,127875,1,0,0:0:0:0:
320,192,127921,1,0,0:0:0:0:
192,192,127970,1,0,0:0:0:0:
64,192,128021,1,0,0:0:0:0:
448,192,128066,1,0,0:0:0:0:
320,192,128116,1,0,0:0:0:0:
192,192,128161,1,0,0:0:0:0:
64,192,128210,1,0,0:0:0:0:
448,192,128210,128,0,128572:0:0:0:0:
64,192,128451,1,0,0:0:0:0:
192,192,128572,128,0,128933:0:0:0:0:
320,192,128692,1,0,0:0:0:0:
64,192,128933,128,0,129173:0:0:0:0:
320,192,129173,128,0,129535:0:0:0:0:
448,192,129173,1,0,0:0:0:0:
192,192,129414,1,0,0:0:0:0:
448,192,129535,128,0,130016:0:0:0:0:
64,192,129655,1,0,0:0:0:0:
64,192,129896,1,0,0:0:0:0:
64,192,130137,1,0,0:0:0:0:
448,192,130137,1,0,0:0:0:0:
192,192,130177,1,0,0:0:0:0:
448,192,130217,1,0,0:0:0:0:
320,192,130618,1,0,0:0:0:0:
192,192,130658,1,0,0:0:0:0:
320,192,130698,1,0,0:0:0:0:
320,192,131100,1,0,0:0:0:0:
448,192,131100,1,0,0:0:0:0:
192,192,131140,1,0,0:0:0:0:
448,192,131180,1,0,0:0:0:0:
64,192,131220,1,0,0:0:0:0:
192,192,131260,1,0,0:0:0:0:
320,192,131300,1,0,0:0:0:0:
64,192,131340,1,0,0:0:0:0:
320,192,131381,1,0,0:0:0:0:
448,192,131421,1,0,0:0:0:0:
192,192,131461,1,0,0:0:0:0:
320,192,131501,1,0,0:0:0:0:
64,192,131541,1,0,0:0:0:0:
192,192,131581,1,0,0:0:0:0:
320,192,131621,1,0,0:0:0:0:
448,192,131661,1,0,0:0:0:0:
192,192,131702,1,0,0:0:0:0:
320,192,131742,1,0,0:0:0:0:
64,192,131782,1,0,0:0:0:0:
320,192,131822,1,0,0:0:0:0:
448,192,131862,1,0,0:0:0:0:
64,192,131902,1,0,0:0:0:0:
192,192,131942,1,0,0:0:0:0:
448,192,131982,1,0,0:0:0:0:
320,192,132023,1,0,0:0:0:0:
64,192,132063,1,0,0:0:0:0:
448,192,132063,1,0,0:0:0:0:
192,192,132108,1,0,0:0:0:0:
320,192,132153,1,0,0:0:0:0:
64,192,132199,1,0,0:0:0:0:
320,192,132243,1,0,0:0:0:0:
448,192,132289,1,0,0:0:0:0:
192,192,132334,1,0,0:0:0:0:
320,192,132380,1,0,0:0:0:0:
64,192,132424,1,0,0:0:0:0:
192,192,132470,1,0,0:0:0:0:
320,192,132514,1,0,0:0:0:0:
448,192,132560,1,0,0:0:0:0:
64,192,132604,1,0,0:0:0:0:
192,192,132651,1,0,0:0:0:0:
320,192,132695,1,0,0:0:0:0:
192,192,132741,1,0,0:0:0:0:
320,192,132785,1,0,0:0:0:0:
448,192,132831,1,0,0:0:0:0:
64,192,132875,1,0,0:0:0:0:
192,192,132921,1,0,0:0:0:0:
320,192,132966,1,0,0:0:0:0:
448,192,133011,1,0,0:0:0:0:
64,192,133026,1,0,0:0:0:0:
192,192,133026,1,0,0:0:0:0:
320,192,133066,1,0,0:0:0:0:
192,192,133106,1,0,0:0:0:0:
448,192,133146,1,0,0:0:0:0:
320,192,133186,1,0,0:0:0:0:
64,192,133226,1,0,0:0:0:0:
448,192,133267,1,0,0:0:0:0:
192,192,133307,1,0,0:0:0:0:
64,192,133347,1,0,0:0:0:0:
320,192,133387,1,0,0:0:0:0:
192,192,133427,1,0,0:0:0:0:
448,192,133467,1,0,0:0:0:0:
320,192,133507,1,0,0:0:0:0:
192,192,133547,1,0,0:0:0:0:
64,192,133588,1,0,0:0:0:0:
320,192,133628,1,0,0:0:0:0:
192,192,133668,1,0,0:0:0:0:
448,192,133708,1,0,0:0:0:0:
192,192,133748,1,0,0:0:0:0:
64,192,133788,1,0,0:0:0:0:
448,192,133828,1,0,0:0:0:0:
320,192,133868,1,0,0:0:0:0:
64,192,133909,1,0,0:0:0:0:
192,192,133949,1,0,0:0:0:0:
64,192,133989,1,0,0:0:0:0:
448,192,133989,1,0,0:0:0:0:
320,192,134035,1,0,0:0:0:0:
192,192,134079,1,0,0:0:0:0:
448,192,134125,1,0,0:0:0:0:
192,192,134169,1,0,0:0:0:0:
64,192,134216,1,0,0:0:0:0:
320,192,134260,1,0,0:0:0:0:
192,192,134306,1,0,0:0:0:0:
448,192,134350,1,0,0:0:0:0:
320,192,134396,1,0,0:0:0:0:
192,192,134440,1,0,0:0:0:0:
64,192,134470,128,0,134511:0:0:0:0:
320,192,134511,128,0,134551:0:0:0:0:
448,192,134551,128,0,134591:0:0:0:0:
64,192,134591,128,0,134631:0:0:0:0:
192,192,134631,128,0,134671:0:0:0:0:
320,192,134671,128,0,134711:0:0:0:0:
448,192,134711,128,0,134751:0:0:0:0:
64,192,134751,128,0,134791:0:0:0:0:
192,192,134791,128,0,134832:0:0:0:0:
320,192,134832,128,0,134872:0:0:0:0:
448,192,134872,128,0,134912:0:0:0:0:
64,192,134912,128,0,134952:0:0:0:0:
320,192,134952,1,0,0:0:0:0:
448,192,134952,1,0,0:0:0:0:
192,192,134992,1,0,0:0:0:0:
320,192,135032,1,0,0:0:0:0:
64,192,135072,1,0,0:0:0:0:
192,192,135112,1,0,0:0:0:0:
320,192,135153,1,0,0:0:0:0:
64,192,135193,1,0,0:0:0:0:
320,192,135233,1,0,0:0:0:0:
448,192,135273,1,0,0:0:0:0:
192,192,135313,1,0,0:0:0:0:
320,192,135353,1,0,0:0:0:0:
64,192,135393,1,0,0:0:0:0:
192,192,135434,1,0,0:0:0:0:
320,192,135474,1,0,0:0:0:0:
448,192,135514,1,0,0:0:0:0:
192,192,135554,1,0,0:0:0:0:
320,192,135594,1,0,0:0:0:0:
64,192,135634,1,0,0:0:0:0:
320,192,135674,1,0,0:0:0:0:
448,192,135714,1,0,0:0:0:0:
64,192,135755,1,0,0:0:0:0:
192,192,135795,1,0,0:0:0:0:
448,192,135835,1,0,0:0:0:0:
320,192,135875,1,0,0:0:0:0:
64,192,135915,1,0,0:0:0:0:
448,192,135915,1,0,0:0:0:0:
192,192,135961,1,0,0:0:0:0:
320,192,136005,1,0,0:0:0:0:
64,192,136051,1,0,0:0:0:0:
320,192,136096,1,0,0:0:0:0:
448,192,136141,1,0,0:0:0:0:
192,192,136186,1,0,0:0:0:0:
320,192,136232,1,0,0:0:0:0:
64,192,136276,1,0,0:0:0:0:
192,192,136322,1,0,0:0:0:0:
320,192,136366,1,0,0:0:0:0:
448,192,136413,1,0,0:0:0:0:
64,192,136457,1,0,0:0:0:0:
192,192,136503,1,0,0:0:0:0:
320,192,136547,1,0,0:0:0:0:
192,192,136593,1,0,0:0:0:0:
320,192,136637,1,0,0:0:0:0:
448,192,136683,1,0,0:0:0:0:
64,192,136728,1,0,0:0:0:0:
192,192,136773,1,0,0:0:0:0:
320,192,136818,1,0,0:0:0:0:
448,192,136864,1,0,0:0:0:0:
64,192,136878,1,0,0:0:0:0:
192,192,136878,1,0,0:0:0:0:
320,192,136918,1,0,0:0:0:0:
192,192,136958,1,0,0:0:0:0:
448,192,136999,1,0,0:0:0:0:
320,192,137039,1,0,0:0:0:0:
64,192,137079,1,0,0:0:0:0:
448,192,137119,1,0,0:0:0:0:
192,192,137159,1,0,0:0:0:0:
64,192,137199,1,0,0:0:0:0:
320,192,137239,1,0,0:0:0:0:
192,192,137279,1,0,0:0:0:0:
448,192,137320,1,0,0:0:0:0:
320,192,137360,1,0,0:0:0:0:
192,192,137400,1,0,0:0:0:0:
64,192,137440,1,0,0:0:0:0:
320,192,137480,1,0,0:0:0:0:
192,192,137520,1,0,0:0:0:0:
448,192,137560,1,0,0:0:0:0:
192,192,137600,1,0,0:0:0:0:
64,192,137641,1,0,0:0:0:0:
448,192,137681,1,0,0:0:0:0:
320,192,137721,1,0,0:0:0:0:
64,192,137761,1,0,0:0:0:0:
192,192,137801,1,0,0:0:0:0:
64,192,137841,1,0,0:0:0:0:
448,192,137841,1,0,0:0:0:0:
192,192,137881,1,0,0:0:0:0:
448,192,137921,1,0,0:0:0:0:
320,192,138323,1,0,0:0:0:0:
192,192,138363,1,0,0:0:0:0:
320,192,138403,1,0,0:0:0:0:
64,192,138804,1,0,0:0:0:0:
192,192,138804,1,0,0:0:0:0:
320,192,138844,1,0,0:0:0:0:
64,192,138885,1,0,0:0:0:0:
448,192,138925,1,0,0:0:0:0:
192,192,138965,1,0,0:0:0:0:
320,192,139005,1,0,0:0:0:0:
64,192,139045,1,0,0:0:0:0:
448,192,139045,1,0,0:0:0:0:
192,192,139085,1,0,0:0:0:0:
320,192,139125,1,0,0:0:0:0:
64,192,139165,1,0,0:0:0:0:
320,192,139206,1,0,0:0:0:0:
448,192,139246,1,0,0:0:0:0:
64,192,139286,1,0,0:0:0:0:
192,192,139286,1,0,0:0:0:0:
320,192,139326,1,0,0:0:0:0:
64,192,139366,1,0,0:0:0:0:
448,192,139406,1,0,0:0:0:0:
192,192,139446,1,0,0:0:0:0:
320,192,139486,1,0,0:0:0:0:
64,192,139527,1,0,0:0:0:0:
448,192,139527,1,0,0:0:0:0:
192,192,139567,1,0,0:0:0:0:
320,192,139607,1,0,0:0:0:0:
64,192,139647,1,0,0:0:0:0:
448,192,139687,1,0,0:0:0:0:
320,192,139727,1,0,0:0:0:0:
64,192,139767,1,0,0:0:0:0:
448,192,139767,1,0,0:0:0:0:
192,192,139813,1,0,0:0:0:0:
320,192,139858,1,0,0:0:0:0:
64,192,139903,1,0,0:0:0:0:
320,192,139948,1,0,0:0:0:0:
448,192,139994,1,0,0:0:0:0:
192,192,140038,1,0,0:0:0:0:
320,192,140084,1,0,0:0:0:0:
64,192,140129,1,0,0:0:0:0:
192,192,140174,1,0,0:0:0:0:
320,192,140219,1,0,0:0:0:0:
448,192,140265,1,0,0:0:0:0:
64,192,140309,1,0,0:0:0:0:
192,192,140355,1,0,0:0:0:0:
320,192,140399,1,0,0:0:0:0:
192,192,140446,1,0,0:0:0:0:
320,192,140490,1,0,0:0:0:0:
448,192,140536,1,0,0:0:0:0:
64,192,140580,1,0,0:0:0:0:
192,192,140626,1,0,0:0:0:0:
320,192,140670,1,0,0:0:0:0:
448,192,140716,1,0,0:0:0:0:
64,192,140730,1,0,0:0:0:0:
192,192,140730,1,0,0:0:0:0:
320,192,140771,1,0,0:0:0:0:
192,192,140811,1,0,0:0:0:0:
448,192,140851,1,0,0:0:0:0:
320,192,140891,1,0,0:0:0:0:
64,192,140931,1,0,0:0:0:0:
448,192,140971,1,0,0:0:0:0:
192,192,141011,1,0,0:0:0:0:
64,192,141051,1,0,0:0:0:0:
320,192,141092,1,0,0:0:0:0:
192,192,141132,1,0,0:0:0:0:
448,192,141172,1,0,0:0:0:0:
320,192,141212,1,0,0:0:0:0:
192,192,141252,1,0,0:0:0:0:
64,192,141292,1,0,0:0:0:0:
320,192,141332,1,0,0:0:0:0:
192,192,141373,1,0,0:0:0:0:
448,192,141413,1,0,0:0:0:0:
192,192,141453,1,0,0:0:0:0:
64,192,141493,1,0,0:0:0:0:
448,192,141533,1,0,0:0:0:0:
320,192,141573,1,0,0:0:0:0:
64,192,141613,1,0,0:0:0:0:
192,192,141653,1,0,0:0:0:0:
64,192,141694,1,0,0:0:0:0:
448,192,141694,1,0,0:0:0:0:
320,192,141739,1,0,0:0:0:0:
192,192,141784,1,0,0:0:0:0:
448,192,141830,1,0,0:0:0:0:
192,192,141874,1,0,0:0:0:0:
64,192,141920,1,0,0:0:0:0:
448,192,141964,1,0,0:0:0:0:
320,192,142011,1,0,0:0:0:0:
192,192,142055,1,0,0:0:0:0:
64,192,142101,1,0,0:0:0:0:
448,192,142145,1,0,0:0:0:0:
64,192,142175,128,0,142215:0:0:0:0:
192,192,142215,128,0,142255:0:0:0:0:
320,192,142255,128,0,142295:0:0:0:0:
448,192,142295,128,0,142336:0:0:0:0:
64,192,142336,128,0,142376:0:0:0:0:
192,192,142376,128,0,142416:0:0:0:0:
320,192,142416,128,0,142456:0:0:0:0:
448,192,142456,128,0,142496:0:0:0:0:
64,192,142496,128,0,142536:0:0:0:0:
192,192,142536,128,0,142576:0:0:0:0:
320,192,142576,128,0,142616:0:0:0:0:
448,192,142616,128,0,142657:0:0:0:0:
64,192,142657,1,0,0:0:0:0:
192,192,142657,1,0,0:0:0:0:
320,192,142697,1,0,0:0:0:0:
64,192,142737,1,0,0:0:0:0:
448,192,142777,1,0,0:0:0:0:
192,192,142817,1,0,0:0:0:0:
320,192,142857,1,0,0:0:0:0:
64,192,142897,1,0,0:0:0:0:
448,192,142897,1,0,0:0:0:0:
192,192,142938,1,0,0:0:0:0:
320,192,142978,1,0,0:0:0:0:
64,192,143018,1,0,0:0:0:0:
320,192,143058,1,0,0:0:0:0:
448,192,143098,1,0,0:0:0:0:
64,192,143138,1,0,0:0:0:0:
192,192,143138,1,0,0:0:0:0:
320,192,143178,1,0,0:0:0:0:
64,192,143218,1,0,0:0:0:0:
448,192,143259,1,0,0:0:0:0:
192,192,143299,1,0,0:0:0:0:
320,192,143339,1,0,0:0:0:0:
64,192,143379,1,0,0:0:0:0:
448,192,143379,1,0,0:0:0:0:
192,192,143419,1,0,0:0:0:0:
320,192,143459,1,0,0:0:0:0:
64,192,143499,1,0,0:0:0:0:
448,192,143539,1,0,0:0:0:0:
320,192,143580,1,0,0:0:0:0:
64,192,143620,1,0,0:0:0:0:
448,192,143620,1,0,0:0:0:0:
192,192,143666,1,0,0:0:0:0:
320,192,143710,1,0,0:0:0:0:
64,192,143756,1,0,0:0:0:0:
320,192,143800,1,0,0:0:0:0:
448,192,143846,1,0,0:0:0:0:
192,192,143891,1,0,0:0:0:0:
320,192,143936,1,0,0:0:0:0:
64,192,143981,1,0,0:0:0:0:
192,192,144027,1,0,0:0:0:0:
320,192,144071,1,0,0:0:0:0:
448,192,144117,1,0,0:0:0:0:
64,192,144161,1,0,0:0:0:0:
192,192,144208,1,0,0:0:0:0:
320,192,144252,1,0,0:0:0:0:
192,192,144298,1,0,0:0:0:0:
320,192,144342,1,0,0:0:0:0:
448,192,144388,1,0,0:0:0:0:
64,192,144432,1,0,0:0:0:0:
192,192,144478,1,0,0:0:0:0:
320,192,144523,1,0,0:0:0:0:
448,192,144568,1,0,0:0:0:0:
64,192,144583,1,0,0:0:0:0:
192,192,144583,1,0,0:0:0:0:
320,192,144623,1,0,0:0:0:0:
192,192,144663,1,0,0:0:0:0:
448,192,144703,1,0,0:0:0:0:
320,192,144743,1,0,0:0:0:0:
64,192,144783,1,0,0:0:0:0:
448,192,144824,1,0,0:0:0:0:
192,192,144864,1,0,0:0:0:0:
64,192,144904,1,0,0:0:0:0:
320,192,144944,1,0,0:0:0:0:
192,192,144984,1,0,0:0:0:0:
448,192,145024,1,0,0:0:0:0:
320,192,145064,1,0,0:0:0:0:
192,192,145104,1,0,0:0:0:0:
64,192,145145,1,0,0:0:0:0:
320,192,145185,1,0,0:0:0:0:
192,192,145225,1,0,0:0:0:0:
448,192,145265,1,0,0:0:0:0:
192,192,145305,1,0,0:0:0:0:
64,192,145345,1,0,0:0:0:0:
448,192,145385,1,0,0:0:0:0:
320,192,145425,1,0,0:0:0:0:
64,192,145466,1,0,0:0:0:0:
192,192,145506,1,0,0:0:0:0:
64,192,145546,1,0,0:0:0:0:
448,192,145546,1,0,0:0:0:0:
320,192,145592,1,0,0:0:0:0:
192,192,145636,1,0,0:0:0:0:
64,192,145682,1,0,0:0:0:0:
448,192,145726,1,0,0:0:0:0:
320,192,145773,1,0,0:0:0:0:
192,192,145817,1,0,0:0:0:0:
64,192,145863,1,0,0:0:0:0:
448,192,145907,1,0,0:0:0:0:
320,192,145953,1,0,0:0:0:0:
192,192,145997,1,0,0:0:0:0:
64,192,146027,128,0,146068:0:0:0:0:
192,192,146068,128,0,146108:0:0:0:0:
320,192,146108,128,0,146148:0:0:0:0:
448,192,146148,128,0,146188:0:0:0:0:
64,192,146188,128,0,146228:0:0:0:0:
192,192,146228,128,0,146268:0:0:0:0:
320,192,146268,128,0,146308:0:0:0:0:
448,192,146308,128,0,146348:0:0:0:0:
64,192,146348,128,0,146389:0:0:0:0:
192,192,146389,128,0,146429:0:0:0:0:
320,192,146429,128,0,146469:0:0:0:0:
448,192,146469,128,0,146509:0:0:0:0:
64,192,146509,1,0,0:0:0:0:
