osu file format v14

[General]
AudioFilename: audio.mp3
AudioLeadIn: 0
PreviewTime: 181962
Countdown: 0
SampleSet: Soft
StackLeniency: 0.2
Mode: 0
LetterboxInBreaks: 0
WidescreenStoryboard: 0

[Editor]
Bookmarks: 21665,188198
DistanceSpacing: 1.9
BeatDivisor: 4
GridSize: 4
TimelineZoom: 1

[Metadata]
Title:SLOW DANCING IN THE DARK
TitleUnicode:SLOW DANCING IN THE DARK
Artist:Joji
ArtistUnicode:Joji
Creator:Mortem
Version:ADVANCED
Source:
Tags:lofi 88rising empire records filthy frank george miller japan ballads 1 Gordon123
BeatmapID:1895517
BeatmapSetID:908354

[Difficulty]
HPDrainRate:5.6
CircleSize:6.2
OverallDifficulty:6.8
ApproachRate:8.2
SliderMultiplier:1.1
SliderTickRate:2

[Events]
//Background and Video events
0,0,"background.jpg",0,0
//Break Periods
//Storyboard Layer 0 (Background)
//Storyboard Layer 1 (Fail)
//Storyboard Layer 2 (Pass)
//Storyboard Layer 3 (Foreground)
//Storyboard Sound Samples

[TimingPoints]
109,674.157303370787,4,2,0,28,1,0

[HitObjects]
439,48,21682,6,0,P|428:87|434:124,1,55
465,239,22356,2,0,P|468:272|466:298,2,54.9999999999999
363,138,23367,1,0,0:0:0:0:
226,96,23704,1,0,0:0:0:0:
226,96,24041,1,0,0:0:0:0:
83,129,24378,6,0,P|91:169|81:200,1,55
10,302,25052,1,0,0:0:0:0:
156,344,25389,1,0,0:0:0:0:
287,286,25726,2,0,P|324:285|356:272,2,54.9999999999999
181,188,26738,1,0,0:0:0:0:
259,68,27075,6,0,P|300:60|358:74,1,82.4999999999999
389,117,27749,2,0,P|383:155|388:180,1,54.9999999999999
492,265,28423,2,0,P|498:227|493:202,1,54.9999999999999
469,70,29097,1,0,0:0:0:0:
469,70,29434,1,0,0:0:0:0:
338,127,29771,6,0,P|278:125|225:226,1,165
158,332,31120,2,0,P|126:308|94:302,1,54.9999999999999
29,187,31794,2,0,P|53:155|57:103,1,82.4999999999999
92,50,32468,6,0,P|141:89|199:85,1,110
322,47,33479,1,0,0:0:0:0:
449,111,33816,1,0,0:0:0:0:
449,111,34153,1,0,0:0:0:0:
341,206,34491,2,0,P|334:240|335:277,1,54.9999999999999
208,330,35165,6,0,P|156:347|74:287,1,165
103,146,36513,2,0,P|109:105|103:82,1,54.9999999999999
248,73,37187,2,0,P|256:119|246:168,1,82.4999999999999
226,221,37861,6,0,P|277:213|341:234,1,110
461,291,38873,1,0,0:0:0:0:
407,158,39210,2,0,P|411:125|409:98,1,54.9999999999999
332,229,39884,2,0,P|328:262|330:289,1,54.9999999999999
407,158,40558,6,0,P|338:119|244:139,1,165
124,186,41906,1,0,0:0:0:0:
124,186,42243,1,0,0:0:0:0:
357,351,42917,1,0,0:0:0:0:
357,351,43255,6,0,P|391:308|376:242,1,110
325,126,44266,1,0,0:0:0:0:
190,175,44603,2,0,P|140:182|114:172,1,54.9999999999999
56,62,45277,2,0,P|106:55|132:65,1,54.9999999999999
246,96,45951,6,0,P|288:107|341:88,1,82.5
393,74,46625,2,0,P|386:112|401:168,1,82.5
426,218,47300,2,0,P|460:215|485:221,2,55
286,248,48311,1,0,0:0:0:0:
160,316,48648,6,0,P|92:326|43:240,1,165
83,117,49996,1,0,0:0:0:0:
205,43,50333,1,0,0:0:0:0:
205,43,50670,1,0,0:0:0:0:
340,88,51007,1,0,0:0:0:0:
444,185,51344,6,0,P|436:224|450:271,1,82.5
395,315,52019,2,0,P|356:307|309:321,1,82.5
251,285,52693,2,0,P|216:294|177:284,1,55
59,253,53367,1,0,0:0:0:0:
59,253,53704,1,0,0:0:0:0:
156,148,54041,6,0,P|231:121|321:171,1,165
430,223,55389,2,0,P|462:220|491:225,2,55
291,260,56401,1,0,0:0:0:0:
153,220,56738,6,0,P|169:164|107:67,1,165
24,180,58086,1,0,0:0:0:0:
83,309,58423,1,0,0:0:0:0:
225,310,58760,2,0,P|271:302|298:306,1,55
416,262,59434,6,0,P|381:248|339:180,1,110
266,67,60446,1,0,0:0:0:0:
142,138,60783,2,0,P|104:128|72:133,1,55
161,251,61457,2,0,P|199:261|231:256,1,55
341,194,62131,5,0,0:0:0:0:
256,192,62300,12,0,64153,0:0:0:0:
183,104,64828,6,0,P|176:74|159:42,2,55
110,227,65839,1,0,0:0:0:0:
206,332,66176,2,0,P|273:323|316:335,1,110
422,241,67187,1,0,0:0:0:0:
382,103,67524,6,0,P|349:84|283:92,1,82.5
241,114,68198,2,0,P|215:127|142:116,1,82.5
113,73,68873,2,0,P|96:100|105:169,1,82.5
112,218,69547,2,0,P|113:258|94:294,1,82.5
145,344,70221,6,0,P|192:320|254:322,1,110
325,199,71232,1,0,0:0:0:0:
437,287,71569,2,0,P|469:298|497:298,2,55
325,199,72580,1,0,0:0:0:0:
244,80,72917,6,0,P|197:68|154:71,1,82.5
96,97,73592,2,0,P|82:132|82:190,1,82.5
124,232,74266,2,0,P|166:246|216:237,1,82.5
260,199,74940,2,0,P|302:212|358:201,1,82.5
397,166,75614,6,0,P|417:212|402:322,1,165
259,335,76962,2,0,P|227:324|188:322,1,55
112,212,77637,2,0,P|144:223|183:225,1,55
279,139,78311,6,0,P|315:127|371:132,1,82.5
422,162,78985,2,0,P|434:198|429:254,1,82.5
384,295,79659,2,0,P|348:307|292:302,1,82.5
241,272,80333,2,0,P|229:236|234:180,1,82.5
182,138,81007,6,0,P|161:197|181:303,1,165
310,349,82356,2,0,P|350:333|377:331,1,55
471,239,83030,2,0,P|431:255|404:257,1,55
293,187,83704,5,0,0:0:0:0:
182,277,84041,1,0,0:0:0:0:
65,193,84378,2,0,P|73:153|62:119,1,55
183,51,85052,2,0,P|243:49|281:64,1,82.5
322,97,85726,2,0,P|382:99|420:84,1,82.5
474,93,86401,6,0,P|459:170|483:261,1,165
377,353,87749,1,0,0:0:0:0:
255,277,88086,1,0,0:0:0:0:
123,333,88423,2,0,P|84:318|53:315,1,55
29,179,89097,6,0,P|74:195|142:99,1,165
269,47,90446,2,0,P|301:36|362:40,2,82.5
146,121,91794,6,0,P|142:163|150:216,1,82.5
178,266,92468,2,0,P|223:252|298:266,1,110
414,320,93479,1,0,0:0:0:0:
482,194,93816,2,0,P|475:161|480:118,1,55
372,40,94491,6,0,P|379:73|374:116,1,55
283,200,95165,2,0,P|276:167|281:124,1,55
195,27,95839,1,0,0:0:0:0:
195,27,96513,1,0,0:0:0:0:
142,184,97187,6,0,P|42:219|200:265,1,412.5
227,219,99884,2,0,P|270:255|396:200,1,192.5
449,179,101232,2,0,P|430:141|435:85,1,82.5
364,71,101906,2,0,P|326:90|270:85,1,82.5
228,48,102580,6,0,B|146:43|76:77|59:161|59:161|114:177|115:231|115:231|153:279|132:318,1,412.5
198,346,105277,2,0,P|229:319|375:324,1,192.5
420,269,106625,2,0,P|390:247|368:194,1,82.5
299,192,107300,2,0,P|277:222|224:244,1,82.5
189,295,107974,6,0,P|150:284|119:286,1,55
27,190,108648,2,0,P|24:157|26:131,2,55
135,283,109659,1,0,0:0:0:0:
282,336,109996,1,0,0:0:0:0:
282,336,110333,1,0,0:0:0:0:
406,266,110670,6,0,P|399:230|409:197,1,55
443,106,111344,1,0,0:0:0:0:
319,48,111681,1,0,0:0:0:0:
208,116,112018,2,0,P|171:117|139:130,2,54.9999999999999
331,196,113030,1,0,0:0:0:0:
253,316,113367,6,0,P|212:324|154:310,1,82.4999999999999
123,267,114041,2,0,P|129:229|124:204,1,54.9999999999999
20,119,114715,2,0,P|14:157|19:182,1,54.9999999999999
43,314,115389,1,0,0:0:0:0:
43,314,115726,1,0,0:0:0:0:
174,257,116063,6,0,P|234:259|287:158,1,165
354,52,117412,2,0,P|386:76|418:82,1,54.9999999999999
483,197,118086,2,0,P|459:229|459:258,1,55
420,334,118592,1,0,0:0:0:0:
420,334,118760,6,0,P|371:295|313:299,1,110
190,337,119771,1,0,0:0:0:0:
63,273,120108,1,0,0:0:0:0:
63,273,120445,1,0,0:0:0:0:
171,178,120783,2,0,P|178:144|177:107,1,54.9999999999999
304,54,121457,6,0,P|356:37|438:97,1,165
409,238,122805,2,0,P|403:279|409:302,1,54.9999999999999
264,316,123479,2,0,P|272:270|262:221,1,82.4999999999999
218,181,124153,6,0,P|167:189|103:168,1,110
23,60,125165,1,0,0:0:0:0:
111,173,125502,2,0,P|107:206|109:233,1,54.9999999999999
207,125,126176,2,0,P|211:92|209:65,1,54.9999999999999
108,227,126850,6,0,P|177:266|271:246,1,165
388,198,128198,1,0,0:0:0:0:
388,198,128535,1,0,0:0:0:0:
155,33,129209,1,0,0:0:0:0:
155,33,129547,6,0,P|121:76|136:142,1,110
187,258,130558,1,0,0:0:0:0:
322,209,130895,2,0,P|372:202|405:214,1,82.5
438,273,131569,2,0,P|399:293|350:287,1,82.5
295,320,132243,6,0,P|253:309|200:328,1,82.5
157,276,132917,2,0,P|164:238|149:182,1,82.5
99,150,133592,2,0,P|65:147|40:153,2,55
226,136,134603,1,0,0:0:0:0:
352,68,134940,6,0,P|420:58|469:144,1,165
429,267,136288,1,0,0:0:0:0:
307,341,136625,1,0,0:0:0:0:
307,341,136962,1,0,0:0:0:0:
172,296,137299,1,0,0:0:0:0:
52,217,137636,6,0,P|60:183|49:148,1,55
12,27,138311,1,0,0:0:0:0:
135,99,138648,1,0,0:0:0:0:
276,80,138985,2,0,P|311:71|350:81,1,55
467,111,139659,1,0,0:0:0:0:
467,111,139996,1,0,0:0:0:0:
375,220,140333,6,0,P|300:247|210:197,1,165
96,152,141681,2,0,P|64:155|35:150,2,55
221,124,142693,1,0,0:0:0:0:
359,164,143030,6,0,P|343:220|405:317,1,165
488,204,144378,1,0,0:0:0:0:
429,75,144715,1,0,0:0:0:0:
287,74,145052,2,0,P|241:82|214:78,1,55
95,40,145726,5,0,0:0:0:0:
256,192,145895,12,0,148423,0:0:0:0:
329,280,151120,6,0,P|336:310|353:342,2,55
402,157,152131,1,0,0:0:0:0:
306,52,152468,2,0,P|239:61|196:49,1,110
90,143,153479,1,0,0:0:0:0:
130,281,153816,6,0,P|163:300|229:292,1,82.5
271,270,154490,2,0,P|297:257|370:268,1,82.5
399,311,155165,2,0,P|416:284|407:215,1,82.5
400,166,155839,2,0,P|399:126|418:90,1,82.5
367,40,156513,6,0,P|320:64|258:62,1,110
187,185,157524,1,0,0:0:0:0:
75,97,157861,2,0,P|43:86|15:86,2,55
187,185,158872,1,0,0:0:0:0:
268,304,159209,6,0,P|315:316|358:313,1,82.5
416,287,159884,2,0,P|430:252|430:194,1,82.5
388,152,160558,2,0,P|346:138|296:147,1,82.5
252,185,161232,2,0,P|210:172|154:183,1,82.5
115,218,161906,6,0,P|95:172|110:62,1,165
253,49,163254,2,0,P|285:60|324:62,1,55
400,172,163929,2,0,P|368:161|329:159,1,55
233,245,164603,6,0,P|197:257|141:252,1,82.5
90,222,165277,2,0,P|78:186|83:130,1,82.5
128,89,165951,2,0,P|164:77|220:82,1,82.5
271,112,166625,2,0,P|283:148|278:204,1,82.5
330,246,167299,6,0,P|351:187|331:81,1,165
202,35,168648,2,0,P|162:51|135:53,1,55
41,145,169322,2,0,P|81:129|108:127,1,55
219,197,169996,5,0,0:0:0:0:
330,107,170333,1,0,0:0:0:0:
447,191,170670,2,0,P|439:231|450:265,1,55
329,333,171344,2,0,P|269:335|231:320,1,82.5
190,287,172018,2,0,P|130:285|92:300,1,82.5
38,291,172693,6,0,P|53:214|29:123,1,165
135,31,174041,1,0,0:0:0:0:
257,107,174378,1,0,0:0:0:0:
389,51,174715,2,0,P|428:66|459:69,1,55
483,205,175389,6,0,P|438:189|370:285,1,165
243,337,176738,2,0,P|211:348|150:344,2,82.5
366,263,178086,6,0,P|370:221|362:168,1,82.5
334,118,178760,2,0,P|289:132|214:118,1,110
98,64,179771,1,0,0:0:0:0:
30,190,180108,2,0,P|37:223|32:266,1,55
140,344,180783,6,0,P|133:311|138:268,1,55
229,184,181457,2,0,P|236:217|231:260,1,55
317,357,182131,1,0,0:0:0:0:
317,357,182805,1,0,0:0:0:0:
460,109,183479,6,0,B|407:127|354:102|354:102|344:150|287:187|287:187|271:147|219:108|148:119|124:177,1,412.5
106,231,186176,2,0,P|169:298|261:287,1,192.5
325,255,187524,2,0,P|366:237|418:235,1,82.5
441,172,188198,2,0,P|423:131|421:79,1,82.5
358,55,188873,6,0,B|290:54|264:103|264:103|214:108|183:48|183:48|191:188|65:162,1,412.5
33,223,191569,2,0,P|84:238|225:181,1,192.5
268,152,192917,2,0,P|308:132|375:124,1,110
293,337,194266,6,0,B|266:319|240:337|240:337|213:321|190:339|190:339|161:320|136:341|136:341,1,165
32,243,195614,2,0,P|17:218|62:63,1,192.5
114,105,196962,2,0,P|167:133|302:81,1,192.5
359,87,198311,2,0,P|350:135|360:172,1,82.5
308,219,198985,2,0,P|260:210|223:220,1,82.5
189,278,199659,6,0,B|162:296|136:278|136:278|109:294|86:276|86:276|57:295|32:274|32:274,1,165
108,153,201007,2,0,P|181:136|300:161,1,192.5
327,222,202356,2,0,P|317:271|430:342,1,192.5
477,305,203704,2,0,P|487:256|367:184,1,192.5
340,124,205052,5,0,0:0:0:0:
