osu file format v14

[General]
AudioFilename: audio.mp3
AudioLeadIn: 0
PreviewTime: 151529
Countdown: 0
SampleSet: Soft
StackLeniency: 0.7
Mode: 0
LetterboxInBreaks: 0
WidescreenStoryboard: 0

[Editor]
Bookmarks: 3130,6585,22091,32203,33720,65237,65911,66023,67259,71978,77371,90855,93551,108383,113439,146135,147821,162315,173102,194675
DistanceSpacing: 2.2
BeatDivisor: 6
GridSize: 4
TimelineZoom: 2.599999

[Metadata]
Title:SLOW DANCING IN THE DARK
TitleUnicode:SLOW DANCING IN THE DARK
Artist:Joji
ArtistUnicode:Joji
Creator:Mayflower
Version:MARBLE'S NORMAL
Source:
Tags:ballads1 1 english filthy frank papa franku george miller pink guy 88rising ambient dance R&B Soul Hip Hop hiphop Yeah Right Can't Get Over You cant Patrick Wimberly Francisco Frankie Ramirez Chris Athens eiri- ayyri em0nky emonky marblelemons thepython JeirYagtama jieryagtama Jeirin Liyac cyanine californian darknessofblue Jemzuu AJamez
BeatmapID:2068841
BeatmapSetID:902215

[Difficulty]
HPDrainRate:3
CircleSize:3
OverallDifficulty:4
ApproachRate:6
SliderMultiplier:0.799999999999999
SliderTickRate:1

[Events]
//Background and Video events
0,0,"SLOW DANCING BACKGROUND POG.jpg",0,0
//Break Periods
//Storyboard Layer 0 (Background)
//Storyboard Layer 1 (Fail)
//Storyboard Layer 2 (Pass)
//Storyboard Layer 3 (Foreground)
//Storyboard Layer 4 (Overlay)
//Storyboard Sound Samples

[TimingPoints]
518,337.078651685393,4,2,1,50,1,0
798,-100,4,2,1,5,0,0
855,-100,4,2,1,50,0,0
1135,-100,4,2,1,5,0,0
1192,-100,4,2,1,50,0,0
1473,-100,4,2,1,5,0,0
1529,-100,4,2,1,50,0,0
1810,-100,4,2,1,5,0,0
1866,-100,4,2,1,50,0,0
2147,-100,4,2,1,5,0,0
2203,-100,4,2,1,50,0,0
2484,-100,4,2,1,5,0,0
2540,-100,4,2,1,50,0,0
3495,-100,4,2,1,5,0,0
3551,-100,4,2,1,50,0,0
3832,-100,4,2,1,5,0,0
3888,-100,4,2,1,50,0,0
4169,-100,4,2,1,5,0,0
4225,-100,4,2,1,50,0,0
4506,-100,4,2,1,5,0,0
4562,-100,4,2,1,50,0,0
4843,-100,4,2,1,5,0,0
4900,-100,4,2,1,50,0,0
5180,-100,4,2,1,5,0,0
5237,-100,4,2,1,50,0,0
5517,-100,4,2,1,5,0,0
5574,-100,4,2,1,50,0,0
6192,-100,4,2,1,5,0,0
6248,-100,4,2,1,50,0,0
6529,-100,4,2,1,5,0,0
6585,-100,4,2,1,50,0,0
6866,-100,4,2,1,5,0,0
6922,-100,4,2,1,50,0,0
7203,-100,4,2,1,5,0,0
7259,-100,4,2,1,50,0,0
7540,-100,4,2,1,5,0,0
7596,-100,4,2,1,50,0,0
7877,-100,4,2,1,5,0,0
7933,-100,4,2,1,50,0,0
8888,-100,4,2,1,5,0,0
8944,-100,4,2,1,50,0,0
9225,-100,4,2,1,5,0,0
9282,-100,4,2,1,50,0,0
9562,-100,4,2,1,5,0,0
9619,-100,4,2,1,50,0,0
9900,-100,4,2,1,5,0,0
9956,-100,4,2,1,50,0,0
10237,-100,4,2,1,5,0,0
10293,-100,4,2,1,50,0,0
10967,-100,4,2,1,5,0,0
11304,-100,4,2,1,50,0,0
11585,-100,4,2,1,5,0,0
11641,-100,4,2,1,50,0,0
11922,-100,4,2,1,5,0,0
11978,-100,4,2,1,50,0,0
12259,-100,4,2,1,5,0,0
12315,-100,4,2,1,50,0,0
12933,-100,4,2,1,5,0,0
12989,-100,4,2,1,50,0,0
13270,-100,4,2,1,5,0,0
13326,-100,4,2,1,50,0,0
13607,-100,4,2,1,5,0,0
13664,-100,4,2,1,50,0,0
14282,-100,4,2,1,5,0,0
14338,-100,4,2,1,50,0,0
14619,-100,4,2,1,5,0,0
14675,-100,4,2,1,50,0,0
14956,-100,4,2,1,5,0,0
15012,-100,4,2,1,50,0,0
15293,-100,4,2,1,5,0,0
15349,-100,4,2,1,50,0,0
16978,-100,4,2,1,5,0,0
17034,-100,4,2,1,50,0,0
17315,-100,4,2,1,5,0,0
17371,-100,4,2,1,50,0,0
17652,-100,4,2,1,5,0,0
17709,-100,4,2,1,50,0,0
17989,-100,4,2,1,5,0,0
18046,-100,4,2,1,50,0,0
19001,-100,4,2,1,5,0,0
19057,-100,4,2,1,50,0,0
19647,-100,4,2,1,5,0,0
19731,-100,4,2,1,50,0,0
19984,-100,4,2,1,5,0,0
20068,-100,4,2,1,50,0,0
20321,-100,4,2,1,5,0,0
20405,-100,4,2,1,50,0,0
20658,-100,4,2,1,5,0,0
20742,-100,4,2,1,50,0,0
22371,-100,4,2,1,5,0,0
22428,-100,4,2,1,50,0,0
22709,-100,4,2,1,5,0,0
22765,-100,4,2,1,50,0,0
25068,-100,4,2,1,5,0,0
25124,-100,4,2,1,50,0,0
25405,-100,4,2,1,5,0,0
25461,-100,4,2,1,50,0,0
25742,-100,4,2,1,5,0,0
25798,-100,4,2,1,50,0,0
26079,-100,4,2,1,5,0,0
26135,-100,4,2,1,50,0,0
26416,-100,4,2,1,5,0,0
26473,-100,4,2,1,50,0,0
27091,-100,4,2,1,5,0,0
27147,-100,4,2,1,50,0,0
27428,-100,4,2,1,5,0,0
27484,-100,4,2,1,50,0,0
27765,-100,4,2,1,5,0,0
27821,-100,4,2,1,50,0,0
28102,-100,4,2,1,5,0,0
28158,-100,4,2,1,50,0,0
28776,-100,4,2,1,5,0,0
28832,-100,4,2,1,50,0,0
30461,-100,4,2,1,5,0,0
30517,-100,4,2,1,50,0,0
30798,-100,4,2,1,5,0,0
30855,-100,4,2,1,50,0,0
31135,-100,4,2,1,5,0,0
31192,-100,4,2,1,50,0,0
31473,-100,4,2,1,5,0,0
31529,-100,4,2,1,50,0,0
33158,-100,4,2,1,5,0,0
33214,-100,4,2,1,50,0,0
34506,-100,4,2,1,5,0,0
34562,-100,4,2,1,50,0,0
34843,-100,4,2,1,5,0,0
34900,-100,4,2,1,50,0,0
35180,-100,4,2,1,5,0,0
35237,-100,4,2,1,50,0,0
35855,-100,4,2,1,5,0,0
35911,-100,4,2,1,50,0,0
36192,-100,4,2,1,5,0,0
36248,-100,4,2,1,50,0,0
36529,-100,4,2,1,5,0,0
36585,-100,4,2,1,50,0,0
36866,-100,4,2,1,5,0,0
36922,-100,4,2,1,50,0,0
37203,-100,4,2,1,5,0,0
37259,-100,4,2,1,50,0,0
37540,-100,4,2,1,5,0,0
37596,-100,4,2,1,50,0,0
37877,-100,4,2,1,5,0,0
37933,-100,4,2,1,50,0,0
38214,-100,4,2,1,5,0,0
38270,-100,4,2,1,50,0,0
38551,-100,4,2,1,5,0,0
38607,-100,4,2,1,50,0,0
38888,-100,4,2,1,5,0,0
38944,-100,4,2,1,50,0,0
39225,-100,4,2,1,5,0,0
39282,-100,4,2,1,50,0,0
39562,-100,4,2,1,5,0,0
39619,-100,4,2,1,50,0,0
40911,-100,4,2,1,5,0,0
40967,-100,4,2,1,50,0,0
41248,-100,4,2,1,5,0,0
41304,-100,4,2,1,50,0,0
41585,-100,4,2,1,5,0,0
41641,-100,4,2,1,50,0,0
41922,-100,4,2,1,5,0,0
41978,-100,4,2,1,50,0,0
42259,-100,4,2,1,5,0,0
42315,-100,4,2,1,50,0,0
43326,-100,4,2,1,20,0,0
43664,-100,4,2,1,50,0,0
43944,-100,4,2,1,5,0,0
44001,-100,4,2,1,50,0,0
44282,-100,4,2,1,5,0,0
44338,-100,4,2,1,50,0,0
44619,-100,4,2,1,5,0,0
44675,-100,4,2,1,50,0,0
44956,-100,4,2,1,5,0,0
45012,-100,4,2,1,50,0,0
45293,-100,4,2,1,5,0,0
45349,-100,4,2,1,50,0,0
45630,-100,4,2,1,5,0,0
45686,-100,4,2,1,50,0,0
45967,-100,4,2,1,5,0,0
46023,-100,4,2,1,50,0,0
46304,-100,4,2,1,5,0,0
46360,-100,4,2,1,50,0,0
49338,-100,4,2,1,5,0,0
49394,-100,4,2,1,50,0,0
49675,-100,4,2,1,5,0,0
49731,-100,4,2,1,50,0,0
50012,-100,4,2,1,5,0,0
50068,-100,4,2,1,50,0,0
50349,-100,4,2,1,5,0,0
50405,-100,4,2,1,50,0,0
50686,-100,4,2,1,5,0,0
50742,-100,4,2,1,50,0,0
51023,-100,4,2,1,5,0,0
51079,-100,4,2,1,50,0,0
51697,-100,4,2,1,5,0,0
51753,-100,4,2,1,50,0,0
54731,-100,4,2,1,5,0,0
54787,-100,4,2,1,50,0,0
55068,-100,4,2,1,5,0,0
55124,-100,4,2,1,50,0,0
55405,-100,4,2,1,5,0,0
55461,-100,4,2,1,50,0,0
55742,-100,4,2,1,5,0,0
55798,-100,4,2,1,50,0,0
56079,-100,4,2,1,5,0,0
56135,-100,4,2,1,50,0,0
57091,-100,4,2,1,5,0,0
57147,-100,4,2,1,50,0,0
57428,-100,4,2,1,5,0,0
57484,-100,4,2,1,50,0,0
57765,-100,4,2,1,5,0,0
57821,-100,4,2,1,50,0,0
58102,-100,4,2,1,5,0,0
58158,-100,4,2,1,50,0,0
58439,-100,4,2,1,5,0,0
58495,-100,4,2,1,50,0,0
60124,-100,4,2,1,5,0,0
60180,-100,4,2,1,50,0,0
60461,-100,4,2,1,5,0,0
60517,-100,4,2,1,50,0,0
60798,-100,4,2,1,5,0,0
60855,-100,4,2,1,50,0,0
61135,-100,4,2,1,5,0,0
61192,-100,4,2,1,50,0,0
65237,-100,4,2,3,50,0,0
65349,-100,4,2,1,50,0,0
65461,-100,4,2,4,50,0,0
66585,-100,4,2,1,50,0,0
66697,-100,4,2,4,50,0,0
67933,-100,4,1,1,50,0,0
70630,-100,4,2,3,50,0,0
70742,-100,4,2,4,50,0,0
71978,-100,4,2,4,50,0,0
72428,-100,4,2,4,50,0,0
72652,-100,4,2,4,50,0,0
72765,-100,4,2,4,50,0,0
72989,-100,4,2,1,50,0,0
73326,-100,4,1,1,50,0,0
76023,-100,4,2,3,50,0,0
76135,-100,4,2,4,50,0,0
77371,-100,4,2,1,50,0,0
77484,-100,4,2,4,50,0,0
78158,-100,4,2,4,50,0,0
78383,-100,4,2,4,50,0,0
78720,-100,4,2,1,50,0,0
81416,-100,4,2,3,50,0,0
81529,-100,4,2,4,50,0,0
82765,-100,4,2,1,50,0,0
82877,-100,4,2,4,50,0,0
83102,-100,4,2,1,50,0,0
83214,-100,4,2,4,50,0,0
83439,-100,4,2,1,50,0,0
83551,-100,4,2,4,50,0,0
83776,-100,4,2,1,50,0,0
84113,-100,4,2,3,50,0,0
84225,-100,4,2,4,50,0,0
85405,-100,4,2,1,50,0,0
86810,-100,4,2,3,50,0,0
86922,-100,4,2,4,50,0,0
88158,-100,4,2,1,50,0,0
88270,-100,4,2,4,50,0,0
89506,-100,4,2,1,50,0,0
89619,-100,4,2,4,50,0,0
90855,-100,4,1,1,50,0,0
92203,-100,4,2,3,50,0,0
92652,-100,4,2,1,5,0,0
92709,-100,4,2,1,50,0,0
95349,-100,4,2,1,5,0,0
95405,-100,4,2,1,50,0,0
97596,-100,4,2,2,70,0,1
102610,-100,4,2,2,5,0,1
102652,-100,4,2,2,70,0,1
108383,-100,4,2,1,50,0,0
108664,-100,4,2,1,5,0,0
108720,-100,4,2,1,50,0,0
109001,-100,4,2,1,5,0,0
109057,-100,4,2,1,50,0,0
111360,-100,4,2,1,5,0,0
111416,-100,4,2,1,50,0,0
111697,-100,4,2,1,5,0,0
111753,-100,4,2,1,50,0,0
112034,-100,4,2,1,5,0,0
112091,-100,4,2,1,50,0,0
112371,-100,4,2,1,5,0,0
112428,-100,4,2,1,50,0,0
112709,-100,4,2,1,5,0,0
112765,-100,4,2,1,50,0,0
113383,-100,4,2,1,5,0,0
113439,-100,4,2,1,50,0,0
113720,-100,4,2,1,5,0,0
113776,-100,4,2,1,50,0,0
114057,-100,4,2,1,5,0,0
114113,-100,4,2,1,50,0,0
114394,-100,4,2,1,5,0,0
114450,-100,4,2,1,50,0,0
114731,-100,4,2,1,5,0,0
114787,-100,4,2,1,50,0,0
115068,-100,4,2,1,5,0,0
115124,-100,4,2,1,50,0,0
116753,-100,4,2,1,5,0,0
116810,-100,4,2,1,50,0,0
117091,-100,4,2,1,5,0,0
117147,-100,4,2,1,50,0,0
117428,-100,4,2,1,5,0,0
117484,-100,4,2,1,50,0,0
117765,-100,4,2,1,5,0,0
117821,-100,4,2,1,50,0,0
119113,-100,4,2,1,5,0,0
119169,-100,4,2,1,50,0,0
119450,-100,4,2,1,5,0,0
119506,-100,4,2,1,50,0,0
119787,-100,4,2,1,5,0,0
119843,-100,4,2,1,50,0,0
120124,-100,4,2,1,5,0,0
120180,-100,4,2,1,50,0,0
120461,-100,4,2,1,5,0,0
120517,-100,4,2,1,50,0,0
120798,-100,4,2,1,5,0,0
120855,-100,4,2,1,50,0,0
121135,-100,4,2,1,5,0,0
121192,-100,4,2,1,50,0,0
121473,-100,4,2,1,5,0,0
121529,-100,4,2,1,50,0,0
122147,-100,4,2,1,5,0,0
122203,-100,4,2,1,50,0,0
122484,-100,4,2,1,5,0,0
122540,-100,4,2,1,50,0,0
122821,-100,4,2,1,5,0,0
122877,-100,4,2,1,50,0,0
123158,-100,4,2,1,5,0,0
123214,-100,4,2,1,50,0,0
123495,-100,4,2,1,5,0,0
123551,-100,4,2,1,50,0,0
123832,-100,4,2,1,5,0,0
123888,-100,4,2,1,50,0,0
124169,-100,4,2,1,5,0,0
124225,-100,4,2,1,50,0,0
124506,-100,4,2,1,5,0,0
124562,-100,4,2,1,50,0,0
124843,-100,4,2,1,5,0,0
124900,-100,4,2,1,50,0,0
125180,-100,4,2,1,5,0,0
125237,-100,4,2,1,50,0,0
125517,-100,4,2,1,5,0,0
125574,-100,4,2,1,50,0,0
125855,-100,4,2,1,5,0,0
125911,-100,4,2,1,50,0,0
127540,-100,4,2,1,5,0,0
127596,-100,4,2,1,50,0,0
127877,-100,4,2,1,5,0,0
127933,-100,4,2,1,50,0,0
128214,-100,4,2,1,5,0,0
128270,-100,4,2,1,50,0,0
128551,-100,4,2,1,5,0,0
128607,-100,4,2,1,50,0,0
129619,-100,4,2,1,15,0,0
129956,-100,4,2,1,50,0,0
130237,-100,4,2,1,5,0,0
130293,-100,4,2,1,50,0,0
130574,-100,4,2,1,5,0,0
130630,-100,4,2,1,50,0,0
130911,-100,4,2,1,5,0,0
130967,-100,4,2,1,50,0,0
131248,-100,4,2,1,5,0,0
131304,-100,4,2,1,50,0,0
132933,-100,4,2,1,5,0,0
132989,-100,4,2,1,50,0,0
133270,-100,4,2,1,5,0,0
133326,-100,4,2,1,50,0,0
133607,-100,4,2,1,5,0,0
133664,-100,4,2,1,50,0,0
133944,-100,4,2,1,5,0,0
134001,-100,4,2,1,50,0,0
135630,-100,4,2,1,5,0,0
135686,-100,4,2,1,50,0,0
135967,-100,4,2,1,5,0,0
136023,-100,4,2,1,50,0,0
136304,-100,4,2,1,5,0,0
136360,-100,4,2,1,50,0,0
136641,-100,4,2,1,5,0,0
136697,-100,4,2,1,50,0,0
136978,-100,4,2,1,5,0,0
137034,-100,4,2,1,50,0,0
137315,-100,4,2,1,5,0,0
137371,-100,4,2,1,50,0,0
137652,-100,4,2,1,5,0,0
137709,-100,4,2,1,50,0,0
138326,-100,4,2,1,5,0,0
138383,-100,4,2,1,50,0,0
138664,-100,4,2,1,5,0,0
138720,-100,4,2,1,50,0,0
139001,-100,4,2,1,5,0,0
139057,-100,4,2,1,50,0,0
139338,-100,4,2,1,5,0,0
139394,-100,4,2,1,50,0,0
140686,-100,4,2,1,5,0,0
140742,-100,4,2,1,50,0,0
141023,-100,4,2,1,5,0,0
141079,-100,4,2,1,50,0,0
141360,-100,4,2,1,5,0,0
141416,-100,4,2,1,50,0,0
141697,-100,4,2,1,5,0,0
141753,-100,4,2,1,50,0,0
142034,-100,4,2,1,5,0,0
142091,-100,4,2,1,50,0,0
143720,-100,4,2,1,5,0,0
143776,-100,4,2,1,50,0,0
144057,-100,4,2,1,5,0,0
144113,-100,4,2,1,50,0,0
144394,-100,4,2,1,5,0,0
144450,-100,4,2,1,50,0,0
144731,-100,4,2,1,5,0,0
144787,-100,4,2,1,50,0,0
145798,-100,4,2,1,50,0,0
146135,-100,4,2,4,50,0,0
150517,-100,4,2,1,50,0,0
150855,-100,4,2,3,50,0,0
151529,-100,4,2,3,50,0,0
151866,-100,4,2,3,50,0,0
152877,-100,4,2,1,50,0,0
156922,-100,4,2,3,50,0,0
158270,-100,4,2,1,50,0,0
162315,-100,4,2,3,50,0,0
163664,-100,4,2,1,50,0,0
167709,-100,4,2,3,50,0,0
169057,-100,4,2,1,50,0,0
170405,-100,4,2,3,50,0,0
171669,-100,4,2,1,50,0,0
173102,-100,4,2,3,50,0,0
174450,-100,4,2,1,50,0,0
178495,-100,4,2,3,50,0,0
178944,-100,4,2,1,50,0,0
183888,-83.3333333333333,4,2,2,80,0,1
188551,-83.3333333333333,4,2,2,5,0,1
188607,-83.3333333333333,4,2,2,80,0,1
199310,-83.3333333333333,4,2,2,5,0,1
199338,-83.3333333333333,4,2,2,5,0,1
199394,-83.3333333333333,4,2,2,80,0,1
204787,-83.3333333333333,4,2,2,80,0,1
204900,-83.3333333333333,4,2,2,80,0,1
204956,-83.3333333333333,4,2,2,80,0,1
205461,-83.3333333333333,4,2,2,80,0,0

[Colours]
Combo1 : 174,86,233
Combo2 : 176,83,179
Combo3 : 138,90,177
Combo4 : 100,102,189

[HitObjects]
244,128,518,6,0,P|287:135|327:131,2,79.9999999999999,2|2|2,3:2|0:0|0:0,0:0:0:0:
133,175,1529,1,2,0:0:0:0:
216,261,1866,2,0,L|233:346,1,79.9999999999999,10|2,0:1|0:1,0:0:0:0:
349,360,2540,2,0,L|436:373,1,79.9999999999999,2|2,0:1|0:1,0:0:0:0:
368,267,3214,2,0,P|343:233|336:187,2,79.9999999999999,2|2|2,3:2|0:0|0:0,0:0:0:0:
479,282,4225,1,2,0:0:0:0:
390,362,4562,2,0,P|335:350|303:358,1,79.9999999999999,10|2,0:1|0:1,0:0:0:0:
201,370,5237,1,2,2:1:0:0:
175,170,5911,6,0,L|161:82,2,79.9999999999999,2|2|2,3:2|0:0|0:0,0:0:0:0:
286,215,6922,1,2,0:0:0:0:
386,148,7259,2,0,P|337:137|310:118,1,79.9999999999999,10|2,0:1|2:1,0:0:0:0:
297,1,7933,2,0,P|250:7|224:31,1,79.9999999999999,2|2,0:1|0:1,0:0:0:0:
195,143,8607,2,0,L|109:159,2,79.9999999999999,2|2|2,3:2|0:0|0:0,0:0:0:0:
314,155,9619,1,2,0:0:0:0:
411,84,9956,2,0,P|470:91|493:111,1,79.9999999999999,10|2,0:1|1:0,0:0:0:0:
471,221,10630,1,2,1:0:0:0:
255,114,11304,6,0,L|242:30,2,79.9999999999999,2|2|2,3:2|2:0|0:0,0:0:0:0:
262,233,12315,1,2,0:0:0:0:
144,209,12652,2,0,L|117:285,1,79.9999999999999,10|2,0:1|0:1,0:0:0:0:
0,313,13326,2,0,P|37:353|52:386,1,79.9999999999999,2|2,0:1|0:1,0:0:0:0:
158,326,14001,1,2,3:2:0:0:
258,377,14338,1,2,0:0:0:0:
304,266,14675,1,2,0:0:0:0:
261,153,15012,1,2,0:0:0:0:
355,58,15349,6,0,B|397:58|434:49|434:49|428:133|428:133|462:208,1,240,10|0,0:0|1:0,0:0:0:0:
349,251,16697,6,0,P|342:294|346:334,2,79.9999999999999,2|2|2,3:2|0:0|0:0,0:0:0:0:
326,133,17709,1,2,0:0:0:0:
230,60,18046,2,0,L|213:145,1,79.9999999999999,10|0,0:1|0:0,0:0:0:0:
143,235,18720,2,0,L|126:150,1,79.9999999999999,0|0,0:0|0:0,0:0:0:0:
73,49,19394,6,0,B|34:32|34:32|-5:48,2,79.9999999999999,2|2|2,3:2|0:0|0:0,0:0:0:0:
191,31,20405,1,2,0:0:0:0:
267,123,20742,2,0,B|271:172|271:172|255:210,1,79.9999999999999,10|0,0:0|0:0,0:0:0:0:
0,266,22091,6,0,L|81:257,1,79.9999999999999,6|0,3:2|0:0,0:0:0:0:
192,296,22765,1,2,1:0:0:0:
192,296,22933,1,2,1:0:0:0:
225,345,23102,2,0,L|264:352,1,40,2|2,1:0|1:0,0:0:0:0:
324,344,23439,2,0,L|405:362,2,79.9999999999999,10|2|2,0:0|1:0|2:0,0:0:0:0:
245,253,24450,1,2,2:0:0:0:
125,261,24787,2,0,P|108:214|107:183,1,79.9999999999999,0|2,3:2|0:0,0:0:0:0:
113,64,25461,1,2,0:0:0:0:
353,58,26135,6,0,P|380:98|389:127,1,79.9999999999999,10|2,1:0|1:0,0:0:0:0:
328,232,26810,1,0,0:0:0:0:
328,232,27147,1,2,0:1:0:0:
384,337,27484,2,0,B|434:346|472:328,1,79.9999999999999,2|2,3:2|0:0,0:0:0:0:
451,212,28158,1,2,0:0:0:0:
451,212,28495,1,2,0:0:0:0:
357,149,28832,2,0,B|327:167|275:160,1,79.9999999999999,10|0,0:0|0:0,0:0:0:0:
166,118,29506,1,0,0:0:0:0:
385,21,30180,6,0,B|411:44|429:89,1,79.9999999999999,2|2,3:2|0:0,0:0:0:0:
392,191,30855,1,2,0:0:0:0:
392,191,31192,1,2,0:0:0:0:
274,215,31529,2,0,L|186:209,2,79.9999999999999,10|2|2,1:0|1:0|2:1,0:0:0:0:
366,284,32540,1,0,0:0:0:0:
492,306,32877,6,0,L|493:226,1,79.9999999999999,2|2,3:2|0:0,0:0:0:0:
497,106,33551,2,0,L|417:107,1,79.9999999999999,2|2,0:0|0:0,0:0:0:0:
300,134,34225,1,10,2:1:0:0:
370,230,34562,2,0,B|383:262|390:315,2,79.9999999999999,2|2|2,0:1|0:1|0:1,0:0:0:0:
258,275,35574,1,0,3:2:0:0:
258,275,35911,2,0,L|173:284,1,79.9999999999999,2|2,0:0|0:0,0:0:0:0:
32,93,36922,6,0,L|21:3,2,79.9999999999999,10|2|2,1:0|0:1|0:1,0:0:0:0:
143,136,37933,1,2,0:1:0:0:
256,96,38270,2,0,L|350:86,1,79.9999999999999,2|2,3:2|0:0,0:0:0:0:
432,16,38944,2,0,L|338:6,1,79.9999999999999,2|2,0:0|0:0,0:0:0:0:
237,42,39619,1,10,0:0:0:0:
131,99,39956,5,2,0:1:0:0:
131,99,40124,1,0,0:0:0:0:
131,99,40293,2,0,L|92:83,2,40,2|0|2,0:1|0:0|0:1,0:0:0:0:
197,198,40967,6,0,P|240:231|258:251,1,79.9999999999999,2|2,3:2|0:0,0:0:0:0:
375,271,41641,2,0,P|418:273|451:260,1,79.9999999999999,2|2,0:0|0:0,0:0:0:0:
466,141,42315,2,0,P|485:91|485:57,1,79.9999999999999,10|0,0:0|0:0,0:0:0:0:
198,282,43664,6,0,P|157:276|109:287,2,79.9999999999999,6|2|2,3:0|0:0|0:0,0:0:0:0:
281,367,44675,1,2,0:0:0:0:
396,333,45012,2,0,P|415:296|414:250,1,79.9999999999999,10|0,0:0|0:0,0:0:0:0:
486,160,45686,2,0,P|448:141|402:141,1,79.9999999999999,0|2,0:0|0:1,0:0:0:0:
293,116,46360,6,0,P|290:192|312:247,1,120,2|2,3:1|2:1,0:0:0:0:
273,286,47034,2,0,P|345:277|406:291,1,120,2|2,0:1|2:1,0:0:0:0:
449,303,47709,2,0,P|440:259|455:180,1,120,10|2,1:0|2:1,0:0:0:0:
457,125,48383,2,0,P|397:130|330:114,1,120,2|2,0:1|2:1,0:0:0:0:
321,59,49057,6,0,P|276:73|236:81,1,79.9999999999999,6|2,3:0|0:0,0:0:0:0:
209,194,49731,2,0,P|170:183|130:184,1,79.9999999999999,2|2,0:0|0:0,0:0:0:0:
17,145,50405,2,0,P|7:106|12:66,1,79.9999999999999,10|0,0:0|2:0,0:0:0:0:
112,0,51079,1,0,0:0:0:0:
304,192,51753,6,0,L|428:170,1,120,2|2,3:1|2:1,0:0:0:0:
394,108,52428,2,0,L|519:127,1,120,2|2,0:1|2:1,0:0:0:0:
493,191,53102,2,0,L|470:313,1,120,10|2,0:1|2:1,0:0:0:0:
421,344,53776,2,0,L|400:220,1,120,2|2,1:0|2:1,0:0:0:0:
371,173,54450,6,0,L|284:165,1,79.9999999999999,6|2,3:0|0:0,0:0:0:0:
198,89,55124,2,0,L|118:96,1,79.9999999999999,2|2,0:0|0:0,0:0:0:0:
17,160,55798,1,10,0:0:0:0:
101,281,56135,5,2,0:1:0:0:
101,281,56304,1,2,0:1:0:0:
101,281,56473,2,0,L|105:360,2,79.9999999999999,2|2|2,0:1|0:1|3:2,0:0:0:0:
115,145,57484,1,2,0:0:0:0:
250,143,57821,2,0,P|262:198|260:232,1,79.9999999999999,2|2,0:0|0:0,0:0:0:0:
155,277,58495,2,0,P|143:332|145:366,1,79.9999999999999,10|2,0:0|0:1,0:0:0:0:
203,361,59001,1,2,0:1:0:0:
203,361,59169,5,2,0:1:0:0:
292,281,59506,1,2,0:1:0:0:
403,326,59843,2,0,L|494:313,2,79.9999999999999,4|2|2,3:0|0:0|0:0,0:0:0:0:
294,377,60855,1,2,0:0:0:0:
189,318,61192,2,0,P|161:273|150:233,1,79.9999999999999,10|2,0:0|1:0,0:0:0:0:
256,192,61866,12,2,64562,1:0:0:0:
510,324,65237,6,0,P|464:324|428:312,1,79.9999999999999,6|0,3:0|0:0,0:0:0:0:
315,339,65911,1,0,0:0:0:0:
196,355,66248,2,0,P|147:346|109:348,1,79.9999999999999,0|8,0:0|0:0,0:0:0:0:
42,316,66810,1,0,0:0:0:0:
42,316,66922,1,0,0:0:0:0:
29,196,67259,2,0,P|29:149|42:113,1,79.9999999999999
132,42,67933,6,0,P|212:39|252:56,1,120,2|2,3:1|0:0,0:0:0:0:
301,79,68607,2,0,P|304:159|287:199,1,120,2|2,0:0|0:0,0:0:0:0:
231,214,69282,2,0,P|151:211|111:228,1,120,10|2,0:1|0:0,0:0:0:0:
58,245,69956,2,0,P|55:325|72:365,1,120,2|2,1:0|0:0,0:0:0:0:
129,368,70630,1,12,3:0:0:0:
222,292,70967,6,0,L|308:272,2,79.9999999999999,0|0|0,0:0|0:0|0:0,0:0:0:0:
136,207,71978,1,8,0:0:0:0:
97,93,72315,2,0,P|96:52|109:10,1,79.9999999999999,0|0,0:0|0:0,0:0:0:0:
323,74,73326,6,0,P|326:154|309:194,1,120,2|2,3:1|0:0,0:0:0:0:
301,250,74001,2,0,P|221:253|181:236,1,120,2|2,0:0|0:0,0:0:0:0:
166,182,74675,2,0,P|169:102|152:62,1,120,10|2,0:0|0:0,0:0:0:0:
134,10,75349,2,0,P|54:7|14:24,1,120,2|2,0:0|0:0,0:0:0:0:
10,82,76023,1,6,3:0:0:0:
95,165,76360,6,0,L|182:187,2,79.9999999999999,0|0|0,0:0|0:0|0:0,0:0:0:0:
129,279,77371,1,8,0:0:0:0:
205,329,77596,1,0,0:0:0:0:
205,329,77709,2,0,L|298:321,1,79.9999999999999,0|0,0:0|0:0,0:0:0:0:
276,202,78383,1,2,0:0:0:0:
336,98,78720,6,0,P|403:103|452:139,1,120,2|2,3:1|1:0,0:0:0:0:
505,135,79394,2,0,P|511:106|483:15,1,120,2|2,1:1|1:1,1:0:0:0:
427,16,80068,2,0,P|398:22|307:-6,1,120,10|2,1:1|1:1,1:0:0:0:
271,42,80742,6,0,L|186:50,1,79.9999999999999,2|2,1:1|1:1,1:0:0:0:
72,36,81416,2,0,B|82:123|51:197|38:198|24:267|73:352,1,320,12|8,3:0|0:0,0:0:0:0:
430,344,83776,1,2,1:1:0:0:
481,235,84113,2,0,P|482:168|334:129,1,240,8|0,3:0|0:0,0:0:0:0:
242,194,85461,6,0,B|284:174|323:204|324:216|360:226|395:217,1,160,10|2,0:0|0:0,0:0:0:0:
197,353,86810,2,0,P|110:311|31:301,1,160,6|0,3:0|0:0,0:0:0:0:
42,185,87821,5,0,0:0:0:0:
42,185,88158,2,0,P|49:138|69:97,1,79.9999999999999,8|0,0:0|0:0,0:0:0:0:
147,24,88832,2,0,P|191:6|236:3,1,79.9999999999999
337,38,89506,2,0,L|355:127,2,79.9999999999999,0|0|0,3:0|0:0|0:0,0:0:0:0:
436,104,90517,1,0,0:0:0:0:
391,215,90855,6,0,P|332:194|278:200,1,106.666666666667,10|2,0:0|0:0,0:0:0:0:
211,216,91529,2,0,P|152:237|93:230,1,106.666666666667,2|2,0:0|0:0,0:0:0:0:
35,266,92203,1,12,3:0:0:0:
112,361,92540,2,0,L|197:375,1,79.9999999999999
261,277,93214,1,0,0:0:0:0:
173,204,93551,5,10,0:0:0:0:
173,204,93888,2,0,L|194:119,2,79.9999999999999,2|2|2,0:0|0:0|0:0,0:0:0:0:
283,156,94900,2,0,B|329:147|371:172|375:185|424:197|464:194|522:152,1,240,2|0,3:2|0:0,0:0:0:0:
457,51,96248,6,0,P|386:58|425:96,1,160,10|2,0:1|0:1,0:0:0:0:
184,59,97596,1,4,3:0:0:0:
72,103,97933,1,0,3:0:0:0:
70,222,98270,1,0,3:0:0:0:
184,256,98607,1,0,3:0:0:0:
184,256,98944,2,0,P|216:286|360:203,1,240,8|0,0:0|0:0,0:0:0:0:
330,91,100293,5,4,3:0:0:0:
433,30,100630,1,0,3:0:0:0:
505,125,100967,1,0,3:0:0:0:
409,197,101304,1,0,3:0:0:0:
409,197,101641,2,0,P|456:258|345:355,1,240,8|2,0:0|0:0,0:0:0:0:
242,353,102989,5,4,3:0:0:0:
122,338,103326,1,0,3:0:0:0:
86,223,103664,1,0,3:0:0:0:
175,142,104001,1,0,3:0:0:0:
175,142,104338,2,0,P|233:144|211:4,1,240,8|0,0:0|0:0,0:0:0:0:
345,16,105686,5,4,3:0:0:0:
395,124,106023,1,0,3:0:0:0:
313,211,106360,1,0,3:0:0:0:
261,319,106697,1,0,3:0:0:0:
261,319,107034,2,0,P|220:374|127:277,1,240,8|2,0:0|0:0,0:0:0:0:
19,224,108383,6,0,L|32:304,1,79.9999999999999,2|2,3:2|0:0,0:0:0:0:
129,358,109057,1,2,0:1:0:0:
129,358,109225,1,2,0:1:0:0:
129,358,109394,2,0,L|164:330,1,40,2|2,0:1|0:1,0:0:0:0:
218,316,109731,2,0,L|311:335,2,79.9999999999999,10|0|0,0:0|0:0|0:0,0:0:0:0:
269,207,110742,1,0,0:0:0:0:
196,111,111079,2,0,P|187:159|172:186,1,79.9999999999999,2|2,3:2|0:0,0:0:0:0:
54,164,111753,1,2,0:0:0:0:
261,41,112428,6,0,P|308:50|335:64,1,79.9999999999999,10|2,1:0|0:1,0:0:0:0:
361,182,113102,1,0,0:0:0:0:
361,182,113439,1,2,0:1:0:0:
472,227,113776,2,0,B|488:263|475:306,1,79.9999999999999,2|2,3:2|0:0,0:0:0:0:
374,368,114450,1,2,0:0:0:0:
374,368,114787,1,2,2:0:0:0:
390,249,115124,2,0,L|358:167,1,79.9999999999999,10|0,0:0|0:0,0:0:0:0:
291,76,115798,1,0,0:0:0:0:
56,26,116473,6,0,B|56:70|40:105,1,79.9999999999999,2|2,3:2|0:0,0:0:0:0:
60,223,117147,1,2,0:0:0:0:
60,223,117484,1,2,0:0:0:0:
146,305,117821,2,0,L|132:390,2,79.9999999999999,10|2|2,1:1|1:0|1:0,0:0:0:0:
148,185,118832,1,2,1:0:0:0:
208,81,119169,5,2,3:2:0:0:
285,172,119506,2,0,L|368:170,1,79.9999999999999,2|2,0:0|0:0,0:0:0:0:
472,116,120180,2,0,L|454:205,1,79.9999999999999,2|10,0:0|0:0,0:0:0:0:
413,306,120855,2,0,B|426:338|433:391,2,79.9999999999999,0|0|0,0:0|0:0|0:0,0:0:0:0:
366,177,121866,2,0,L|296:227,1,79.9999999999999,2|2,3:2|0:0,0:0:0:0:
232,341,122540,1,2,0:0:0:0:
96,70,123214,6,0,L|6:81,2,79.9999999999999,10|2|2,2:1|2:1|2:1,0:0:0:0:
165,168,124225,1,2,2:1:0:0:
256,96,124562,2,0,L|350:86,1,79.9999999999999,2|2,3:2|0:0,0:0:0:0:
396,191,125237,2,0,L|302:181,1,79.9999999999999,2|2,0:0|0:0,0:0:0:0:
227,263,125911,1,10,0:0:0:0:
108,284,126248,2,0,L|94:362,2,79.9999999999999,0|0|0,1:0|1:0|1:0,0:0:0:0:
141,168,127259,6,0,P|191:187|224:187,1,79.9999999999999,2|2,3:2|0:0,0:0:0:0:
314,257,127933,2,0,P|357:259|390:246,1,79.9999999999999,2|2,0:0|0:0,0:0:0:0:
337,138,128607,2,0,P|356:88|356:54,1,79.9999999999999,8|0,0:0|1:0,0:0:0:0:
220,340,129956,6,0,P|181:360|145:394,1,79.9999999999999,2|2,3:2|0:0,0:0:0:0:
37,354,130630,2,0,P|27:311|3:267,1,79.9999999999999,2|2,0:0|0:0,0:0:0:0:
56,168,131304,2,0,P|105:185|167:180,1,106.666666666667,10|2,2:1|0:1,0:0:0:0:
198,112,131978,2,0,P|247:95|311:102,1,106.666666666667,2|2,2:1|2:1,0:0:0:0:
359,153,132652,1,2,3:2:0:0:
384,270,132989,2,0,L|477:276,2,79.9999999999999,2|2|2,0:0|0:0|0:0,0:0:0:0:
289,347,134001,5,10,1:0:0:0:
289,347,134338,2,0,P|277:297|277:262,2,79.9999999999999,2|2|2,1:0|1:0|1:0,0:0:0:0:
407,362,135349,2,0,L|420:275,1,79.9999999999999,0|2,3:0|0:0,0:0:0:0:
477,178,136023,2,0,L|462:83,1,79.9999999999999,2|2,0:0|0:0,0:0:0:0:
360,39,136697,1,8,0:0:0:0:
156,194,137371,6,0,P|101:180|65:179,2,79.9999999999999,2|2|2,0:0|0:0|3:2,0:0:0:0:
251,266,138383,1,2,0:0:0:0:
275,148,138720,2,0,P|281:104|272:58,2,79.9999999999999,2|2|8,0:0|0:0|0:0,0:0:0:0:
393,168,139731,5,2,2:1:0:0:
403,51,140068,1,2,2:1:0:0:
403,51,140237,1,2,2:1:0:0:
403,51,140405,1,2,2:1:0:0:
286,22,140742,2,0,L|294:109,1,79.9999999999999,2|2,3:2|0:0,0:0:0:0:
228,202,141416,2,0,L|148:209,1,79.9999999999999,2|2,0:0|0:0,0:0:0:0:
49,277,142091,1,8,0:0:0:0:
117,375,142428,5,2,2:1:0:0:
117,375,142596,1,2,2:1:0:0:
117,375,142765,2,0,L|143:294,2,79.9999999999999,2|2|2,2:1|2:1|3:0,2:1:0:0:
233,349,143776,1,2,0:0:0:0:
233,349,144113,2,0,P|288:337|322:339,1,79.9999999999999,2|2,0:0|0:0,0:0:0:0:
410,260,144787,2,0,P|398:315|400:349,1,79.9999999999999,10|2,0:0|2:1,0:0:0:0:
455,359,145293,1,2,2:1:0:0:
455,359,145461,1,2,2:1:0:0:
506,250,145798,1,2,2:1:0:0:
256,192,146135,12,0,148832,0:0:0:0:
22,299,150855,6,0,L|65:297,1,40,0|0,3:0|3:0,3:0:0:0:
85,353,151192,2,0,L|125:346,1,40,0|0,3:0|3:0,3:0:0:0:
164,340,151529,5,6,3:0:0:0:
278,304,151866,2,0,P|284:264|279:225,1,79.9999999999999,0|0,0:0|0:0,0:0:0:0:
338,120,152540,1,0,0:0:0:0:
450,160,152877,1,8,0:0:0:0:
0,16,154225,6,0,P|80:19|120:2,1,120,2|2,3:2|0:0,0:0:0:0:
172,26,154900,2,0,P|169:106|186:146,1,120,2|2,0:0|0:0,0:0:0:0:
229,180,155574,2,0,P|309:177|349:194,1,120,10|2,0:0|0:0,0:0:0:0:
401,212,156248,2,0,P|404:292|387:332,1,120,2|2,0:0|0:0,0:0:0:0:
335,354,156922,1,12,3:0:0:0:
238,283,157259,2,0,L|153:257,2,79.9999999999999,0|0|0,0:0|0:0|0:0,0:0:0:0:
357,268,158270,1,8,0:0:0:0:
490,20,159619,6,0,P|410:17|370:34,1,120,2|2,3:2|0:0,0:0:0:0:
339,80,160293,2,0,P|342:160|325:200,1,120,2|2,0:0|0:0,0:0:0:0:
274,224,160967,2,0,P|194:221|154:238,1,120,10|2,0:0|0:0,0:0:0:0:
102,256,161641,2,0,P|99:336|116:376,1,120,2|2,0:0|0:0,0:0:0:0:
173,369,162315,1,6,3:0:0:0:
250,277,162652,6,0,L|272:190,2,79.9999999999999,0|0|0,0:0|0:0|0:0,0:0:0:0:
145,217,163664,1,8,0:0:0:0:
41,155,164001,2,0,L|50:249,1,79.9999999999999,0|0,0:0|0:0,0:0:0:0:
257,352,165012,6,0,P|286:358|377:330,1,120,2|2,3:2|0:0,0:0:0:0:
424,306,165686,2,0,P|430:277|402:186,1,120,2|2,0:0|0:0,0:0:0:0:
346,188,166360,2,0,P|317:194|226:166,1,120,10|0,0:0|0:0,0:0:0:0:
210,114,167034,2,0,L|125:122,1,79.9999999999999,2|2,0:0|0:0,0:0:0:0:
44,37,167709,2,0,B|131:47|205:16|206:3|275:-11|360:38,1,320,12|8,3:0|0:0,0:0:0:0:
171,344,170068,5,2,2:0:0:0:
290,330,170405,2,0,P|291:263|143:224,1,240,12|0,3:0|0:0,0:0:0:0:
43,162,171753,6,0,B|23:204|53:243|65:244|75:280|66:315,1,160,10|2,0:0|0:0,0:0:0:0:
306,309,173102,2,0,P|393:351|472:361,1,160,6|0,3:0|0:0,0:0:0:0:
482,243,174113,1,0,0:0:0:0:
482,243,174450,2,0,P|475:196|455:155,1,79.9999999999999,8|0,0:0|0:0,0:0:0:0:
404,61,175124,2,0,P|360:43|315:40,1,79.9999999999999,0|0,2:0|2:0,2:0:0:0:
236,117,175798,6,0,L|226:206,2,79.9999999999999,0|0|0,3:0|0:0|0:0,0:0:0:0:
317,205,176810,1,0,0:0:0:0:
318,325,177147,6,0,P|259:304|200:308,1,106.666666666667,10|2,0:0|0:0,0:0:0:0:
144,267,177821,2,0,P|85:288|28:282,1,106.666666666667,2|2,0:0|0:0,0:0:0:0:
6,214,178495,1,12,3:0:0:0:
6,214,178832,2,0,L|88:196,1,79.9999999999999,0|0,0:0|0:0,0:0:0:0:
165,285,179506,1,0,0:0:0:0:
261,356,179843,1,10,0:0:0:0:
261,356,180180,2,0,L|346:377,2,79.9999999999999,2|2|2,0:0|0:0|0:0,0:0:0:0:
365,296,181192,2,0,B|374:250|349:208|336:204|324:155|327:115|369:57,1,240,2|0,3:2|0:0,0:0:0:0:
251,20,182540,5,10,0:0:0:0:
35,126,183214,1,2,0:0:0:0:
135,344,183888,6,2,B|183:300|111:188|111:188|219:151|208:17|208:17|392:91|239:299|239:299|392:327|388:222|388:222|490:135|455:54|421:31,1,1151.99996484375,4|10,3:0|0:0,0:0:0:0:
428,45,189282,6,2,B|372:130|294:182|294:182|215:139|174:69|174:69|97:143|21:172|21:172|6:292|77:329|77:329|126:293|161:218|161:218|218:328|282:350|314:347,1,1055.99996777344,6|2,3:0|0:0,0:0:0:0:
406,254,193326,5,10,0:0:0:0:
209,43,194001,2,0,P|156:39|105:37,1,95.9999970703125,2|0,0:0|0:0,0:0:0:0:
62,146,194675,5,4,3:0:0:0:
175,263,195012,1,4,3:0:0:0:
324,198,195349,1,4,3:0:0:0:
329,34,195686,1,4,3:0:0:0:
329,34,196023,2,0,P|407:75|469:270,1,287.999991210937,8|0,0:0|0:0,0:0:0:0:
338,201,197371,6,2,B|376:338|281:365|281:365|188:310|238:237|238:237|151:213|99:247,1,479.999985351562,6|0,3:0|0:0,0:0:0:0:
486,18,200068,5,4,3:0:0:0:
449,177,200405,1,4,3:0:0:0:
286,195,200742,1,4,3:0:0:0:
183,67,201079,1,4,3:0:0:0:
183,67,201416,2,0,P|192:194|70:277,1,287.999991210937,8|2,0:0|0:0,0:0:0:0:
58,114,202765,2,2,B|108:154|141:307|141:307|210:204|260:216|260:216|243:154|181:65|326:2|464:75|370:213,1,767.9999765625,6|2,3:0|0:0,0:0:0:0:
