osu file format v14

[General]
AudioFilename: audio.mp3
AudioLeadIn: 0
PreviewTime: 151529
Countdown: 0
SampleSet: Soft
StackLeniency: 0.4
Mode: 2
LetterboxInBreaks: 0
WidescreenStoryboard: 1

[Editor]
Bookmarks: 108383,193326
DistanceSpacing: 1.2
BeatDivisor: 4
GridSize: 16
TimelineZoom: 2.999999

[Metadata]
Title:SLOW DANCING IN THE DARK
TitleUnicode:SLOW DANCING IN THE DARK
Artist:Joji
ArtistUnicode:Joji
Creator:Mayflower
Version:LIYUU'S SALAD
Source:
Tags:ballads1 1 english filthy frank papa franku george miller pink guy 88rising ambient dance R&B Soul Hip Hop hiphop Yeah Right Can't Get Over You cant Patrick Wimberly Francisco Frankie Ramirez Chris Athens eiri- ayyri em0nky emonky marblelemons thepython JeirYagtama jieryagtama Jeirin Liyac cyanine californian darknessofblue Jemzuu AJamez
BeatmapID:2260856
BeatmapSetID:902215

[Difficulty]
HPDrainRate:5
CircleSize:3.2
OverallDifficulty:7
ApproachRate:7
SliderMultiplier:1.4
SliderTickRate:0.5

[Events]
//Background and Video events
0,0,"SLOW DANCING BACKGROUND POG.jpg",0,0
//Break Periods
//Storyboard Layer 0 (Background)
//Storyboard Layer 1 (Fail)
//Storyboard Layer 2 (Pass)
//Storyboard Layer 3 (Foreground)
//Storyboard Layer 4 (Overlay)
//Storyboard Sound Samples

[TimingPoints]
518,337.078651685393,4,2,1,50,1,0
798,-100,4,2,1,5,0,0
855,-100,4,2,1,50,0,0
1135,-100,4,2,1,5,0,0
1192,-100,4,2,1,50,0,0
1473,-100,4,2,1,5,0,0
1529,-100,4,2,1,50,0,0
1810,-100,4,2,1,5,0,0
1866,-100,4,2,1,50,0,0
2147,-100,4,2,1,5,0,0
2203,-100,4,2,1,50,0,0
2484,-100,4,2,1,5,0,0
2540,-100,4,2,1,50,0,0
3495,-100,4,2,1,5,0,0
3551,-100,4,2,1,50,0,0
3832,-100,4,2,1,5,0,0
3888,-100,4,2,1,50,0,0
4169,-100,4,2,1,5,0,0
4225,-100,4,2,1,50,0,0
4506,-100,4,2,1,5,0,0
4562,-100,4,2,1,50,0,0
4843,-100,4,2,1,5,0,0
4900,-100,4,2,1,50,0,0
5180,-100,4,2,1,5,0,0
5237,-100,4,2,1,50,0,0
5517,-100,4,2,1,5,0,0
5574,-100,4,2,1,50,0,0
6192,-100,4,2,1,5,0,0
6248,-100,4,2,1,50,0,0
6529,-100,4,2,1,5,0,0
6585,-100,4,2,1,50,0,0
6866,-100,4,2,1,5,0,0
6922,-100,4,2,1,50,0,0
7203,-100,4,2,1,5,0,0
7259,-100,4,2,1,50,0,0
7540,-100,4,2,1,5,0,0
7596,-100,4,2,1,50,0,0
7877,-100,4,2,1,5,0,0
7933,-100,4,2,1,50,0,0
8888,-100,4,2,1,5,0,0
8944,-100,4,2,1,50,0,0
9225,-100,4,2,1,5,0,0
9282,-100,4,2,1,50,0,0
9562,-100,4,2,1,5,0,0
9619,-100,4,2,1,50,0,0
9900,-100,4,2,1,5,0,0
9956,-100,4,2,1,50,0,0
10237,-100,4,2,1,5,0,0
10293,-100,4,2,1,50,0,0
10967,-100,4,2,1,5,0,0
11304,-100,4,2,1,50,0,0
11585,-100,4,2,1,5,0,0
11641,-100,4,2,1,50,0,0
11922,-100,4,2,1,5,0,0
11978,-100,4,2,1,50,0,0
12259,-100,4,2,1,5,0,0
12315,-100,4,2,1,50,0,0
12933,-100,4,2,1,5,0,0
12989,-100,4,2,1,50,0,0
13270,-100,4,2,1,5,0,0
13326,-100,4,2,1,50,0,0
13607,-100,4,2,1,5,0,0
13664,-100,4,2,1,50,0,0
14282,-100,4,2,1,5,0,0
14338,-100,4,2,1,50,0,0
14619,-100,4,2,1,5,0,0
14675,-100,4,2,1,50,0,0
14956,-100,4,2,1,5,0,0
15012,-100,4,2,1,50,0,0
15293,-100,4,2,1,5,0,0
15349,-100,4,2,1,50,0,0
16978,-100,4,2,1,5,0,0
17034,-100,4,2,1,50,0,0
17315,-100,4,2,1,5,0,0
17371,-100,4,2,1,50,0,0
17652,-100,4,2,1,5,0,0
17709,-100,4,2,1,50,0,0
17989,-100,4,2,1,5,0,0
18046,-100,4,2,1,50,0,0
19001,-100,4,2,1,5,0,0
19057,-100,4,2,1,50,0,0
19647,-100,4,2,1,5,0,0
19731,-100,4,2,1,50,0,0
19984,-100,4,2,1,5,0,0
20068,-100,4,2,1,50,0,0
20321,-100,4,2,1,5,0,0
20405,-100,4,2,1,50,0,0
20658,-100,4,2,1,5,0,0
20742,-100,4,2,1,50,0,0
22371,-100,4,2,1,5,0,0
22428,-100,4,2,1,50,0,0
22709,-100,4,2,1,5,0,0
22765,-100,4,2,1,50,0,0
23439,-86.9565217391304,4,2,1,50,0,0
25068,-100,4,2,1,5,0,0
25124,-100,4,2,1,50,0,0
25405,-100,4,2,1,5,0,0
25461,-100,4,2,1,50,0,0
25742,-100,4,2,1,5,0,0
25798,-100,4,2,1,50,0,0
26079,-100,4,2,1,5,0,0
26135,-100,4,2,1,50,0,0
26416,-100,4,2,1,5,0,0
26473,-100,4,2,1,50,0,0
27091,-100,4,2,1,5,0,0
27147,-100,4,2,1,50,0,0
27428,-100,4,2,1,5,0,0
27484,-100,4,2,1,50,0,0
27765,-100,4,2,1,5,0,0
27821,-100,4,2,1,50,0,0
28102,-100,4,2,1,5,0,0
28158,-100,4,2,1,50,0,0
28776,-100,4,2,1,5,0,0
28832,-100,4,2,1,50,0,0
30461,-100,4,2,1,5,0,0
30517,-100,4,2,1,50,0,0
30798,-100,4,2,1,5,0,0
30855,-100,4,2,1,50,0,0
31135,-100,4,2,1,5,0,0
31192,-100,4,2,1,50,0,0
31473,-100,4,2,1,5,0,0
31529,-100,4,2,1,50,0,0
33158,-100,4,2,1,5,0,0
33214,-100,4,2,1,50,0,0
34506,-100,4,2,1,5,0,0
34562,-100,4,2,1,50,0,0
34843,-100,4,2,1,5,0,0
34900,-100,4,2,1,50,0,0
35180,-100,4,2,1,5,0,0
35237,-100,4,2,1,50,0,0
35855,-100,4,2,1,5,0,0
35911,-100,4,2,1,50,0,0
36192,-100,4,2,1,5,0,0
36248,-100,4,2,1,50,0,0
36529,-100,4,2,1,5,0,0
36585,-100,4,2,1,50,0,0
36866,-100,4,2,1,5,0,0
36922,-100,4,2,1,50,0,0
37203,-100,4,2,1,5,0,0
37259,-100,4,2,1,50,0,0
37540,-100,4,2,1,5,0,0
37596,-100,4,2,1,50,0,0
37877,-100,4,2,1,5,0,0
37933,-100,4,2,1,50,0,0
38214,-100,4,2,1,5,0,0
38270,-100,4,2,1,50,0,0
38551,-100,4,2,1,5,0,0
38607,-100,4,2,1,50,0,0
38888,-100,4,2,1,5,0,0
38944,-100,4,2,1,50,0,0
39225,-100,4,2,1,5,0,0
39282,-100,4,2,1,50,0,0
39562,-100,4,2,1,5,0,0
39619,-100,4,2,1,50,0,0
40911,-100,4,2,1,5,0,0
40967,-100,4,2,1,50,0,0
41248,-100,4,2,1,5,0,0
41304,-100,4,2,1,50,0,0
41585,-100,4,2,1,5,0,0
41641,-100,4,2,1,50,0,0
41922,-100,4,2,1,5,0,0
41978,-100,4,2,1,50,0,0
42259,-100,4,2,1,5,0,0
42315,-100,4,2,1,50,0,0
43326,-100,4,2,1,20,0,0
43664,-100,4,2,1,50,0,0
43944,-100,4,2,1,5,0,0
44001,-100,4,2,1,50,0,0
44282,-100,4,2,1,5,0,0
44338,-100,4,2,1,50,0,0
44619,-100,4,2,1,5,0,0
44675,-100,4,2,1,50,0,0
44956,-100,4,2,1,5,0,0
45012,-100,4,2,1,50,0,0
45293,-100,4,2,1,5,0,0
45349,-100,4,2,1,50,0,0
45630,-100,4,2,1,5,0,0
45686,-100,4,2,1,50,0,0
45967,-100,4,2,1,5,0,0
46023,-100,4,2,1,50,0,0
46304,-100,4,2,1,5,0,0
46360,-100,4,2,1,50,0,0
49338,-100,4,2,1,5,0,0
49394,-100,4,2,1,50,0,0
49675,-100,4,2,1,5,0,0
49731,-100,4,2,1,50,0,0
50012,-100,4,2,1,5,0,0
50068,-100,4,2,1,50,0,0
50349,-100,4,2,1,5,0,0
50405,-100,4,2,1,50,0,0
50686,-100,4,2,1,5,0,0
50742,-100,4,2,1,50,0,0
51023,-100,4,2,1,5,0,0
51079,-100,4,2,1,50,0,0
51697,-100,4,2,1,5,0,0
51753,-100,4,2,1,50,0,0
54731,-100,4,2,1,5,0,0
54787,-100,4,2,1,50,0,0
55068,-100,4,2,1,5,0,0
55124,-100,4,2,1,50,0,0
55405,-100,4,2,1,5,0,0
55461,-100,4,2,1,50,0,0
55742,-100,4,2,1,5,0,0
55798,-100,4,2,1,50,0,0
56079,-100,4,2,1,5,0,0
56135,-100,4,2,1,50,0,0
57091,-100,4,2,1,5,0,0
57147,-100,4,2,1,50,0,0
57428,-100,4,2,1,5,0,0
57484,-100,4,2,1,50,0,0
57765,-100,4,2,1,5,0,0
57821,-100,4,2,1,50,0,0
58102,-100,4,2,1,5,0,0
58158,-100,4,2,1,50,0,0
58439,-100,4,2,1,5,0,0
58495,-100,4,2,1,50,0,0
60124,-100,4,2,1,5,0,0
60180,-100,4,2,1,50,0,0
60461,-100,4,2,1,5,0,0
60517,-100,4,2,1,50,0,0
60798,-100,4,2,1,5,0,0
60855,-100,4,2,1,50,0,0
61135,-100,4,2,1,5,0,0
61192,-100,4,2,1,50,0,0
65237,-100,4,2,3,50,0,0
65349,-100,4,2,1,50,0,0
65461,-100,4,2,4,50,0,0
66585,-100,4,2,1,50,0,0
66697,-100,4,2,4,50,0,0
67933,-100,4,1,1,50,0,0
70630,-100,4,2,3,50,0,0
70742,-100,4,2,4,50,0,0
71978,-100,4,2,4,50,0,0
72428,-100,4,2,4,50,0,0
72652,-100,4,2,4,50,0,0
72765,-100,4,2,4,50,0,0
73326,-100,4,1,1,50,0,0
76023,-100,4,2,3,50,0,0
76135,-100,4,2,4,50,0,0
77371,-100,4,2,1,50,0,0
77484,-100,4,2,4,50,0,0
77821,-100,4,2,4,50,0,0
78046,-100,4,2,4,50,0,0
78158,-100,4,2,4,50,0,0
78383,-100,4,2,4,50,0,0
78720,-100,4,2,1,50,0,0
81416,-100,4,2,3,50,0,0
81529,-100,4,2,4,50,0,0
82765,-100,4,2,1,50,0,0
82877,-100,4,2,4,50,0,0
83102,-100,4,2,1,50,0,0
83214,-100,4,2,4,50,0,0
83439,-100,4,2,1,50,0,0
83551,-100,4,2,4,50,0,0
83776,-100,4,2,1,50,0,0
84113,-100,4,2,3,50,0,0
84225,-100,4,2,4,50,0,0
85405,-100,4,2,1,50,0,0
86810,-100,4,2,3,50,0,0
86922,-100,4,2,4,50,0,0
88158,-100,4,2,1,50,0,0
88270,-100,4,2,4,50,0,0
89506,-100,4,2,1,50,0,0
89619,-100,4,2,4,50,0,0
90855,-100,4,1,1,50,0,0
92203,-100,4,2,3,50,0,0
92652,-100,4,2,1,5,0,0
92709,-100,4,2,1,50,0,0
95349,-100,4,2,1,5,0,0
95405,-100,4,2,1,50,0,0
97596,-80,4,2,2,70,0,1
102610,-80,4,2,2,5,0,1
102652,-80,4,2,2,70,0,1
108383,-100,4,2,1,50,0,0
108664,-100,4,2,1,5,0,0
108720,-100,4,2,1,50,0,0
109001,-100,4,2,1,5,0,0
109057,-100,4,2,1,50,0,0
111360,-100,4,2,1,5,0,0
111416,-100,4,2,1,50,0,0
111697,-100,4,2,1,5,0,0
111753,-100,4,2,1,50,0,0
112034,-100,4,2,1,5,0,0
112091,-100,4,2,1,50,0,0
112371,-100,4,2,1,5,0,0
112428,-100,4,2,1,50,0,0
112709,-100,4,2,1,5,0,0
112765,-100,4,2,1,50,0,0
113383,-100,4,2,1,5,0,0
113439,-100,4,2,1,50,0,0
113720,-100,4,2,1,5,0,0
113776,-100,4,2,1,50,0,0
114057,-100,4,2,1,5,0,0
114113,-100,4,2,1,50,0,0
114394,-100,4,2,1,5,0,0
114450,-100,4,2,1,50,0,0
114731,-100,4,2,1,5,0,0
114787,-100,4,2,1,50,0,0
115068,-100,4,2,1,5,0,0
115124,-100,4,2,1,50,0,0
116753,-100,4,2,1,5,0,0
116810,-100,4,2,1,50,0,0
117091,-100,4,2,1,5,0,0
117147,-100,4,2,1,50,0,0
117428,-100,4,2,1,5,0,0
117484,-100,4,2,1,50,0,0
117765,-100,4,2,1,5,0,0
117821,-100,4,2,1,50,0,0
119113,-100,4,2,1,5,0,0
119169,-100,4,2,1,50,0,0
119450,-100,4,2,1,5,0,0
119506,-100,4,2,1,50,0,0
119787,-100,4,2,1,5,0,0
119843,-100,4,2,1,50,0,0
120124,-100,4,2,1,5,0,0
120180,-100,4,2,1,50,0,0
120461,-100,4,2,1,5,0,0
120517,-100,4,2,1,50,0,0
120798,-100,4,2,1,5,0,0
120855,-100,4,2,1,50,0,0
121135,-100,4,2,1,5,0,0
121192,-100,4,2,1,50,0,0
121473,-100,4,2,1,5,0,0
121529,-100,4,2,1,50,0,0
122147,-100,4,2,1,5,0,0
122203,-100,4,2,1,50,0,0
122484,-100,4,2,1,5,0,0
122540,-100,4,2,1,50,0,0
122821,-100,4,2,1,5,0,0
122877,-100,4,2,1,50,0,0
123158,-100,4,2,1,5,0,0
123214,-100,4,2,1,50,0,0
123495,-100,4,2,1,5,0,0
123551,-100,4,2,1,50,0,0
123832,-100,4,2,1,5,0,0
123888,-100,4,2,1,50,0,0
124169,-100,4,2,1,5,0,0
124225,-100,4,2,1,50,0,0
124506,-100,4,2,1,5,0,0
124562,-100,4,2,1,50,0,0
124843,-100,4,2,1,5,0,0
124900,-100,4,2,1,50,0,0
125180,-100,4,2,1,5,0,0
125237,-100,4,2,1,50,0,0
125517,-100,4,2,1,5,0,0
125574,-100,4,2,1,50,0,0
125855,-100,4,2,1,5,0,0
125911,-100,4,2,1,50,0,0
127540,-100,4,2,1,5,0,0
127596,-100,4,2,1,50,0,0
127877,-100,4,2,1,5,0,0
127933,-100,4,2,1,50,0,0
128214,-100,4,2,1,5,0,0
128270,-100,4,2,1,50,0,0
128551,-100,4,2,1,5,0,0
128607,-100,4,2,1,50,0,0
129619,-100,4,2,1,15,0,0
129956,-100,4,2,1,50,0,0
130237,-100,4,2,1,5,0,0
130293,-100,4,2,1,50,0,0
130574,-100,4,2,1,5,0,0
130630,-100,4,2,1,50,0,0
130911,-100,4,2,1,5,0,0
130967,-100,4,2,1,50,0,0
131248,-100,4,2,1,5,0,0
131304,-100,4,2,1,50,0,0
132933,-100,4,2,1,5,0,0
132989,-100,4,2,1,50,0,0
133270,-100,4,2,1,5,0,0
133326,-100,4,2,1,50,0,0
133607,-100,4,2,1,5,0,0
133664,-100,4,2,1,50,0,0
133944,-100,4,2,1,5,0,0
134001,-100,4,2,1,50,0,0
135630,-100,4,2,1,5,0,0
135686,-100,4,2,1,50,0,0
135967,-100,4,2,1,5,0,0
136023,-100,4,2,1,50,0,0
136304,-100,4,2,1,5,0,0
136360,-100,4,2,1,50,0,0
136641,-100,4,2,1,5,0,0
136697,-100,4,2,1,50,0,0
136978,-100,4,2,1,5,0,0
137034,-100,4,2,1,50,0,0
137315,-100,4,2,1,5,0,0
137371,-100,4,2,1,50,0,0
137652,-100,4,2,1,5,0,0
137709,-100,4,2,1,50,0,0
138326,-100,4,2,1,5,0,0
138383,-100,4,2,1,50,0,0
138664,-100,4,2,1,5,0,0
138720,-100,4,2,1,50,0,0
139001,-100,4,2,1,5,0,0
139057,-100,4,2,1,50,0,0
139338,-100,4,2,1,5,0,0
139394,-100,4,2,1,50,0,0
140686,-100,4,2,1,5,0,0
140742,-100,4,2,1,50,0,0
141023,-100,4,2,1,5,0,0
141079,-100,4,2,1,50,0,0
141360,-100,4,2,1,5,0,0
141416,-100,4,2,1,50,0,0
141697,-100,4,2,1,5,0,0
141753,-100,4,2,1,50,0,0
142034,-100,4,2,1,5,0,0
142091,-100,4,2,1,50,0,0
143720,-100,4,2,1,5,0,0
143776,-100,4,2,1,50,0,0
144057,-100,4,2,1,5,0,0
144113,-100,4,2,1,50,0,0
144394,-100,4,2,1,5,0,0
144450,-100,4,2,1,50,0,0
144731,-100,4,2,1,5,0,0
144787,-100,4,2,1,50,0,0
146135,-100,4,2,4,50,0,0
150517,-100,4,2,1,50,0,0
150855,-100,4,2,3,50,0,0
152877,-100,4,2,1,50,0,0
156922,-100,4,2,3,50,0,0
158270,-100,4,2,1,50,0,0
162315,-100,4,2,3,50,0,0
163664,-100,4,2,1,50,0,0
167709,-100,4,2,3,50,0,0
169057,-100,4,2,1,50,0,0
170405,-100,4,2,3,50,0,0
171669,-100,4,2,1,50,0,0
173102,-100,4,2,3,50,0,0
174450,-100,4,2,1,50,0,0
178495,-100,4,2,3,50,0,0
178944,-100,4,2,1,50,0,0
183888,-100,4,2,2,80,0,1
188551,-100,4,2,2,5,0,1
188607,-100,4,2,2,80,0,1
193326,-100,4,2,2,80,0,0
194675,-100,4,2,2,80,0,1
196023,-100,4,2,2,80,0,0
197371,-83.3333333333333,4,2,2,80,0,1
199310,-100,4,2,2,5,0,1
199394,-100,4,2,2,80,0,0
200068,-100,4,2,2,80,0,1
204900,-100,4,2,2,80,0,1
204956,-100,4,2,2,80,0,1
205461,-100,4,2,2,5,0,0

[Colours]
Combo1 : 174,86,233
Combo2 : 176,83,179
Combo3 : 138,90,177
Combo4 : 100,102,189

[HitObjects]
337,103,518,5,2,3:2:0:0:
140,46,1192,1,2,0:0:0:0:
207,34,1529,1,2,0:0:0:0:
275,24,1866,1,10,0:1:0:0:
492,134,2540,1,2,0:1:0:0:
404,119,2877,1,2,0:1:0:0:
123,21,3214,5,2,3:2:0:0:
313,278,3888,2,0,P|268:303|190:264,1,140,2|2,0:0|0:0,0:0:0:0:
24,170,4562,2,0,B|60:189|88:163|123:170|123:170|153:132,2,140,10|2|2,0:1|0:1|2:1,0:0:0:0:
468,325,5911,5,2,3:2:0:0:
270,369,6585,1,2,0:0:0:0:
203,357,6922,1,2,0:0:0:0:
135,347,7259,1,10,0:1:0:0:
339,254,7933,1,2,0:1:0:0:
415,241,8270,1,2,0:1:0:0:
136,377,8607,5,2,3:2:0:0:
372,348,9282,2,0,P|324:319|235:338,1,140,2|2,0:0|0:0,0:0:0:0:
403,48,9956,2,0,P|442:81|450:296,1,280,10|2,0:1|1:0,0:0:0:0:
47,345,11304,5,2,3:2:0:0:
297,215,11978,1,2,0:0:0:0:
304,285,12315,1,2,0:0:0:0:
311,354,12652,1,10,0:1:0:0:
115,39,13326,1,2,0:1:0:0:
107,116,13664,1,2,0:1:0:0:
397,235,14001,5,2,3:2:0:0:
272,258,14675,1,2,0:0:0:0:
280,181,15012,1,2,0:0:0:0:
460,77,15349,2,0,B|421:66|390:59|390:59|357:92|317:92,2,140,10|0|0,0:0|1:0|1:0,0:0:0:0:
48,36,16697,5,2,3:2:0:0:
236,8,17371,1,2,0:0:0:0:
243,77,17709,1,2,0:0:0:0:
250,147,18046,1,10,0:1:0:0:
459,189,18720,1,0,0:0:0:0:
50,364,19394,5,2,3:2:0:0:
20,264,19731,1,2,0:0:0:0:
43,163,20068,1,2,0:0:0:0:
113,86,20405,1,2,0:0:0:0:
212,55,20742,1,10,0:0:0:0:
59,16,21079,1,0,0:0:0:0:
172,231,21753,1,0,3:0:0:0:
461,77,22091,5,6,3:2:0:0:
200,27,22765,2,0,P|184:67|253:146,1,140,2|2,1:0|1:0,0:0:0:0:
380,355,23439,2,0,P|428:317|370:355,1,322.000006141663,10|2,0:0|2:0,0:0:0:0:
490,300,24450,1,2,2:0:0:0:
210,348,24787,5,0,3:2:0:0:
348,309,25798,2,0,P|292:324|215:273,1,140,2|10,1:0|1:0,0:0:0:0:
94,148,26473,2,0,P|126:184|17:364,1,280,2|2,1:0|0:1,0:0:0:0:
315,49,27484,5,2,3:2:0:0:
173,5,28158,1,2,0:0:0:0:
186,94,28495,1,2,0:0:0:0:
348,119,28832,1,10,0:0:0:0:
66,233,29506,1,0,0:0:0:0:
486,71,30180,5,2,3:2:0:0:
349,140,30855,2,0,P|364:88|317:-9,1,140,2|2,0:0|0:0,0:0:0:0:
224,289,31529,2,0,P|360:282|465:371,1,280,10|2,1:0|2:1,0:0:0:0:
37,93,32877,5,2,3:2:0:0:
151,10,33214,2,0,P|119:145|166:275,1,280,2|2,0:0|0:0,0:0:0:0:
291,358,34225,2,0,P|287:287|314:223,2,140,10|2|2,2:1|0:1|0:1,0:0:0:0:
412,308,35237,1,2,0:1:0:0:
116,273,35574,5,0,3:2:0:0:
295,148,36248,2,0,P|299:77|272:13,1,140,2|2,0:0|0:0,0:0:0:0:
413,379,36922,2,0,P|389:333|487:152,1,280,10|2,1:0|0:1,0:0:0:0:
335,348,37933,1,2,0:1:0:0:
60,343,38270,6,0,P|32:299|133:120,1,280,2|2,3:2|0:0,0:0:0:0:
282,136,39282,2,0,P|284:64|253:-3,1,140,2|10,0:0|0:0,0:0:0:0:
18,69,40293,1,2,0:1:0:0:
399,323,40967,6,0,P|423:280|372:343,1,560,2|10,3:2|0:0,0:0:0:0:
498,333,42652,1,0,0:0:0:0:
347,347,43326,1,0,3:0:0:0:
56,382,43664,6,0,P|30:325|242:93,1,420,6|2,3:0|0:0,0:0:0:0:
349,96,45012,1,10,0:0:0:0:
112,97,45686,2,0,P|160:154|235:158,1,140,0|2,0:0|0:1,0:0:0:0:
483,299,46360,5,2,3:1:0:0:
285,340,46866,2,0,L|195:358,1,70,2|2,2:1|0:1,0:0:0:0:
375,262,47540,2,0,L|299:210,1,70,2|10,2:1|1:0,0:0:0:0:
485,225,48214,2,0,L|468:135,1,70,2|2,2:1|0:1,0:0:0:0:
317,222,48888,1,2,2:1:0:0:
108,350,49057,6,0,B|88:311|86:263|128:214|128:214|145:192|202:150|160:63|95:46|35:91|35:157|74:184,1,420,6|2,3:0|0:0,0:0:0:0:
215,290,50405,1,10,0:0:0:0:
403,251,51079,2,0,P|420:318|393:381,1,140,0|2,0:0|0:1,0:0:0:0:
108,350,51753,5,2,3:1:0:0:
284,303,52259,2,0,L|203:288,1,70,2|2,2:1|0:1,0:0:0:0:
80,199,52933,2,0,L|92:268,1,70,2|10,2:1|0:1,0:0:0:0:
232,71,53607,2,0,L|220:140,1,70,2|2,2:1|1:0,0:0:0:0:
40,99,54282,1,2,2:1:0:0:
231,348,54450,6,0,P|252:299|164:373,1,420,6|2,3:0|0:0,0:0:0:0:
346,327,55798,1,10,0:0:0:0:
473,365,56135,2,0,P|495:300|384:134,1,280,2|2,0:1|0:1,0:0:0:0:
92,115,57147,5,2,3:2:0:0:
256,315,57821,2,0,P|193:353|113:354,1,140,2|2,0:0|0:0,0:0:0:0:
240,82,58495,1,10,0:0:0:0:
76,14,58832,2,0,P|49:58|153:247,1,280,2|2,0:1|0:1,0:0:0:0:
434,267,59843,5,4,3:0:0:0:
264,345,60517,1,2,0:0:0:0:
275,275,60855,1,2,0:0:0:0:
285,206,61192,1,10,0:0:0:0:
483,86,61866,1,0,0:0:0:0:
79,153,62540,1,0,3:0:0:0:
256,192,62877,12,2,64562,1:0:0:0:
162,374,65237,6,0,P|138:325|255:157,1,280,6|0,3:0|0:0,0:0:0:0:
378,156,66248,1,0,0:0:0:0:
230,58,66585,2,0,P|199:56|156:4,1,93.3333333333333,8|0,0:0|0:0,0:0:0:0:
158,13,66922,1,0,0:0:0:0:
22,94,67259,2,0,P|26:164|58:225,1,140,0|0,0:0|0:0,0:0:0:0:
339,382,67933,6,0,P|356:339|254:213,1,210,2|2,3:1|0:0,0:0:0:0:
185,257,68607,2,0,P|117:262|58:226,1,140,2|2,0:0|1:0,0:0:0:0:
327,4,69282,2,0,P|291:98|355:175,1,210,10|2,0:1|0:0,0:0:0:0:
461,251,69956,2,0,P|471:319|446:384,1,140,2|0,1:0|0:0,0:0:0:0:
344,356,70461,1,2,0:0:0:0:
152,370,70630,6,0,B|112:360|93:335|64:300|109:240|159:225|188:246|196:275|238:283|277:264,1,280,12|0,3:0|0:0,0:0:0:0:
401,267,71641,1,0,0:0:0:0:
217,188,71978,2,0,P|173:241|173:310,1,140,8|0,0:0|0:0,0:0:0:0:
350,71,72652,2,0,P|420:76|473:121,1,140,0|0,0:0|0:0,0:0:0:0:
190,19,73326,6,0,P|304:38|350:127,1,210,2|2,3:1|0:0,0:0:0:0:
261,183,74001,2,0,P|194:169|153:114,1,140,2|2,0:0|0:0,0:0:0:0:
437,52,74675,2,0,P|452:109|340:207,1,210,10|2,0:0|0:0,0:0:0:0:
446,379,75349,2,0,B|454:273|454:273|428:292|408:292,1,140,2|0,0:0|0:0,0:0:0:0:
318,343,75855,1,2,0:0:0:0:
113,366,76023,6,0,B|48:306|33:160|156:36|277:174|176:273,1,420,6|0,3:0|0:0,0:0:0:0:
28,76,77371,2,0,P|81:61|117:25,1,93.3333333333333,8|0,0:0|0:0,0:0:0:0:
144,8,77709,1,0,0:0:0:0:
290,38,78046,2,0,B|208:21|140:92,1,140,0|2,0:0|2:0,0:0:0:0:
410,291,78720,6,0,B|419:258|407:230|351:245|351:245|280:228|273:174|293:139,1,210,2|2,3:1|1:1,0:0:0:0:
392,0,79394,2,0,P|422:61|411:129,1,140,2|2,1:1|1:0,0:0:0:0:
122,329,80068,2,0,P|99:284|182:143,1,210,10|2,1:1|1:1,0:0:0:0:
251,346,80742,2,0,P|189:316|122:329,1,140,2|2,0:1|1:0,0:0:0:0:
210,293,81248,1,0,0:0:0:0:
412,355,81416,6,0,P|427:223|317:149,1,280,12|0,3:0|0:0,0:0:0:0:
133,284,82428,1,0,0:0:0:0:
258,228,82765,2,0,P|232:292|238:361,1,140,8|0,0:0|1:0,0:0:0:0:
56,29,83439,2,0,P|82:94|75:163,1,140,0|0,1:0|1:0,0:0:0:0:
364,317,84113,6,0,P|281:211|151:234,1,280,8|0,3:0|0:0,0:0:0:0:
297,370,85461,2,0,P|168:322|30:338,1,280,10|2,0:0|0:0,0:0:0:0:
460,304,86810,6,0,P|481:253|347:89,1,280,6|0,3:0|0:0,0:0:0:0:
193,264,87821,1,0,0:0:0:0:
325,25,88158,2,0,P|310:64|309:126,1,93.3333333333333,8|0,0:0|0:0,0:0:0:0:
315,165,88495,1,0,0:0:0:0:
475,354,88832,2,0,P|492:300|441:206,1,140,0|0,0:0|0:0,0:0:0:0:
173,294,89506,6,0,P|72:206|97:73,1,280,0|0,3:0|0:0,0:0:0:0:
222,22,90517,1,0,0:0:0:0:
495,135,90855,2,0,P|425:127|367:89,1,140,10|2,0:0|0:0,0:0:0:0:
163,205,91529,2,0,P|95:189|30:210,1,140,2|2,0:0|0:0,0:0:0:0:
312,375,92203,6,0,P|331:316|239:208,1,210,12|0,3:0|0:0,0:0:0:0:
40,191,93551,2,0,P|106:169|174:186,1,140,10|2,0:0|0:0,0:0:0:0:
367,295,94225,2,0,P|436:286|495:249,1,140,2|2,0:0|0:0,0:0:0:0:
227,59,94900,2,0,B|126:62|148:130|17:93,1,210,2|2,3:2|0:0,0:0:0:0:
307,80,96248,5,10,0:1:0:0:
50,17,96922,1,2,0:1:0:0:
444,339,97596,6,0,B|503:294|479:189|446:166|392:145|446:196|356:174|327:87|340:50|375:-5|423:-8|469:6|485:40|485:40|467:17|423:-8|375:-5|379:44|340:50|288:37|266:15,1,700,4|8,3:0|0:0,0:0:0:0:
446,67,99956,1,0,0:0:0:0:
122,341,100293,6,0,B|38:297|98:281|21:225|21:225|67:226|173:184|182:58|132:19|132:19|38:28|10:113|26:179|93:214,1,700,4|8,3:0|0:0,0:0:0:0:
281,201,102315,2,0,P|196:206|143:273,1,175,2|0,0:0|0:0,0:0:0:0:
418,17,102989,6,0,B|356:47|309:205|379:305|434:324|434:324|379:305|297:323|297:323|266:197|266:197|325:197|358:186,1,700,4|8,3:0|0:0,0:0:0:0:
481,14,105349,1,0,0:0:0:0:
175,199,105686,6,0,B|147:209|114:268|161:334|200:344|200:344|238:299|256:229|219:178|179:172|129:186|95:166|95:166|179:172|210:122|233:65|191:4,1,700,4|8,3:0|0:0,0:0:0:0:
31,363,107709,2,0,P|72:341|209:347,1,175,0|0,0:0|0:0,0:0:0:0:
481,363,108383,5,2,3:2:0:0:
332,342,108720,2,0,P|314:273|342:190,1,140,2|2,0:0|0:1,0:0:0:0:
473,162,109394,1,2,0:1:0:0:
322,87,109731,2,0,P|254:104|271:279,1,280,10|0,0:0|0:0,0:0:0:0:
408,309,110742,1,0,0:0:0:0:
234,346,111079,6,0,L|77:321,1,140,2|2,3:2|0:0,0:0:0:0:
248,220,111753,2,0,L|390:204,1,140,2|2,0:0|0:1,0:0:0:0:
220,171,112428,1,10,1:0:0:0:
389,111,112765,2,0,P|431:153|307:292,1,280,2|2,0:1|0:1,0:0:0:0:
65,350,113776,6,0,P|31:307|182:199,1,280,2|2,3:2|0:0,0:0:0:0:
24,142,114787,1,2,2:0:0:0:
175,75,115124,2,0,L|316:57,3,140,10|0|0|0,0:0|0:0|0:0|0:0,0:0:0:0:
141,94,116473,2,0,P|108:133|260:235,1,280,2|2,3:2|0:0,0:0:0:0:
390,257,117484,1,2,0:0:0:0:
226,348,117821,6,0,L|227:199,1,140,10|2,1:1|1:0,0:0:0:0:
390,202,118495,2,0,P|451:182|451:87,1,140,2|2,1:0|1:0,0:0:0:0:
170,65,119169,6,0,P|271:70|263:323,1,420,2|2,3:2|0:0,0:0:0:0:
112,338,120517,2,0,L|83:177,3,140,10|0|0|0,0:0|0:0|0:0|0:0,0:0:0:0:
259,191,121866,2,0,P|305:153|116:18,1,420,2|2,3:2|0:0,0:0:0:0:
285,43,123214,2,0,L|432:17,1,140,10|2,2:1|2:1,0:0:0:0:
257,161,123888,2,0,L|97:129,1,140,2|2,2:1|2:1,0:0:0:0:
425,95,124562,6,0,P|475:140|361:90,1,560,2|10,3:2|0:0,0:0:0:0:
470,146,126248,1,0,1:0:0:0:
450,288,126585,1,0,1:0:0:0:
322,317,126922,1,0,1:0:0:0:
42,323,127259,6,0,P|25:271|257:260,1,420,2|2,3:2|0:0,0:0:0:0:
150,301,128607,1,8,0:0:0:0:
11,331,128944,2,0,P|1:275|172:132,1,280,0|0,1:0|3:0,0:0:0:0:
437,55,129956,6,0,L|454:224,1,140,2|2,3:2|0:0,0:0:0:0:
286,220,130630,2,0,L|264:364,1,140,2|2,0:0|0:0,0:0:0:0:
85,373,131304,2,0,P|123:334|281:280,1,210,10|2,2:1|2:1,0:0:0:0:
194,250,131978,1,2,2:1:0:0:
47,221,132315,1,2,0:1:0:0:
331,66,132652,6,0,P|414:106|248:268,1,420,2|2,3:2|0:0,0:0:0:0:
426,323,134001,2,0,L|450:180,1,140,10|2,1:0|1:0,0:0:0:0:
279,129,134675,2,0,L|108:116,1,140,2|2,1:0|1:0,0:0:0:0:
447,54,135349,6,0,P|486:91|303:290,1,420,0|2,3:0|0:0,0:0:0:0:
195,228,136697,1,8,0:0:0:0:
190,94,137034,1,0,0:0:0:0:
302,20,137371,1,2,0:0:0:0:
423,77,137709,1,2,0:0:0:0:
150,191,138046,6,0,L|0:184,1,140,2|2,3:2|0:0,0:0:0:0:
143,295,138720,2,0,L|294:304,1,140,2|2,0:0|0:0,0:0:0:0:
111,355,139394,2,0,L|67:204,1,140,8|2,0:0|2:1,0:0:0:0:
92,162,139900,1,2,2:1:0:0:
148,140,140068,1,2,2:1:0:0:
309,126,140405,1,2,2:1:0:0:
25,33,140742,6,0,P|137:62|51:290,1,420,2|2,3:2|0:0,0:0:0:0:
237,333,142091,1,8,0:0:0:0:
66,358,142428,2,0,L|25:201,2,140,2|2|2,2:1|2:1|2:1,2:1:0:0:
367,65,143439,6,0,P|267:68|304:302,1,420,2|2,3:2|0:0,0:0:0:0:
469,331,144787,2,0,L|497:179,1,140,10|2,0:0|2:1,0:0:0:0:
441,154,145293,1,2,2:1:0:0:
370,145,145461,1,2,2:1:0:0:
200,148,145798,1,2,2:1:0:0:
502,43,146135,6,0,P|478:89|255:163,1,280,2|0,3:0|0:0,0:0:0:0:
240,180,146922,1,2,0:0:0:0:
244,226,147034,1,0,0:0:0:0:
290,233,147147,1,2,0:0:0:0:
438,273,147484,5,8,0:0:0:0:
272,341,147821,2,0,L|112:295,1,140,0|2,0:0|0:0,0:0:0:0:
316,240,148495,1,2,0:0:0:0:
30,264,150812,6,0,L|12:196,1,70,0|0,3:0|3:0,3:0:0:0:
122,172,151150,2,0,L|146:101,1,70,0|0,3:0|3:0,3:0:0:0:
357,82,151529,6,0,P|445:250|337:90,1,560,6|8,3:0|0:0,0:0:0:0:
493,322,153551,2,0,L|332:302,1,140,0|0,0:0|0:0,0:0:0:0:
85,362,154225,6,0,P|63:309|174:214,1,210,2|2,3:2|0:0,0:0:0:0:
246,219,154900,2,0,P|268:166|157:71,1,210,2|2,0:0|0:0,0:0:0:0:
88,88,155574,2,0,L|251:59,1,140,10|0,0:0|0:0,0:0:0:0:
302,123,156079,1,2,0:0:0:0:
227,182,156248,1,2,0:0:0:0:
61,231,156585,1,0,0:0:0:0:
356,333,156922,6,0,P|228:328|379:307,1,560,12|8,3:0|0:0,0:0:0:0:
176,340,158944,1,0,0:0:0:0:
477,324,159619,6,0,P|472:262|342:165,1,210,2|2,3:2|0:0,0:0:0:0:
279,153,160293,2,0,P|362:152|441:47,1,210,2|2,0:0|0:0,0:0:0:0:
355,26,160967,1,10,0:0:0:0:
115,93,161473,1,2,0:0:0:0:
193,148,161641,2,0,P|288:169|342:286,1,210,2|2,0:0|0:0,0:0:0:0:
148,334,162315,6,0,P|77:332|184:311,1,560,6|8,3:0|0:0,0:0:0:0:
37,335,164001,2,0,L|36:174,1,140,0|0,0:0|0:0,0:0:0:0:
164,145,164675,1,0,0:0:0:0:
337,124,165012,6,0,P|304:182|162:218,1,210,2|2,3:2|0:0,0:0:0:0:
257,249,165686,2,0,P|358:240|418:327,1,210,2|2,0:0|0:0,0:0:0:0:
332,337,166360,6,0,L|186:327,1,140,10|0,0:0|0:0,0:0:0:0:
242,273,166866,1,0,0:0:0:0:
312,257,167034,1,2,0:0:0:0:
467,260,167371,1,2,0:0:0:0:
173,76,167709,6,0,P|314:109|110:175,1,560,12|8,3:0|0:0,0:0:0:0:
277,211,169394,2,0,L|299:57,1,140
130,58,170068,1,2,2:0:0:0:
308,40,170405,6,0,P|351:76|170:284,1,420,12|0,3:0|0:0,0:0:0:0:
490,330,171753,2,0,L|471:169,1,140,10|0,0:0|0:0,0:0:0:0:
305,102,172428,2,0,P|390:144|406:261,1,210,2|0,0:0|0:0,0:0:0:0:
215,320,173102,6,0,B|83:359|3:294|37:130|161:240|266:173|336:84|106:47,1,560,6|8,3:0|0:0,0:0:0:0:
37,157,174787,1,0,1:0:0:0:
64,295,175124,1,0,1:0:0:0:
182,364,175461,1,0,1:0:0:0:
349,347,175798,6,0,B|141:341|111:123|335:232|536:254|397:47,1,560,0|10,3:0|0:0,0:0:0:0:
199,33,177652,2,0,L|284:20,1,70,2|2,0:0|0:0,0:0:0:0:
433,132,178158,1,2,0:0:0:0:
145,187,178495,6,0,P|12:283|17:343,2,210,12|0|0,3:0|0:0|0:0,0:0:0:0:
289,295,179843,2,0,P|245:202|56:136,1,280,10|2,0:0|0:0,0:0:0:0:
50,269,180855,1,2,0:0:0:0:
217,313,181192,2,0,P|313:234|417:235,2,210,2|2|0,3:2|0:0|0:0,0:0:0:0:
368,358,182540,6,0,P|445:340|497:153,1,280,10|2,0:0|0:0,0:0:0:0:
10,28,183888,6,0,P|178:52|8:274,1,560,4|8,3:0|0:0,0:0:0:0:
15,351,185911,2,0,L|184:352,1,140,0|0,0:0|0:0,0:0:0:0:
431,362,186585,6,0,P|304:343|462:101,1,560,4|10,3:0|0:0,0:0:0:0:
497,44,188607,2,0,L|343:20,1,140,2|0,0:0|0:0,0:0:0:0:
77,47,189282,6,0,P|183:64|63:55,1,560,4|8,3:0|0:0,0:0:0:0:
46,261,191304,2,0,L|32:353,2,70,0|0|0,0:0|0:0|0:0,0:0:0:0:
318,301,191978,6,0,P|151:260|325:274,1,490,4|0,3:0|0:0,0:0:0:0:
249,316,193326,6,0,P|348:312|506:213,1,280,10|2,0:0|0:0,0:0:0:0:
116,261,194675,6,0,P|139:236|173:228,1,70,4|0,3:0|0:0,0:0:0:0:
304,218,195012,2,0,P|287:247|280:281,1,70,4|0,3:0|0:0,0:0:0:0:
231,165,195349,2,0,P|250:135|256:101,1,70,4|0,3:0|0:0,0:0:0:0:
348,277,195686,2,0,P|314:287|280:281,1,70,4|0,3:0|0:0,0:0:0:0:
87,338,196023,1,8,0:0:0:0:
426,345,197034,1,0,0:0:0:0:
98,33,197371,6,0,B|67:110|89:182|193:196|193:196|91:226|91:226|121:307|121:307|209:285|152:348|258:230|241:156|168:128,1,671.999979492188,4|10,3:0|0:0,0:0:0:0:
19,69,199394,2,0,P|85:92|153:81,1,140,2|0,0:0|0:0,0:0:0:0:
412,71,200068,6,0,P|378:63|350:43,1,70,4|0,3:0|0:0,0:0:0:0:
458,140,200405,2,0,P|426:153|391:151,1,70,4|0,3:0|0:0,0:0:0:0:
303,182,200742,2,0,P|300:148|310:115,1,70,4|0,3:0|0:0,0:0:0:0:
219,188,201079,2,0,P|228:222|249:249,1,70,4|0,3:0|0:0,0:0:0:0:
442,337,201416,1,8,0:0:0:0:
83,335,202428,1,0,0:0:0:0:
355,363,202765,6,0,B|375:313|357:226|280:205|280:205|357:225|417:175|417:175|417:224|417:224|365:206|347:146,1,490,4|0,3:0|0:0,0:0:0:0:
245,201,204113,2,0,P|353:29|181:137,1,560,8|0,0:0|0:0,0:0:0:0:
