osu file format v14

[General]
AudioFilename: audio.mp3
AudioLeadIn: 0
PreviewTime: 151529
Countdown: 0
SampleSet: Soft
StackLeniency: 0.4
Mode: 2
LetterboxInBreaks: 0
WidescreenStoryboard: 1

[Editor]
Bookmarks: 43664,65237,93888,96922,103326,129956,172428
DistanceSpacing: 1.2
BeatDivisor: 16
GridSize: 4
TimelineZoom: 2.899999

[Metadata]
Title:SLOW DANCING IN THE DARK
TitleUnicode:SLOW DANCING IN THE DARK
Artist:Joji
ArtistUnicode:Joji
Creator:Mayflower
Version:JEIR'S SLOW DANCING IN THE RAIN
Source:
Tags:ballads1 1 english filthy frank papa franku george miller pink guy 88rising ambient dance R&B Soul Hip Hop hiphop Yeah Right Can't Get Over You cant Patrick Wimberly Francisco Frankie Ramirez Chris Athens eiri- ayyri em0nky emonky marblelemons thepython JeirYagtama jieryagtama Jeirin Liyac cyanine californian darknessofblue Jemzuu AJamez
BeatmapID:2172231
BeatmapSetID:902215

[Difficulty]
HPDrainRate:5
CircleSize:4.3
OverallDifficulty:8.7
ApproachRate:8.7
SliderMultiplier:2
SliderTickRate:0.5

[Events]
//Background and Video events
0,0,"SLOW DANCING BACKGROUND POG.jpg",0,0
//Break Periods
//Storyboard Layer 0 (Background)
//Storyboard Layer 1 (Fail)
//Storyboard Layer 2 (Pass)
//Storyboard Layer 3 (Foreground)
//Storyboard Layer 4 (Overlay)
//Storyboard Sound Samples

[TimingPoints]
518,337.078651685393,4,2,1,50,1,0
798,-100,4,2,1,5,0,0
855,-100,4,2,1,50,0,0
1135,-100,4,2,1,5,0,0
1192,-100,4,2,1,50,0,0
1473,-100,4,2,1,5,0,0
1529,-100,4,2,1,50,0,0
1810,-100,4,2,1,5,0,0
1866,-83.3333333333333,4,2,1,50,0,0
2147,-76.9230769230769,4,2,1,5,0,0
2203,-76.9230769230769,4,2,1,50,0,0
2484,-76.9230769230769,4,2,1,5,0,0
2540,-76.9230769230769,4,2,1,50,0,0
3214,-100,4,2,1,50,0,0
3495,-100,4,2,1,5,0,0
3551,-100,4,2,1,50,0,0
3832,-100,4,2,1,5,0,0
3888,-100,4,2,1,50,0,0
4169,-100,4,2,1,5,0,0
4225,-100,4,2,1,50,0,0
4506,-100,4,2,1,5,0,0
4562,-100,4,2,1,50,0,0
4843,-100,4,2,1,5,0,0
4900,-100,4,2,1,50,0,0
5180,-100,4,2,1,5,0,0
5237,-100,4,2,1,50,0,0
5517,-100,4,2,1,5,0,0
5574,-100,4,2,1,50,0,0
6192,-100,4,2,1,5,0,0
6248,-100,4,2,1,50,0,0
6529,-100,4,2,1,5,0,0
6585,-100,4,2,1,50,0,0
6866,-100,4,2,1,5,0,0
6922,-100,4,2,1,50,0,0
7203,-100,4,2,1,5,0,0
7259,-83.3333333333333,4,2,1,50,0,0
7540,-76.9230769230769,4,2,1,5,0,0
7596,-76.9230769230769,4,2,1,50,0,0
7877,-76.9230769230769,4,2,1,5,0,0
7933,-76.9230769230769,4,2,1,50,0,0
8607,-100,4,2,1,50,0,0
8888,-100,4,2,1,5,0,0
8944,-100,4,2,1,50,0,0
9225,-100,4,2,1,5,0,0
9282,-100,4,2,1,50,0,0
9562,-100,4,2,1,5,0,0
9619,-100,4,2,1,50,0,0
9900,-100,4,2,1,5,0,0
9956,-100,4,2,1,50,0,0
10237,-100,4,2,1,5,0,0
10293,-100,4,2,1,50,0,0
10967,-100,4,2,1,50,0,0
11304,-100,4,2,1,50,0,0
11585,-100,4,2,1,5,0,0
11641,-100,4,2,1,50,0,0
11922,-100,4,2,1,5,0,0
11978,-100,4,2,1,50,0,0
12259,-100,4,2,1,5,0,0
12315,-100,4,2,1,50,0,0
12933,-100,4,2,1,5,0,0
12968,-71.4285714285714,4,2,1,5,0,0
12989,-71.4285714285714,4,2,1,50,0,0
13270,-71.4285714285714,4,2,1,5,0,0
13305,-62.5,4,2,1,5,0,0
13326,-62.5,4,2,1,50,0,0
13607,-62.5,4,2,1,5,0,0
13642,-62.5,4,2,1,5,0,0
13664,-62.5,4,2,1,50,0,0
14001,-100,4,2,1,50,0,0
14282,-100,4,2,1,5,0,0
14338,-100,4,2,1,50,0,0
14619,-100,4,2,1,5,0,0
14675,-100,4,2,1,50,0,0
14956,-100,4,2,1,5,0,0
15012,-100,4,2,1,50,0,0
15293,-100,4,2,1,5,0,0
15349,-100,4,2,1,50,0,0
16978,-100,4,2,1,5,0,0
17034,-100,4,2,1,50,0,0
17315,-100,4,2,1,5,0,0
17371,-100,4,2,1,50,0,0
17652,-100,4,2,1,5,0,0
17709,-100,4,2,1,50,0,0
17989,-100,4,2,1,5,0,0
18046,-100,4,2,1,50,0,0
19001,-100,4,2,1,5,0,0
19057,-100,4,2,1,50,0,0
19647,-100,4,2,1,5,0,0
19710,-83.3333333333333,4,2,1,5,0,0
19731,-83.3333333333333,4,2,1,50,0,0
19984,-100,4,2,1,5,0,0
20047,-62.5,4,2,1,5,0,0
20068,-62.5,4,2,1,50,0,0
20321,-100,4,2,1,5,0,0
20384,-100,4,2,1,5,0,0
20405,-100,4,2,1,50,0,0
20658,-100,4,2,1,5,0,0
20721,-71.4285714285714,4,2,1,5,0,0
20742,-83.3333333333333,4,2,1,50,0,0
22091,-100,4,2,1,50,0,0
22371,-100,4,2,1,5,0,0
22428,-100,4,2,1,50,0,0
22709,-100,4,2,1,5,0,0
22765,-100,4,2,1,50,0,0
25068,-100,4,2,1,5,0,0
25124,-100,4,2,1,50,0,0
25405,-100,4,2,1,5,0,0
25461,-100,4,2,1,50,0,0
25742,-100,4,2,1,5,0,0
25798,-100,4,2,1,50,0,0
26079,-100,4,2,1,5,0,0
26135,-100,4,2,1,50,0,0
26416,-100,4,2,1,5,0,0
26473,-76.9230769230769,4,2,1,50,0,0
27091,-76.9230769230769,4,2,1,5,0,0
27147,-76.9230769230769,4,2,1,50,0,0
27428,-76.9230769230769,4,2,1,5,0,0
27484,-100,4,2,1,50,0,0
27765,-100,4,2,1,5,0,0
27821,-100,4,2,1,50,0,0
28102,-100,4,2,1,5,0,0
28158,-100,4,2,1,50,0,0
28776,-100,4,2,1,5,0,0
28832,-100,4,2,1,50,0,0
30461,-100,4,2,1,5,0,0
30517,-100,4,2,1,50,0,0
30798,-100,4,2,1,5,0,0
30855,-100,4,2,1,50,0,0
31135,-100,4,2,1,5,0,0
31192,-100,4,2,1,50,0,0
31473,-100,4,2,1,5,0,0
31529,-100,4,2,1,50,0,0
33158,-100,4,2,1,5,0,0
33214,-100,4,2,1,50,0,0
34225,-83.3333333333333,4,2,1,50,0,0
34506,-83.3333333333333,4,2,1,5,0,0
34562,-83.3333333333333,4,2,1,50,0,0
34843,-83.3333333333333,4,2,1,5,0,0
34900,-83.3333333333333,4,2,1,50,0,0
35180,-83.3333333333333,4,2,1,5,0,0
35237,-83.3333333333333,4,2,1,50,0,0
35574,-100,4,2,1,50,0,0
35855,-100,4,2,1,5,0,0
35911,-100,4,2,1,50,0,0
36192,-100,4,2,1,5,0,0
36248,-100,4,2,1,50,0,0
36529,-100,4,2,1,5,0,0
36585,-100,4,2,1,50,0,0
36866,-100,4,2,1,5,0,0
36922,-100,4,2,1,50,0,0
37203,-100,4,2,1,5,0,0
37259,-100,4,2,1,50,0,0
37540,-100,4,2,1,5,0,0
37596,-100,4,2,1,50,0,0
37877,-100,4,2,1,5,0,0
37933,-100,4,2,1,50,0,0
38214,-100,4,2,1,5,0,0
38270,-100,4,2,1,50,0,0
38551,-100,4,2,1,5,0,0
38607,-100,4,2,1,50,0,0
38888,-100,4,2,1,5,0,0
38944,-100,4,2,1,50,0,0
39225,-100,4,2,1,5,0,0
39282,-100,4,2,1,50,0,0
39562,-100,4,2,1,5,0,0
39619,-100,4,2,1,50,0,0
40911,-100,4,2,1,5,0,0
40967,-100,4,2,1,50,0,0
41248,-100,4,2,1,5,0,0
41304,-100,4,2,1,50,0,0
41585,-100,4,2,1,5,0,0
41641,-100,4,2,1,50,0,0
41922,-100,4,2,1,5,0,0
41978,-100,4,2,1,50,0,0
42259,-100,4,2,1,5,0,0
42315,-100,4,2,1,50,0,0
43326,-100,4,2,1,20,0,0
43664,-100,4,2,1,50,0,0
43944,-100,4,2,1,5,0,0
44001,-100,4,2,1,50,0,0
44282,-100,4,2,1,5,0,0
44338,-100,4,2,1,50,0,0
44619,-100,4,2,1,5,0,0
44675,-100,4,2,1,50,0,0
44956,-100,4,2,1,5,0,0
45012,-100,4,2,1,50,0,0
45293,-100,4,2,1,5,0,0
45349,-100,4,2,1,50,0,0
45630,-100,4,2,1,5,0,0
45686,-100,4,2,1,50,0,0
45967,-100,4,2,1,5,0,0
46023,-100,4,2,1,50,0,0
46304,-100,4,2,1,5,0,0
46360,-100,4,2,1,50,0,0
49338,-100,4,2,1,5,0,0
49394,-100,4,2,1,50,0,0
49675,-100,4,2,1,5,0,0
49731,-100,4,2,1,50,0,0
50012,-100,4,2,1,5,0,0
50068,-100,4,2,1,50,0,0
50349,-100,4,2,1,5,0,0
50405,-100,4,2,1,50,0,0
50686,-100,4,2,1,5,0,0
50742,-100,4,2,1,50,0,0
51023,-100,4,2,1,5,0,0
51079,-100,4,2,1,50,0,0
51697,-100,4,2,1,5,0,0
51753,-100,4,2,1,50,0,0
54731,-100,4,2,1,5,0,0
54787,-100,4,2,1,50,0,0
55068,-100,4,2,1,5,0,0
55124,-100,4,2,1,50,0,0
55405,-100,4,2,1,5,0,0
55461,-100,4,2,1,50,0,0
55742,-100,4,2,1,5,0,0
55798,-100,4,2,1,50,0,0
56079,-100,4,2,1,5,0,0
56135,-100,4,2,1,50,0,0
57091,-100,4,2,1,5,0,0
57147,-100,4,2,1,50,0,0
57428,-100,4,2,1,5,0,0
57484,-100,4,2,1,50,0,0
57765,-100,4,2,1,5,0,0
57821,-100,4,2,1,50,0,0
58102,-100,4,2,1,5,0,0
58158,-100,4,2,1,50,0,0
58439,-100,4,2,1,5,0,0
58495,-100,4,2,1,50,0,0
60124,-100,4,2,1,5,0,0
60180,-100,4,2,1,50,0,0
60461,-100,4,2,1,5,0,0
60517,-100,4,2,1,50,0,0
60798,-100,4,2,1,5,0,0
60855,-100,4,2,1,50,0,0
61135,-100,4,2,1,5,0,0
61192,-100,4,2,1,50,0,0
64562,-50,4,2,1,50,0,0
65237,-100,4,2,3,50,0,0
65349,-100,4,2,1,50,0,0
65461,-100,4,2,4,50,0,0
66585,-100,4,2,1,50,0,0
66697,-100,4,2,4,50,0,0
67933,-100,4,1,1,50,0,0
70630,-100,4,2,3,50,0,0
70742,-100,4,2,4,50,0,0
71978,-100,4,2,4,50,0,0
72428,-100,4,2,4,50,0,0
72765,-100,4,2,4,50,0,0
72989,-100,4,2,1,50,0,0
73326,-100,4,1,1,50,0,0
76023,-100,4,2,3,50,0,0
76135,-100,4,2,4,50,0,0
77371,-100,4,2,1,50,0,0
77484,-100,4,2,4,50,0,0
77709,-100,4,2,4,50,0,0
77821,-100,4,2,4,50,0,0
78046,-100,4,2,4,50,0,0
78158,-100,4,2,4,50,0,0
78383,-100,4,2,4,50,0,0
78720,-100,4,2,1,50,0,0
81416,-100,4,2,3,50,0,0
81529,-100,4,2,4,50,0,0
82765,-100,4,2,1,50,0,0
82877,-100,4,2,4,50,0,0
83102,-100,4,2,1,50,0,0
83214,-100,4,2,4,50,0,0
83551,-100,4,2,4,50,0,0
84113,-100,4,2,3,50,0,0
84225,-100,4,2,4,50,0,0
85405,-100,4,2,1,50,0,0
86810,-100,4,2,3,50,0,0
86922,-100,4,2,4,50,0,0
88158,-100,4,2,1,50,0,0
88270,-100,4,2,4,50,0,0
89506,-100,4,2,1,50,0,0
89619,-100,4,2,4,50,0,0
90855,-100,4,1,1,50,0,0
92203,-100,4,2,3,50,0,0
92652,-100,4,2,1,5,0,0
92709,-100,4,2,1,50,0,0
95349,-100,4,2,1,5,0,0
95405,-100,4,2,1,50,0,0
97596,-100,4,2,2,70,0,1
102315,-71.4285714285714,4,2,2,70,0,1
102610,-71.4285714285714,4,2,2,5,0,1
102652,-71.4285714285714,4,2,2,70,0,1
102989,-100,4,2,2,70,0,1
104338,-66.6666666666667,4,2,2,70,0,1
105686,-100,4,2,2,70,0,1
107034,-66.6666666666667,4,2,2,70,0,1
108383,-100,4,2,1,50,0,0
108664,-100,4,2,1,5,0,0
108720,-100,4,2,1,50,0,0
109001,-100,4,2,1,5,0,0
109057,-100,4,2,1,50,0,0
111360,-100,4,2,1,5,0,0
111416,-100,4,2,1,50,0,0
111697,-100,4,2,1,5,0,0
111753,-100,4,2,1,50,0,0
112034,-100,4,2,1,5,0,0
112091,-100,4,2,1,50,0,0
112371,-100,4,2,1,5,0,0
112428,-100,4,2,1,50,0,0
112709,-100,4,2,1,5,0,0
112765,-76.9230769230769,4,2,1,50,0,0
113383,-76.9230769230769,4,2,1,5,0,0
113439,-76.9230769230769,4,2,1,50,0,0
113720,-76.9230769230769,4,2,1,5,0,0
113776,-100,4,2,1,50,0,0
114057,-100,4,2,1,5,0,0
114113,-100,4,2,1,50,0,0
114394,-100,4,2,1,5,0,0
114450,-100,4,2,1,50,0,0
114731,-100,4,2,1,5,0,0
114787,-100,4,2,1,50,0,0
115068,-100,4,2,1,5,0,0
115124,-100,4,2,1,50,0,0
116753,-100,4,2,1,5,0,0
116810,-100,4,2,1,50,0,0
117091,-100,4,2,1,5,0,0
117147,-100,4,2,1,50,0,0
117428,-100,4,2,1,5,0,0
117484,-100,4,2,1,50,0,0
117765,-100,4,2,1,5,0,0
117821,-100,4,2,1,50,0,0
119113,-100,4,2,1,5,0,0
119169,-100,4,2,1,50,0,0
119450,-100,4,2,1,5,0,0
119506,-100,4,2,1,50,0,0
119787,-100,4,2,1,5,0,0
119843,-100,4,2,1,50,0,0
120124,-100,4,2,1,5,0,0
120180,-100,4,2,1,50,0,0
120461,-100,4,2,1,5,0,0
120517,-100,4,2,1,50,0,0
120798,-100,4,2,1,5,0,0
120855,-100,4,2,1,50,0,0
121135,-100,4,2,1,5,0,0
121192,-100,4,2,1,50,0,0
121473,-100,4,2,1,5,0,0
121529,-100,4,2,1,50,0,0
122147,-100,4,2,1,5,0,0
122203,-100,4,2,1,50,0,0
122484,-100,4,2,1,5,0,0
122540,-100,4,2,1,50,0,0
122821,-100,4,2,1,5,0,0
122877,-100,4,2,1,50,0,0
123158,-100,4,2,1,5,0,0
123214,-100,4,2,1,50,0,0
123495,-100,4,2,1,5,0,0
123551,-100,4,2,1,50,0,0
123832,-100,4,2,1,5,0,0
123888,-100,4,2,1,50,0,0
124169,-100,4,2,1,5,0,0
124225,-100,4,2,1,50,0,0
124506,-100,4,2,1,5,0,0
124562,-100,4,2,1,50,0,0
124843,-100,4,2,1,5,0,0
124900,-100,4,2,1,50,0,0
125180,-100,4,2,1,5,0,0
125237,-100,4,2,1,50,0,0
125517,-100,4,2,1,5,0,0
125574,-100,4,2,1,50,0,0
125855,-100,4,2,1,5,0,0
125911,-83.3333333333333,4,2,1,50,0,0
127540,-83.3333333333333,4,2,1,5,0,0
127575,-83.3333333333333,4,2,1,5,0,0
127596,-83.3333333333333,4,2,1,50,0,0
127786,-100,4,2,1,50,0,0
127849,-62.5,4,2,1,50,0,0
127870,-62.5,4,2,1,50,0,0
127877,-62.5,4,2,1,5,0,0
127912,-62.5,4,2,1,5,0,0
127933,-62.5,4,2,1,50,0,0
128186,-100,4,2,1,50,0,0
128214,-100,4,2,1,5,0,0
128249,-100,4,2,1,5,0,0
128270,-100,4,2,1,50,0,0
128551,-100,4,2,1,5,0,0
128607,-71.4285714285714,4,2,1,50,0,0
128628,-71.4285714285714,4,2,1,50,0,0
129619,-71.4285714285714,4,2,1,15,0,0
129893,-100,4,2,1,15,0,0
129956,-100,4,2,1,50,0,0
130237,-100,4,2,1,5,0,0
130293,-100,4,2,1,50,0,0
130574,-100,4,2,1,5,0,0
130630,-100,4,2,1,50,0,0
130911,-100,4,2,1,5,0,0
130967,-100,4,2,1,50,0,0
131248,-100,4,2,1,5,0,0
131304,-100,4,2,1,50,0,0
132933,-100,4,2,1,5,0,0
132989,-100,4,2,1,50,0,0
133270,-100,4,2,1,5,0,0
133326,-100,4,2,1,50,0,0
133607,-100,4,2,1,5,0,0
133664,-100,4,2,1,50,0,0
133944,-100,4,2,1,5,0,0
134001,-100,4,2,1,50,0,0
135286,-100,4,2,1,50,0,0
135630,-100,4,2,1,5,0,0
135686,-100,4,2,1,50,0,0
135967,-100,4,2,1,5,0,0
136023,-100,4,2,1,50,0,0
136304,-100,4,2,1,5,0,0
136360,-100,4,2,1,50,0,0
136641,-100,4,2,1,5,0,0
136697,-100,4,2,1,50,0,0
136978,-100,4,2,1,5,0,0
137034,-100,4,2,1,50,0,0
137315,-100,4,2,1,5,0,0
137371,-100,4,2,1,50,0,0
137652,-100,4,2,1,5,0,0
137709,-100,4,2,1,50,0,0
138326,-100,4,2,1,5,0,0
138383,-100,4,2,1,50,0,0
138664,-100,4,2,1,5,0,0
138720,-100,4,2,1,50,0,0
139001,-100,4,2,1,5,0,0
139057,-100,4,2,1,50,0,0
139338,-100,4,2,1,5,0,0
139394,-100,4,2,1,50,0,0
140686,-100,4,2,1,5,0,0
140742,-100,4,2,1,50,0,0
141023,-100,4,2,1,5,0,0
141079,-100,4,2,1,50,0,0
141360,-100,4,2,1,5,0,0
141416,-100,4,2,1,50,0,0
141697,-100,4,2,1,5,0,0
141753,-100,4,2,1,50,0,0
142027,-100,4,2,1,50,0,0
142034,-100,4,2,1,5,0,0
142091,-100,4,2,1,50,0,0
143376,-100,4,2,1,50,0,0
143720,-100,4,2,1,5,0,0
143776,-100,4,2,1,50,0,0
144057,-100,4,2,1,5,0,0
144113,-100,4,2,1,50,0,0
144394,-100,4,2,1,5,0,0
144450,-100,4,2,1,50,0,0
144731,-100,4,2,1,5,0,0
144787,-100,4,2,1,50,0,0
145798,-100,4,2,1,50,0,0
146135,-100,4,2,4,50,0,0
150855,-100,4,2,3,50,0,0
152877,-100,4,2,1,50,0,0
156922,-100,4,2,3,50,0,0
158270,-100,4,2,1,50,0,0
162315,-100,4,2,3,50,0,0
163664,-100,4,2,1,50,0,0
167709,-100,4,2,3,50,0,0
169057,-100,4,2,1,50,0,0
170405,-100,4,2,3,50,0,0
171669,-100,4,2,1,50,0,0
173102,-100,4,2,3,50,0,0
174450,-100,4,2,1,50,0,0
178495,-100,4,2,3,50,0,0
178944,-100,4,2,1,50,0,0
183888,-100,4,2,2,80,0,1
188551,-100,4,2,2,5,0,1
188607,-71.4285714285714,4,2,2,80,0,1
189282,-100,4,2,2,80,0,1
190630,-71.4285714285714,4,2,2,80,0,1
191978,-100,4,2,2,80,0,1
193326,-100,4,2,2,80,0,0
194675,-83.3333333333333,4,2,2,80,0,1
194991,-83.3333333333333,4,2,2,5,0,1
195012,-83.3333333333333,4,2,2,80,0,1
195328,-83.3333333333333,4,2,2,5,0,1
195349,-100,4,2,2,80,0,1
196023,-100,4,2,2,80,0,0
197371,-83.3333333333333,4,2,2,80,0,1
198046,-100,4,2,2,80,0,1
199310,-100,4,2,2,5,0,1
199394,-83.3333333333333,4,2,2,80,0,0
200068,-83.3333333333333,4,2,2,80,0,1
200384,-83.3333333333333,4,2,2,5,0,1
200405,-83.3333333333333,4,2,2,80,0,1
200721,-83.3333333333333,4,2,2,5,0,1
200742,-100,4,2,2,80,0,1
201416,-76.9230769230769,4,2,2,80,0,1
204900,-76.9230769230769,4,2,2,5,0,1
204956,-100,4,2,2,80,0,1
205461,-100,4,2,1,5,0,0

[Colours]
Combo1 : 174,86,233
Combo2 : 176,83,179
Combo3 : 138,90,177
Combo4 : 100,102,189

[HitObjects]
251,192,518,6,0,L|134:193,1,100,2|0,3:2|0:0,0:0:0:0:
166,188,855,2,0,L|298:188,1,100,2|0,0:0|0:0,0:0:0:0:
83,185,1192,2,0,L|85:53,1,100,2|0,0:0|0:0,0:0:0:0:
184,91,1529,2,0,L|75:90,1,100,2|0,0:0|0:0,0:0:0:0:
236,98,1866,2,0,L|520:97,3,239.999992675781,10|2|2|2,0:1|0:1|0:1|0:1,0:0:0:0:
512,98,3046,1,0,0:0:0:0:
262,142,3214,6,0,L|495:139,3,200,2|2|2|2,3:2|0:0|0:0|0:0,0:0:0:0:
236,280,4562,2,0,L|237:155,1,100,10|0,0:1|0:0,0:0:0:0:
137,164,4900,2,0,L|255:162,1,100,2|0,0:1|0:0,0:0:0:0:
137,164,5237,2,0,L|21:159,1,100,2|0,2:1|0:0,0:0:0:0:
138,61,5574,2,0,L|38:59,1,100,2|0,0:1|0:0,0:0:0:0:
289,238,5911,6,0,L|432:239,1,100,2|0,3:2|0:0,0:0:0:0:
338,170,6248,2,0,L|203:169,1,100,2|0,0:0|0:0,0:0:0:0:
429,159,6585,2,0,L|429:29,1,100,2|0,0:0|0:0,0:0:0:0:
328,64,6922,2,0,L|465:66,1,100,2|0,0:0|0:0,0:0:0:0:
279,109,7259,2,0,L|6:110,3,239.999992675781,10|2|2|2,0:1|2:1|0:1|0:1,0:0:0:0:
19,109,8439,1,0,0:0:0:0:
217,183,8607,6,0,L|425:178,3,200,2|2|2|2,3:2|0:0|0:0|0:0,0:0:0:0:
87,189,9956,1,10,0:1:0:0:
286,182,10293,1,2,1:0:0:0:
196,182,10461,1,0,0:0:0:0:
234,181,10517,1,0,0:0:0:0:
273,180,10573,1,0,0:0:0:0:
313,180,10629,1,0,0:0:0:0:
8,176,10967,1,0,0:0:0:0:
501,170,11304,6,0,L|254:173,2,200,2|2|2,3:2|2:0|0:0,0:0:0:0:
486,168,12315,1,2,0:0:0:0:
187,213,12652,2,0,L|381:212,1,187.5,10|0,0:1|0:0,0:0:0:0:
374,212,12989,2,0,L|103:212,1,262.499991989136,2|0,0:1|0:0,0:0:0:0:
111,212,13326,2,0,L|434:210,1,320,2|2,0:1|0:1,0:0:0:0:
132,215,14001,6,0,P|84:156|190:144,1,200,2|2,3:2|0:0,0:0:0:0:
415,130,14675,2,0,P|503:102|474:11,1,200,2|2,0:0|0:0,0:0:0:0:
392,26,15180,1,0,0:0:0:0:
159,85,15349,2,0,L|30:84,1,100,10|0,0:0|1:0,0:0:0:0:
159,87,15686,2,0,L|154:225,1,100,0|0,1:0|1:0,0:0:0:0:
255,187,16023,2,0,L|126:186,1,100,0|0,1:0|1:0,0:0:0:0:
4,184,16360,1,0,1:0:0:0:
451,224,16697,6,0,L|313:221,1,100,2|0,3:2|0:0,0:0:0:0:
250,222,17034,2,0,L|368:220,1,100,2|0,0:0|0:0,0:0:0:0:
250,210,17371,2,0,L|397:208,1,100,2|0,0:0|0:0,0:0:0:0:
208,179,17709,2,0,L|73:176,1,100,2|0,0:0|0:0,0:0:0:0:
363,158,18046,6,0,L|361:20,1,100,10|0,0:1|0:0,0:0:0:0:
261,64,18383,2,0,L|139:59,1,100,0|0,0:0|0:0,0:0:0:0:
354,227,18720,2,0,P|444:227|444:97,1,200,2|2,1:0|1:0,0:0:0:0:
37,147,19394,6,0,L|227:146,1,187.5,2|0,3:2|0:0,0:0:0:0:
224,146,19731,2,0,L|-3:147,1,224.999993133545,2|0,0:0|0:0,0:0:0:0:
0,146,20068,2,0,L|312:147,1,300,2|0,0:0|0:0,0:0:0:0:
299,146,20405,2,0,L|103:145,1,187.5,2|0,0:0|0:0,0:0:0:0:
111,145,20742,2,0,L|374:143,1,239.999992675781,10|0,0:0|0:0,0:0:0:0:
387,140,21135,1,0,0:0:0:0:
387,140,21192,1,0,0:0:0:0:
387,140,21248,1,0,0:0:0:0:
403,140,21304,1,0,0:0:0:0:
441,139,21753,1,0,3:0:0:0:
18,209,22091,6,0,P|20:157|163:140,1,200,6|0,3:2|0:0,0:0:0:0:
251,123,22596,1,0,0:0:0:0:
64,213,22765,1,2,1:0:0:0:
150,179,22933,1,2,1:0:0:0:
141,86,23102,1,2,1:0:0:0:
49,69,23270,1,2,1:0:0:0:
234,74,23439,2,0,L|334:76,3,100,10|0|2|0,0:0|0:0|1:0|0:0,0:0:0:0:
223,73,24113,2,0,L|332:79,1,100,2|0,2:0|0:0,0:0:0:0:
502,117,24450,2,0,L|393:123,1,100,2|0,2:0|0:0,0:0:0:0:
171,141,24787,6,0,L|376:140,2,200,0|2|2,3:2|0:0|0:0,0:0:0:0:
271,136,25630,1,0,0:0:0:0:
370,134,25798,1,2,1:0:0:0:
271,115,25967,1,0,0:0:0:0:
106,116,26135,2,0,L|109:245,1,100,10|0,1:0|0:0,0:0:0:0:
286,208,26473,2,0,P|160:205|321:67,1,519.99997619629,2|2,1:0|0:1,0:0:0:0:
416,66,27315,1,0,0:0:0:0:
185,212,27484,6,0,P|184:130|294:137,1,200,2|2,3:2|0:0,0:0:0:0:
382,129,27989,1,0,0:0:0:0:
209,136,28158,2,0,L|209:19,1,100,2|0,0:0|0:0,0:0:0:0:
309,32,28495,2,0,L|425:32,1,100,2|0,0:0|0:0,0:0:0:0:
177,142,28832,6,0,L|408:142,1,200,10|0,0:0|0:0,0:0:0:0:
276,147,29338,1,0,0:0:0:0:
104,146,29506,2,0,L|160:46,1,100,0|0,0:0|0:0,0:0:0:0:
267,120,29843,2,0,L|153:126,1,100,0|0,0:0|0:0,0:0:0:0:
371,189,30180,2,0,L|136:182,2,200,2|2|2,3:2|0:0|0:0,0:0:0:0:
461,194,31023,1,0,0:0:0:0:
374,170,31192,2,0,L|486:170,1,100,2|0,0:0|0:0,0:0:0:0:
237,266,31529,6,0,P|176:183|243:178,1,200,10|2,1:0|1:0,0:0:0:0:
323,175,32034,1,0,1:0:0:0:
145,125,32203,2,0,L|461:126,1,300,2|0,2:1|0:0,0:0:0:0:
210,171,32877,6,0,P|223:116|346:125,1,200,2|2,3:2|0:0,0:0:0:0:
433,125,33383,1,0,0:0:0:0:
343,120,33551,2,0,L|225:120,1,100,2|0,0:0|0:0,0:0:0:0:
414,121,33888,2,0,L|414:259,1,100,2|0,0:0|0:0,0:0:0:0:
244,216,34225,2,0,L|492:218,3,239.999992675781,10|2|2|2,2:1|0:1|0:1|0:1,0:0:0:0:
80,224,35574,6,0,P|27:163|125:152,1,200,0|2,3:2|0:0,0:0:0:0:
200,136,36079,1,0,0:0:0:0:
290,129,36248,2,0,L|77:138,1,200,2|2,0:0|0:0,0:0:0:0:
90,137,36753,1,0,0:0:0:0:
323,245,36922,6,0,L|329:113,1,100,10|0,1:0|0:0,0:0:0:0:
237,147,37259,2,0,L|231:15,1,100,2|0,0:1|0:0,0:0:0:0:
322,47,37596,2,0,L|424:47,1,100,2|0,0:1|0:0,0:0:0:0:
416,51,37933,1,2,0:1:0:0:
11,112,38270,6,0,L|241:108,2,200,2|2|2,3:2|0:0|0:0,0:0:0:0:
242,106,39282,2,0,L|128:107,1,100,2|0,0:0|0:0,0:0:0:0:
373,106,39619,1,10,0:0:0:0:
193,91,39956,2,0,L|339:97,1,100,2|2,0:1|0:1,0:0:0:0:
203,80,40293,2,0,L|84:76,1,100,2|2,0:1|0:1,0:0:0:0:
12,77,40630,2,0,L|17:180,1,100,2|0,0:1|0:0,0:0:0:0:
245,198,40967,6,0,P|171:188|55:129,2,200,2|2|2,3:2|0:0|0:0,0:0:0:0:
424,191,41978,1,2,0:0:0:0:
210,211,42315,2,0,L|197:98,1,100,10|0,0:0|0:0,0:0:0:0:
430,112,42652,1,0,0:0:0:0:
430,112,43326,1,0,3:0:0:0:
32,201,43664,6,0,L|29:85,1,100,6|0,3:0|0:0,0:0:0:0:
188,102,44001,2,0,L|304:104,1,100,2|0,0:0|0:0,0:0:0:0:
119,185,44338,2,0,P|40:161|128:106,1,200,2|2,0:0|0:0,0:0:0:0:
191,89,44843,1,0,0:0:0:0:
360,186,45012,6,0,L|328:64,1,100,10|0,0:0|0:0,0:0:0:0:
238,116,45349,2,0,L|270:-6,1,100,0|0,0:0|0:0,0:0:0:0:
444,40,45686,2,0,L|224:44,1,200,0|2,0:0|0:1,0:0:0:0:
344,43,46192,1,0,0:0:0:0:
111,186,46360,6,0,P|39:141|103:56,1,200,2|0,3:1|0:0,0:0:0:0:
186,62,46866,1,2,2:1:0:0:
285,60,47034,2,0,L|77:63,1,200,2|0,0:1|0:0,0:0:0:0:
186,62,47540,1,2,2:1:0:0:
417,171,47709,2,0,L|417:67,1,100,10|0,1:0|0:0,0:0:0:0:
410,75,48046,2,0,L|300:78,1,100,0|2,0:0|2:1,0:0:0:0:
410,75,48383,2,0,L|509:72,1,100,2|0,0:1|0:0,0:0:0:0:
505,74,48888,1,2,2:1:0:0:
253,160,49057,6,0,L|154:112,1,100,6|0,3:0|0:0,0:0:0:0:
320,99,49394,2,0,L|419:51,1,100,2|0,0:0|0:0,0:0:0:0:
236,95,49731,2,0,L|30:93,1,200,2|2,0:0|0:0,0:0:0:0:
136,99,50237,1,0,0:0:0:0:
301,142,50405,2,0,L|180:149,1,100,10|0,0:0|0:0,0:0:0:0:
101,137,50742,2,0,L|222:144,1,100,0|0,2:0|0:0,0:0:0:0:
379,242,51079,2,0,P|477:214|466:98,1,200,0|2,0:0|0:1,0:0:0:0:
42,146,51753,6,0,L|262:132,1,200,2|0,3:1|0:0,0:0:0:0:
341,135,52259,1,2,2:1:0:0:
167,159,52428,2,0,P|167:111|291:117,1,200,2|0,0:1|0:0,0:0:0:0:
385,114,52933,1,2,2:1:0:0:
148,118,53102,2,0,L|42:120,1,100,10|0,0:1|0:0,0:0:0:0:
148,121,53439,2,0,L|254:123,1,100,0|2,0:0|2:1,0:0:0:0:
148,121,53776,2,0,L|143:3,1,100,2|0,1:0|0:0,0:0:0:0:
145,21,54282,1,2,2:1:0:0:
385,121,54450,6,0,P|259:93|251:20,2,200,6|2|2,3:0|0:0|0:0,0:0:0:0:
285,129,55293,1,0,0:0:0:0:
185,130,55461,1,2,0:0:0:0:
180,29,55630,1,0,0:0:0:0:
413,245,55798,6,0,L|407:27,1,200,10|2,0:0|0:1,0:0:0:0:
307,55,56304,1,2,0:1:0:0:
206,57,56473,2,0,L|314:48,1,100,2|2,0:1|0:1,0:0:0:0:
154,53,56810,2,0,L|46:44,1,100,2|0,0:1|0:0,0:0:0:0:
279,241,57147,6,0,L|271:25,2,200,2|2|2,3:2|0:0|0:0,0:0:0:0:
179,251,57989,1,0,0:0:0:0:
79,252,58158,1,2,0:0:0:0:
79,152,58326,1,0,0:0:0:0:
305,165,58495,6,0,P|394:150|393:55,1,200,10|2,0:0|0:1,0:0:0:0:
293,62,59001,1,2,0:1:0:0:
131,159,59169,2,0,L|120:49,1,100,2|2,0:1|0:1,0:0:0:0:
351,152,59506,2,0,L|362:42,1,100,2|2,0:1|0:1,0:0:0:0:
126,63,59843,2,0,L|328:57,2,200,4|2|2,3:0|0:0|0:0,0:0:0:0:
26,71,60686,1,0,0:0:0:0:
128,64,60855,1,2,0:0:0:0:
26,71,61023,1,0,0:0:0:0:
257,75,61192,5,10,0:0:0:0:
257,75,61529,2,0,L|260:181,1,100,2|2,2:1|2:1,0:0:0:0:
83,177,61866,1,0,0:0:0:0:
83,177,62203,1,0,0:0:0:0:
481,252,62540,6,0,L|478:52,1,200,0|0,3:0|0:0,0:0:0:0:
378,57,63046,1,0,0:0:0:0:
478,59,63214,1,0,0:0:0:0:
478,59,63551,1,0,0:0:0:0:
209,73,63888,1,8,0:0:0:0:
387,77,64225,2,2,L|392:190,1,100,2|2,2:1|2:1,2:1:0:0:
140,206,64562,2,2,B|14:207|14:207|42:-66,1,400,2|2,1:0|0:0,0:0:0:0:
470,234,65237,6,0,L|472:50,1,133.333333333333,6|0,3:0|0:0,0:0:0:0:
327,113,65574,2,0,L|154:108,1,133.333333333333,0|0,0:0|0:0,0:0:0:0:
260,109,65911,2,0,L|257:9,1,66.6666666666667,0|0,0:0|0:0,0:0:0:0:
191,35,66135,1,0,0:0:0:0:
257,37,66248,1,0,0:0:0:0:
323,37,66360,1,0,0:0:0:0:
323,104,66473,1,0,0:0:0:0:
132,172,66585,6,0,P|58:146|69:81,1,133.333333333333,8|0,0:0|0:0,0:0:0:0:
173,127,66922,2,0,P|247:101|236:36,1,133.333333333333,0|0,0:0|0:0,0:0:0:0:
124,57,67259,2,0,L|43:62,2,66.6666666666667,0|0|0,0:0|0:0|0:0,0:0:0:0:
250,63,67596,2,0,L|331:68,2,66.6666666666667,0|0|0,0:0|0:0|0:0,0:0:0:0:
60,171,67933,6,0,P|76:78|191:77,1,200,2|0,3:1|0:0,0:0:0:0:
268,57,68439,1,2,0:0:0:0:
88,151,68607,2,0,P|39:73|140:49,1,200,2|0,0:0|0:0,0:0:0:0:
215,33,69113,1,2,0:0:0:0:
450,134,69282,2,0,L|377:49,1,100,10|0,0:1|0:0,0:0:0:0:
287,84,69619,1,0,0:0:0:0:
320,82,69675,1,0,0:0:0:0:
353,80,69731,1,0,0:0:0:0:
386,78,69787,1,2,0:0:0:0:
158,228,69956,6,0,P|99:227|82:31,1,300,2|2,1:0|0:0,0:0:0:0:
310,63,70630,2,0,L|95:64,1,200,12|0,3:0|0:0,0:0:0:0:
209,69,71135,1,0,0:0:0:0:
366,73,71304,2,0,P|410:119|340:174,1,133.333333333333,0|0,0:0|0:0,0:0:0:0:
228,167,71641,2,0,P|184:211|213:266,1,133.333333333333,0|0,0:0|0:0,0:0:0:0:
381,280,71978,2,0,L|364:171,1,66.6666666666667,8|0,0:0|0:0,0:0:0:0:
303,211,72203,1,0,0:0:0:0:
172,207,72315,6,0,L|328:200,1,133.333333333333,0|0,0:0|0:0,0:0:0:0:
125,195,72652,2,0,L|121:80,1,66.6666666666667,0|0,0:0|0:0,0:0:0:0:
189,125,72877,1,0,0:0:0:0:
313,131,72989,2,0,L|315:64,1,66.6666666666667,0|0,0:0|0:0,0:0:0:0:
249,61,73214,1,0,0:0:0:0:
68,230,73326,6,0,L|48:8,1,200,2|0,3:1|0:0,0:0:0:0:
150,36,73832,1,2,0:0:0:0:
309,234,74001,2,0,L|76:233,1,200,2|0,0:0|0:0,0:0:0:0:
208,235,74506,1,2,0:0:0:0:
440,239,74675,2,0,L|450:104,1,100,10|0,0:0|0:0,0:0:0:0:
295,142,75012,2,0,L|420:141,1,100,0|2,0:0|0:0,0:0:0:0:
154,144,75349,2,0,L|484:138,1,300,2|2,0:0|0:0,0:0:0:0:
210,230,76023,6,0,L|194:78,1,133.333333333333,6|0,3:0|0:0,0:0:0:0:
332,163,76360,2,0,L|340:58,1,66.6666666666667,0|0,0:0|0:0,0:0:0:0:
271,108,76585,1,0,0:0:0:0:
137,115,76697,2,0,P|79:111|82:41,1,133.333333333333,0|0,0:0|0:0,0:0:0:0:
142,49,77034,2,0,L|55:43,1,66.6666666666667,0|0,0:0|0:0,0:0:0:0:
75,118,77259,1,0,0:0:0:0:
251,113,77371,6,0,L|241:30,1,66.6666666666667,8|0,0:0|0:0,0:0:0:0:
176,50,77596,1,0,0:0:0:0:
300,128,77709,2,0,P|390:101|384:19,1,133.333333333333,0|0,0:0|0:0,0:0:0:0:
221,76,78046,2,0,L|137:76,2,66.6666666666667,0|0|0,0:0|0:0|0:0,0:0:0:0:
104,77,78383,2,0,L|20:77,2,66.6666666666667,2|0|0,2:0|0:0|0:0,0:0:0:0:
276,163,78720,6,0,L|478:153,1,200,2|0,3:1|0:0,0:0:0:0:
369,159,79225,1,2,1:1:0:0:
202,199,79394,2,0,P|161:168|250:115,1,200,2|0,1:1|0:0,0:0:0:0:
346,101,79900,1,2,1:1:0:0:
166,107,80068,6,0,L|54:105,1,100,10|0,1:1|0:0,0:0:0:0:
226,98,80405,1,0,0:0:0:0:
259,97,80461,1,0,0:0:0:0:
292,96,80517,1,0,0:0:0:0:
325,96,80574,1,2,1:1:0:0:
86,240,80742,2,0,P|43:161|57:36,1,200,2|0,0:1|0:0,0:0:0:0:
460,81,81416,6,0,L|337:76,1,100,12|0,3:0|0:0,0:0:0:0:
260,86,81753,2,0,L|383:81,1,100,0|0,0:0|0:0,0:0:0:0:
200,172,82091,2,0,P|114:137|153:60,1,200,0|0,0:0|0:0,0:0:0:0:
251,68,82596,1,0,0:0:0:0:
17,146,82765,2,0,L|17:79,1,66.6666666666667,8|0,0:0|0:0,0:0:0:0:
83,76,82989,1,0,0:0:0:0:
255,119,83102,6,0,L|419:110,1,133.333333333333,0|0,1:0|0:0,0:0:0:0:
260,103,83439,2,0,L|171:105,2,66.6666666666667
387,103,83776,2,0,L|476:105,2,66.6666666666667,0|0|0,0:0|0:0|0:0,0:0:0:0:
219,216,84113,2,0,L|211:54,1,133.333333333333,8|0,3:0|0:0,0:0:0:0:
332,187,84450,2,0,L|338:53,1,133.333333333333,0|0,0:0|0:0,0:0:0:0:
215,108,84787,2,0,L|205:32,2,66.6666666666667,0|0|0,0:0|0:0|0:0,0:0:0:0:
341,115,85124,2,0,L|351:39,2,66.6666666666667,0|0|0,0:0|0:0|0:0,0:0:0:0:
172,155,85461,6,0,L|374:143,1,200,10|0,0:0|0:0,0:0:0:0:
271,154,85967,1,0,0:0:0:0:
172,155,86135,1,2,0:0:0:0:
337,181,86304,2,0,P|462:149|468:85,1,200,0|0,0:0|0:0,0:0:0:0:
227,156,86810,6,0,L|63:128,1,133.333333333333,6|0,3:0|0:0,0:0:0:0:
216,130,87147,2,0,L|380:102,1,133.333333333333,0|0,0:0|0:0,0:0:0:0:
225,122,87484,2,0,L|222:22,1,66.6666666666667,0|0,0:0|0:0,0:0:0:0:
289,58,87709,1,0,0:0:0:0:
409,176,87821,2,0,L|412:-14,1,133.333333333333,0|0,0:0|0:0,0:0:0:0:
237,115,88158,6,0,L|160:115,2,66.6666666666667,8|0|0,0:0|0:0|0:0,0:0:0:0:
355,122,88495,2,0,P|383:61|349:63,1,133.333333333333,0|0,0:0|0:0,0:0:0:0:
234,68,88832,2,0,L|332:65,1,66.6666666666667,0|0,0:0|0:0,0:0:0:0:
367,65,89057,1,0,0:0:0:0:
247,69,89169,2,0,L|149:66,1,66.6666666666667,0|0,0:0|0:0,0:0:0:0:
114,66,89394,1,0,0:0:0:0:
283,150,89506,6,0,L|391:146,1,66.6666666666667,0|0,3:0|0:0,0:0:0:0:
352,73,89731,1,0,0:0:0:0:
233,123,89843,2,0,L|125:119,1,66.6666666666667,0|0,0:0|0:0,0:0:0:0:
164,46,90068,1,0,0:0:0:0:
237,47,90180,2,0,L|89:46,1,133.333333333333,0|0,0:0|0:0,0:0:0:0:
221,60,90517,2,0,L|369:59,1,133.333333333333,0|0,0:0|0:0,0:0:0:0:
185,203,90855,6,0,L|170:88,1,100,10|0,0:0|0:0,0:0:0:0:
354,150,91192,2,0,L|366:50,1,100,2|0,0:0|0:0,0:0:0:0:
187,88,91529,2,0,L|388:84,1,200,2|0,0:0|0:0,0:0:0:0:
391,193,92034,1,2,0:0:0:0:
159,196,92203,6,0,L|37:185,1,100,12|0,3:0|0:0,0:0:0:0:
212,160,92540,2,0,L|334:149,1,100,0|0,0:0|0:0,0:0:0:0:
156,216,92877,2,0,P|70:191|48:91,1,200,0|0,0:0|0:0,0:0:0:0:
157,91,93383,1,0,0:0:0:0:
390,172,93551,6,0,L|391:59,1,100,10|0,0:0|0:0,0:0:0:0:
239,130,93888,2,0,L|240:17,1,100,2|0,0:0|0:0,0:0:0:0:
87,128,94225,2,0,L|88:15,1,100,2|0,0:0|0:0,0:0:0:0:
239,30,94562,2,0,L|350:31,1,100,2|0,0:0|0:0,0:0:0:0:
107,91,94900,2,0,P|49:57|133:-5,1,200,2|0,3:2|0:0,0:0:0:0:
272,147,95405,2,0,P|330:113|246:51,1,200,0|0,0:0|0:0,0:0:0:0:
157,44,95911,1,0,0:0:0:0:
57,38,96079,1,0,0:0:0:0:
285,130,96248,6,0,L|527:136,1,200,10|0,0:1|0:0,0:0:0:0:
212,130,96922,2,0,L|-30:136,1,200,2|0,0:1|0:0,0:0:0:0:
429,243,97596,6,0,L|428:110,1,100,4|0,3:0|0:0,0:0:0:0:
263,156,97933,2,0,L|127:157,1,100,0|0,3:0|0:0,0:0:0:0:
332,269,98270,2,0,L|342:146,1,100,0|0,3:0|0:0,0:0:0:0:
170,192,98607,2,0,L|153:68,1,100,0|0,3:0|0:0,0:0:0:0:
389,249,98944,2,0,P|234:236|454:135,1,700,8|0,0:0|0:0,0:0:0:0:
204,147,100293,6,0,L|67:145,1,100,4|0,3:0|0:0,0:0:0:0:
268,141,100630,2,0,L|405:139,1,100,0|0,3:0|0:0,0:0:0:0:
253,112,100967,2,0,L|383:111,1,100,0|0,3:0|0:0,0:0:0:0:
197,129,101304,2,0,L|198:21,1,100,0|0,3:0|0:0,0:0:0:0:
429,41,101641,2,0,L|127:35,1,300,8|0,0:0|0:0,0:0:0:0:
392,296,102315,2,0,B|194:281|194:281|465:276,1,419.999987182618,2|0,0:0|0:0,0:0:0:0:
177,259,102989,6,0,L|178:133,1,100,4|0,3:0|0:0,0:0:0:0:
44,165,103326,2,0,L|45:39,1,100,0|0,3:0|0:0,0:0:0:0:
213,160,103664,2,0,L|212:34,1,100,0|0,3:0|0:0,0:0:0:0:
392,158,104001,2,0,L|487:101,1,100,0|0,3:0|0:0,0:0:0:0:
183,158,104338,2,0,B|446:164|446:164|124:134|124:134|422:101|422:101|428:305,1,1050.00004005432,8|0,0:0|0:0,0:0:0:0:
186,269,105686,6,0,L|71:270,1,100,4|0,3:0|0:0,0:0:0:0:
259,244,106023,2,0,L|158:244,1,100,0|0,3:0|0:0,0:0:0:0:
14,253,106360,2,0,L|17:123,1,100,0|0,3:0|0:0,0:0:0:0:
165,156,106697,2,0,L|65:156,1,100,0|0,3:0|0:0,0:0:0:0:
319,242,107034,2,0,B|432:241|432:241|386:67|386:67|78:65|78:65|400:44|400:44|412:220,1,1050.00004005432,8|0,0:0|0:0,0:0:0:0:
169,198,108383,6,0,P|75:196|44:108,1,200,2|2,3:2|0:0,0:0:0:0:
144,113,108888,1,0,0:0:0:0:
296,186,109057,1,2,0:1:0:0:
210,152,109225,1,2,0:1:0:0:
219,59,109394,1,2,0:1:0:0:
318,59,109562,1,2,0:1:0:0:
158,67,109731,2,0,L|58:69,3,100,10|0|0|0,0:0|0:0|0:0|0:0,0:0:0:0:
218,74,110405,2,0,L|211:220,1,100,0|0,0:0|0:0,0:0:0:0:
42,169,110742,2,0,L|151:175,1,100,0|0,0:0|0:0,0:0:0:0:
372,158,111079,6,0,L|167:157,2,200,2|2|2,3:2|0:0|0:0,0:0:0:0:
271,155,111922,1,0,0:0:0:0:
370,150,112091,1,2,0:1:0:0:
470,146,112259,1,0,0:0:0:0:
309,146,112428,2,0,L|177:138,1,100,10|0,1:0|0:0,0:0:0:0:
367,212,112765,2,0,P|241:209|402:71,1,519.99997619629,2|2,0:1|0:1,0:0:0:0:
497,70,113607,1,0,0:0:0:0:
265,236,113776,6,0,P|187:173|279:132,1,200,2|2,3:2|0:0,0:0:0:0:
340,126,114282,1,0,0:0:0:0:
195,138,114450,2,0,L|195:21,1,100,2|0,0:0|0:0,0:0:0:0:
295,34,114787,2,0,L|411:34,1,100,2|0,2:0|0:0,0:0:0:0:
163,144,115124,6,0,L|394:144,1,200,10|0,0:0|0:0,0:0:0:0:
262,149,115630,1,0,0:0:0:0:
90,148,115798,2,0,L|146:48,1,100,0|0,0:0|0:0,0:0:0:0:
253,122,116135,2,0,L|139:128,1,100,0|0,0:0|0:0,0:0:0:0:
357,191,116473,2,0,L|122:184,2,200,2|2|2,3:2|0:0|0:0,0:0:0:0:
447,196,117315,1,0,0:0:0:0:
360,172,117484,2,0,L|472:172,1,100,2|0,0:0|0:0,0:0:0:0:
227,233,117821,6,0,L|232:111,1,100,10|0,1:1|1:0,0:0:0:0:
331,139,118158,1,2,1:0:0:0:
331,39,118326,1,0,1:0:0:0:
140,123,118495,2,0,L|269:124,1,100,2|0,1:0|0:0,0:0:0:0:
380,121,118832,2,0,L|382:6,1,100,0|0,0:0|0:0,0:0:0:0:
144,162,119169,6,0,P|157:107|280:116,1,200,2|2,3:2|0:0,0:0:0:0:
385,113,119675,1,0,0:0:0:0:
295,108,119843,2,0,L|177:108,1,100,2|0,0:0|0:0,0:0:0:0:
366,109,120180,2,0,L|366:247,1,100,2|0,0:0|0:0,0:0:0:0:
139,209,120517,6,0,L|2:205,1,100,10|0,0:0|0:0,0:0:0:0:
139,207,120855,2,0,L|276:203,1,100,0|0,0:0|0:0,0:0:0:0:
139,207,121192,2,0,L|139:69,1,100,0|0,0:0|0:0,0:0:0:0:
139,107,121529,2,0,L|35:108,1,100,0|0,0:0|0:0,0:0:0:0:
273,141,121866,2,0,L|480:136,2,200,2|2|2,3:2|0:0|0:0,0:0:0:0:
373,146,122709,1,0,0:0:0:0:
472,136,122877,1,2,0:0:0:0:
49,163,123214,6,0,L|164:160,1,100,10|0,2:1|0:0,0:0:0:0:
309,169,123551,2,0,L|310:49,1,100,2|0,2:1|0:0,0:0:0:0:
209,70,123888,2,0,L|353:73,1,100,2|0,2:1|0:0,0:0:0:0:
157,81,124225,2,0,L|19:79,1,100,2|0,2:1|0:0,0:0:0:0:
292,264,124562,6,0,L|282:54,1,200,2|2,3:2|0:0,0:0:0:0:
182,64,125068,1,0,0:0:0:0:
347,112,125237,2,0,L|292:17,1,100,2|0,0:0|0:0,0:0:0:0:
142,108,125574,2,0,L|197:13,1,100,2|0,0:0|0:0,0:0:0:0:
436,28,125911,2,0,L|176:24,3,239.999992675781,10|0|0|0,0:0|1:0|1:0|1:0,0:0:0:0:
316,31,127091,1,0,0:0:0:0:
37,147,127259,6,0,L|268:148,1,224.999993133545,2|0,3:2|0:0,0:0:0:0:
261,147,127596,2,0,L|34:148,1,224.999993133545,2|0,0:0|0:0,0:0:0:0:
36,147,127933,2,0,L|348:148,1,300,2|0,0:0|0:0,0:0:0:0:
335,147,128270,2,0,L|139:146,1,187.5,2|0,0:0|0:0,0:0:0:0:
147,146,128607,2,0,L|440:144,1,279.999991455078,8|0,0:0|1:0,0:0:0:0:
426,144,129001,1,0,0:0:0:0:
426,144,129057,1,0,0:0:0:0:
426,144,129113,1,0,0:0:0:0:
433,150,129169,1,0,0:0:0:0:
467,149,129619,1,0,3:0:0:0:
33,240,129956,6,0,L|32:24,2,200,2|2|2,3:2|0:0|0:0,0:0:0:0:
248,242,130967,1,2,0:0:0:0:
148,243,131135,1,0,0:0:0:0:
307,244,131304,6,0,P|394:228|404:112,1,200,10|0,2:1|0:0,0:0:0:0:
314,133,131810,1,2,2:1:0:0:
214,126,131978,2,0,P|127:110|117:-6,1,200,2|0,2:1|0:0,0:0:0:0:
206,14,132484,1,2,0:1:0:0:
432,82,132652,2,0,L|216:82,2,200,2|2|2,3:2|0:0|0:0,0:0:0:0:
231,87,133664,2,0,L|353:83,1,100,2|0,0:0|0:0,0:0:0:0:
94,203,134001,6,0,L|88:88,1,100,10|0,0:0|1:0,0:0:0:0:
94,203,134338,2,0,L|219:198,1,100,0|0,1:0|1:0,0:0:0:0:
294,193,134675,2,0,L|154:193,1,100,0|0,1:0|1:0,0:0:0:0:
294,193,135012,2,0,L|294:79,1,100,0|0,1:0|0:0,0:0:0:0:
69,155,135349,6,0,P|89:79|222:67,1,200,0|2,3:0|0:0,0:0:0:0:
96,61,135855,1,0,0:0:0:0:
94,184,136023,1,2,0:0:0:0:
194,185,136192,1,0,0:0:0:0:
95,167,136360,1,2,0:0:0:0:
493,184,136697,6,0,L|262:193,1,200,8|0,0:0|0:0,0:0:0:0:
393,185,137203,1,0,0:0:0:0:
239,191,137371,2,0,L|237:72,1,100,2|0,0:0|0:0,0:0:0:0:
338,91,137709,2,0,L|477:91,1,100,2|0,0:0|0:0,0:0:0:0:
203,226,138046,6,0,P|121:183|188:91,1,200,2|2,3:2|0:0,0:0:0:0:
253,102,138551,1,0,0:0:0:0:
152,95,138720,1,2,0:0:0:0:
351,95,139057,1,2,0:0:0:0:
355,194,139225,1,0,0:0:0:0:
127,203,139394,5,8,0:0:0:0:
355,194,139731,2,0,L|467:182,1,100,2|2,2:1|2:1,0:0:0:0:
355,194,140068,2,0,L|350:77,1,100,2|2,2:1|2:1,0:0:0:0:
176,100,140405,2,0,L|42:103,1,100,2|0,2:1|2:1,0:0:0:0:
316,253,140742,6,0,P|374:200|277:160,1,200,2|2,3:2|0:0,0:0:0:0:
195,149,141248,1,0,0:0:0:0:
191,49,141416,1,2,0:0:0:0:
291,54,141585,1,0,0:0:0:0:
137,88,141753,2,0,L|34:88,1,100,2|0,0:0|0:0,0:0:0:0:
315,284,142091,6,0,L|329:42,1,200,8|2,0:0|1:0,0:0:0:0:
227,47,142596,1,0,0:0:0:0:
326,84,142765,1,2,2:1:0:0:
426,55,142933,1,0,2:1:0:0:
290,101,143102,2,0,L|423:94,1,100,2|0,2:1|2:1,0:0:0:0:
155,195,143439,6,0,P|171:143|321:154,1,200,2|2,3:2|0:0,0:0:0:0:
201,105,143944,1,0,0:0:0:0:
344,107,144113,2,0,L|360:3,1,100,2|0,0:0|0:0,0:0:0:0:
201,105,144450,2,0,L|185:1,1,100,2|0,0:0|0:0,0:0:0:0:
365,90,144787,1,10,0:0:0:0:
264,92,144956,1,0,1:0:0:0:
164,90,145124,1,0,1:0:0:0:
264,95,145293,1,0,1:0:0:0:
94,174,145461,6,2,L|92:59,1,100,2|0,2:1|2:1,2:1:0:0:
238,86,145798,2,0,L|372:84,1,100,2|0,2:1|0:0,0:0:0:0:
89,93,146135,1,2,3:0:0:0:
256,192,146473,12,2,148495,0:0:0:0:
251,190,150517,5,0,0:0:0:0:
351,192,150686,1,0,0:0:0:0:
230,179,150812,1,0,0:0:0:0:
320,178,150981,1,0,0:0:0:0:
158,171,151150,1,0,0:0:0:0:
158,171,151234,1,0,3:0:0:0:
158,171,151318,1,0,3:0:0:0:
480,251,151529,6,0,P|416:158|335:177,1,200,6|0,3:0|0:0,0:0:0:0:
441,180,152034,1,0,0:0:0:0:
287,180,152203,2,0,L|156:176,1,100,0|0,0:0|0:0,0:0:0:0:
287,180,152540,2,0,L|386:183,1,100,0|0,0:0|0:0,0:0:0:0:
176,310,152877,2,0,P|105:291|331:160,1,700,8|0,0:0|0:0,0:0:0:0:
94,188,154225,6,0,P|27:131|112:93,1,200,2|0,3:2|0:0,0:0:0:0:
211,91,154731,1,2,0:0:0:0:
308,92,154900,2,0,P|286:18|159:35,1,200,2|0,0:0|0:0,0:0:0:0:
77,20,155405,1,2,0:0:0:0:
306,226,155574,2,0,L|309:85,1,100,10|0,0:0|0:0,0:0:0:0:
144,127,155911,1,0,0:0:0:0:
111,129,155967,1,0,0:0:0:0:
77,131,156023,1,0,0:0:0:0:
44,132,156079,1,2,0:0:0:0:
275,173,156248,5,2,0:0:0:0:
378,174,156416,2,0,L|154:172,1,200,0|2,0:0|0:0,0:0:0:0:
412,158,156922,2,0,P|391:88|262:101,1,200,12|0,3:0|0:0,0:0:0:0:
178,92,157428,1,0,0:0:0:0:
78,82,157596,1,0,0:0:0:0:
277,81,157933,1,0,0:0:0:0:
377,77,158102,1,0,0:0:0:0:
138,357,158270,2,0,B|-63:184|86:-33|86:-33|362:-31,1,700,8|0,0:0|0:0,0:0:0:0:
112,173,159619,6,0,L|348:165,1,200,2|0,3:2|0:0,0:0:0:0:
212,154,160124,1,2,0:0:0:0:
378,159,160293,2,0,L|142:151,1,200,2|0,0:0|0:0,0:0:0:0:
277,154,160798,1,2,0:0:0:0:
43,161,160967,1,10,0:0:0:0:
142,160,161135,2,0,P|151:105|29:65,1,200,0|2,0:0|0:0,0:0:0:0:
270,117,161641,2,0,B|53:117|53:117|52:17,1,300,2|2,0:0|0:0,0:0:0:0:
286,185,162315,6,0,P|371:182|339:80,1,200,6|0,3:0|0:0,0:0:0:0:
261,84,162821,1,0,0:0:0:0:
161,95,162989,1,0,0:0:0:0:
261,91,163158,1,0,0:0:0:0:
97,139,163326,2,0,L|94:27,1,100,0|0,0:0|0:0,0:0:0:0:
330,54,163664,6,0,L|442:50,1,100,8|0,0:0|0:0,0:0:0:0:
330,61,164001,2,0,L|230:64,1,100,0|0,0:0|0:0,0:0:0:0:
397,201,164338,2,0,P|452:134|375:82,1,200,0|0,0:0|0:0,0:0:0:0:
278,93,164843,1,0,0:0:0:0:
47,93,165012,6,0,L|253:91,1,200,2|0,3:2|0:0,0:0:0:0:
346,99,165517,1,2,0:0:0:0:
198,212,165686,2,0,P|112:203|102:66,1,200,2|0,0:0|0:0,0:0:0:0:
186,103,166192,1,2,0:0:0:0:
415,121,166360,6,0,L|297:122,1,100,10|0,0:0|0:0,0:0:0:0:
168,104,166697,1,0,0:0:0:0:
200,120,166753,1,0,0:0:0:0:
233,121,166810,1,0,0:0:0:0:
266,121,166866,1,2,2:0:0:0:
432,229,167034,2,0,L|427:7,1,200,2|0,0:0|0:0,0:0:0:0:
327,32,167540,1,2,2:0:0:0:
79,180,167709,6,0,P|135:89|225:111,1,200,12|0,3:0|0:0,0:0:0:0:
355,115,168214,1,0,0:0:0:0:
207,143,168383,2,0,L|83:140,1,100,0|0,0:0|0:0,0:0:0:0:
266,138,168720,2,0,L|390:135,1,100,0|0,0:0|0:0,0:0:0:0:
132,232,169057,6,0,P|111:171|214:165,1,200,8|0,0:0|0:0,0:0:0:0:
311,151,169562,1,0,0:0:0:0:
204,165,169731,2,0,P|99:149|64:64,1,200,0|2,0:0|2:0,0:0:0:0:
163,76,170237,1,0,0:0:0:0:
392,132,170405,6,0,L|369:19,1,100,12|0,3:0|0:0,0:0:0:0:
212,40,170742,2,0,L|451:41,1,200,0|0,0:0|0:0,0:0:0:0:
311,43,171248,1,0,0:0:0:0:
410,37,171416,1,0,0:0:0:0:
510,38,171585,1,0,0:0:0:0:
248,182,171753,6,0,P|99:180|106:47,1,300,10|0,0:0|0:0,0:0:0:0:
365,215,172428,2,0,P|484:169|360:81,1,300,2|0,0:0|0:0,0:0:0:0:
179,91,173102,2,0,L|409:86,1,200,6|0,3:0|0:0,0:0:0:0:
279,91,173607,1,0,0:0:0:0:
179,91,173776,2,0,L|309:86,1,100,0|0,0:0|0:0,0:0:0:0:
115,146,174113,2,0,L|111:24,1,100,0|0,0:0|0:0,0:0:0:0:
347,61,174450,6,0,L|138:66,2,200,8|0|0,0:0|0:0|0:0,0:0:0:0:
446,71,175293,1,0,0:0:0:0:
346,64,175461,1,0,1:0:0:0:
446,71,175630,1,0,0:0:0:0:
202,191,175798,6,0,P|151:169|235:89,1,200,0|0,3:0|0:0,0:0:0:0:
308,70,176304,1,0,0:0:0:0:
134,146,176473,2,0,L|143:35,1,100,0|0,0:0|0:0,0:0:0:0:
294,131,176810,2,0,L|285:20,1,100,0|0,0:0|0:0,0:0:0:0:
56,79,177147,6,0,L|255:66,1,200,10|0,0:0|0:0,0:0:0:0:
156,80,177652,1,2,0:0:0:0:
315,146,177821,2,0,L|461:142,1,100,2|0,0:0|0:0,0:0:0:0:
249,136,178158,2,0,L|103:132,1,100,2|0,0:0|0:0,0:0:0:0:
382,208,178495,6,0,L|162:208,1,200,12|0,3:0|0:0,0:0:0:0:
82,219,179001,1,0,0:0:0:0:
238,250,179169,2,0,L|244:126,1,100,0|0,0:0|0:0,0:0:0:0:
142,159,179506,2,0,L|136:35,1,100,0|0,0:0|0:0,0:0:0:0:
369,92,179843,6,0,L|256:84,1,100,10|0,0:0|0:0,0:0:0:0:
168,82,180180,2,0,L|312:83,1,100,2|0,0:0|0:0,0:0:0:0:
367,94,180517,2,0,L|370:204,1,100,2|0,0:0|0:0,0:0:0:0:
268,193,180855,2,0,L|151:193,1,100,2|0,0:0|0:0,0:0:0:0:
406,220,181192,6,0,P|387:143|275:158,1,200,2|0,3:0|0:0,0:0:0:0:
183,148,181697,2,0,P|202:71|314:86,1,200,0|0,0:0|0:0,0:0:0:0:
406,73,182203,1,0,0:0:0:0:
505,70,182371,1,0,0:0:0:0:
270,176,182540,2,0,L|484:165,1,200,10|0,0:0|0:0,0:0:0:0:
207,177,183214,2,0,L|-7:166,1,200,2|0,0:0|0:0,0:0:0:0:
429,243,183888,6,0,L|428:110,1,100,4|0,3:0|0:0,0:0:0:0:
266,145,184225,2,0,L|365:144,1,100,0|0,0:0|0:0,0:0:0:0:
196,189,184562,2,0,L|206:66,1,100,0|0,0:0|0:0,0:0:0:0:
316,189,184900,2,0,L|306:66,1,100,0|0,0:0|0:0,0:0:0:0:
77,255,185237,2,0,P|232:242|12:141,1,700,8|0,0:0|0:0,0:0:0:0:
257,156,186585,6,0,L|143:155,1,100,4|0,3:0|0:0,0:0:0:0:
19,145,186922,2,0,L|118:146,1,100,0|0,0:0|0:0,0:0:0:0:
259,130,187259,2,0,L|129:129,1,100,0|0,0:0|0:0,0:0:0:0:
24,140,187596,2,0,L|23:32,1,100,0|0,0:0|0:0,0:0:0:0:
257,45,187933,2,0,B|55:40|55:40|176:37,1,300,10|0,0:0|0:0,0:0:0:0:
437,128,188607,2,0,B|239:113|239:113|510:108,1,419.999987182618,2|0,0:0|0:0,0:0:0:0:
214,238,189282,6,0,L|215:112,1,100,4|0,3:0|0:0,0:0:0:0:
358,156,189619,2,0,L|359:30,1,100,0|0,0:0|0:0,0:0:0:0:
214,151,189956,2,0,L|213:25,1,100,0|0,0:0|0:0,0:0:0:0:
60,134,190293,2,0,L|60:17,1,100,0|0,0:0|0:0,0:0:0:0:
305,289,190630,2,0,B|147:287|147:287|185:60|187:63|187:63|432:60|432:60|57:64,1,979.999970092774,8|0,0:0|0:0,0:0:0:0:
322,267,191978,6,0,L|437:268,1,100,4|0,3:0|0:0,0:0:0:0:
249,242,192315,2,0,L|350:242,1,100,0|0,0:0|0:0,0:0:0:0:
494,251,192652,2,0,L|491:121,1,100,0|0,0:0|0:0,0:0:0:0:
343,154,192989,2,0,L|443:154,1,100,0|0,0:0|0:0,0:0:0:0:
211,221,193326,6,0,P|110:200|37:119,1,200,10|0,0:0|0:0,0:0:0:0:
318,220,194001,2,0,P|419:199|492:118,1,200,2|0,0:0|0:0,0:0:0:0:
65,145,194675,6,0,L|296:142,1,224.999993133545,4|0,3:0|0:0,0:0:0:0:
289,142,195012,2,0,L|54:146,1,224.999993133545,4|0,3:0|0:0,0:0:0:0:
63,5,195349,2,0,L|60:112,1,100,4|0,3:0|0:0,0:0:0:0:
214,119,195686,2,0,L|96:114,1,100,4|0,3:0|0:0,0:0:0:0:
362,374,196023,6,0,B|358:178|358:178|187:179|187:179|66:209|66:209|56:-38,1,700,8|0,0:0|0:0,0:0:0:0:
339,81,197371,6,0,L|86:81,1,239.999992675781,4|0,3:0|0:0,0:0:0:0:
102,87,197877,1,0,0:0:0:0:
339,81,198046,2,0,L|239:79,1,100,0|0,0:0|0:0,0:0:0:0:
91,76,198383,2,0,L|191:73,1,100,0|0,0:0|0:0,0:0:0:0:
425,194,198720,2,0,P|331:171|456:118,1,300,10|0,0:0|0:0,0:0:0:0:
147,126,199394,2,0,L|553:124,1,359.999989013672,2|2,0:0|0:0,0:0:0:0:
224,172,200068,6,0,L|455:169,1,224.999993133545,4|0,3:0|0:0,0:0:0:0:
448,169,200405,2,0,L|213:173,1,224.999993133545,4|0,3:0|0:0,0:0:0:0:
223,172,200742,2,0,L|337:169,1,100,4|0,3:0|0:0,0:0:0:0:
171,156,201079,2,0,L|62:154,1,100,4|0,3:0|0:0,0:0:0:0:
380,325,201416,6,0,P|226:304|497:203,1,909.999958343508,8|0,0:0|0:0,0:0:0:0:
175,307,202765,2,0,B|169:221|169:221|478:217|478:217|200:205|200:205|308:204|308:204|483:206,1,909.999958343508,4|0,3:0|0:0,0:0:0:0:
138,322,204113,6,0,B|44:286|169:37|169:37|483:56|483:56|40:45,1,1039.99995239258,8|0,0:0|0:0,0:0:0:0:
