osu file format v14

[General]
AudioFilename: audio.mp3
AudioLeadIn: 0
PreviewTime: 151529
Countdown: 0
SampleSet: Soft
StackLeniency: 0.4
Mode: 2
LetterboxInBreaks: 0
WidescreenStoryboard: 1

[Editor]
Bookmarks: 43664,65237,103326
DistanceSpacing: 1.2
BeatDivisor: 4
GridSize: 32
TimelineZoom: 2.1

[Metadata]
Title:SLOW DANCING IN THE DARK
TitleUnicode:SLOW DANCING IN THE DARK
Artist:Joji
ArtistUnicode:Joji
Creator:Mayflower
Version:JEIR'S PLATTER
Source:
Tags:ballads1 1 english filthy frank papa franku george miller pink guy 88rising ambient dance R&B Soul Hip Hop hiphop Yeah Right Can't Get Over You cant Patrick Wimberly Francisco Frankie Ramirez Chris Athens eiri- ayyri em0nky emonky marblelemons thepython JeirYagtama jieryagtama Jeirin Liyac cyanine californian darknessofblue Jemzuu AJamez
BeatmapID:2237858
BeatmapSetID:902215

[Difficulty]
HPDrainRate:5
CircleSize:3.7
OverallDifficulty:8
ApproachRate:8
SliderMultiplier:1.8
SliderTickRate:0.5

[Events]
//Background and Video events
0,0,"SLOW DANCING BACKGROUND POG.jpg",0,0
//Break Periods
//Storyboard Layer 0 (Background)
//Storyboard Layer 1 (Fail)
//Storyboard Layer 2 (Pass)
//Storyboard Layer 3 (Foreground)
//Storyboard Layer 4 (Overlay)
//Storyboard Sound Samples

[TimingPoints]
518,337.078651685393,4,2,1,50,1,0
798,-100,4,2,1,5,0,0
855,-100,4,2,1,50,0,0
1135,-100,4,2,1,5,0,0
1192,-100,4,2,1,50,0,0
1473,-100,4,2,1,5,0,0
1529,-100,4,2,1,50,0,0
1810,-100,4,2,1,5,0,0
1866,-100,4,2,1,50,0,0
2147,-100,4,2,1,5,0,0
2203,-100,4,2,1,50,0,0
2484,-100,4,2,1,5,0,0
2540,-100,4,2,1,50,0,0
3495,-100,4,2,1,5,0,0
3551,-100,4,2,1,50,0,0
3832,-100,4,2,1,5,0,0
3888,-100,4,2,1,50,0,0
4169,-100,4,2,1,5,0,0
4225,-100,4,2,1,50,0,0
4506,-100,4,2,1,5,0,0
4562,-100,4,2,1,50,0,0
4843,-100,4,2,1,5,0,0
4900,-100,4,2,1,50,0,0
5180,-100,4,2,1,5,0,0
5237,-100,4,2,1,50,0,0
5517,-100,4,2,1,5,0,0
5574,-100,4,2,1,50,0,0
6192,-100,4,2,1,5,0,0
6248,-100,4,2,1,50,0,0
6529,-100,4,2,1,5,0,0
6585,-100,4,2,1,50,0,0
6866,-100,4,2,1,5,0,0
6922,-100,4,2,1,50,0,0
7203,-100,4,2,1,5,0,0
7259,-100,4,2,1,50,0,0
7540,-100,4,2,1,5,0,0
7596,-100,4,2,1,50,0,0
7877,-100,4,2,1,5,0,0
7933,-100,4,2,1,50,0,0
8888,-100,4,2,1,5,0,0
8944,-100,4,2,1,50,0,0
9225,-100,4,2,1,5,0,0
9282,-100,4,2,1,50,0,0
9562,-100,4,2,1,5,0,0
9619,-100,4,2,1,50,0,0
9900,-100,4,2,1,5,0,0
9956,-100,4,2,1,50,0,0
10237,-100,4,2,1,5,0,0
10293,-100,4,2,1,50,0,0
11304,-100,4,2,1,50,0,0
11585,-100,4,2,1,5,0,0
11641,-100,4,2,1,50,0,0
11922,-100,4,2,1,5,0,0
11978,-100,4,2,1,50,0,0
12259,-100,4,2,1,5,0,0
12315,-100,4,2,1,50,0,0
12933,-100,4,2,1,5,0,0
12989,-100,4,2,1,50,0,0
13270,-100,4,2,1,5,0,0
13326,-100,4,2,1,50,0,0
13607,-100,4,2,1,5,0,0
13664,-100,4,2,1,50,0,0
14282,-100,4,2,1,5,0,0
14338,-100,4,2,1,50,0,0
14619,-100,4,2,1,5,0,0
14675,-100,4,2,1,50,0,0
14956,-100,4,2,1,5,0,0
15012,-100,4,2,1,50,0,0
15293,-100,4,2,1,5,0,0
15349,-100,4,2,1,50,0,0
16978,-100,4,2,1,5,0,0
17034,-100,4,2,1,50,0,0
17315,-100,4,2,1,5,0,0
17371,-100,4,2,1,50,0,0
17652,-100,4,2,1,5,0,0
17709,-100,4,2,1,50,0,0
17989,-100,4,2,1,5,0,0
18046,-100,4,2,1,50,0,0
19001,-100,4,2,1,5,0,0
19057,-100,4,2,1,50,0,0
19647,-100,4,2,1,5,0,0
19731,-100,4,2,1,50,0,0
19984,-100,4,2,1,5,0,0
20068,-100,4,2,1,50,0,0
20321,-100,4,2,1,5,0,0
20405,-100,4,2,1,50,0,0
20658,-100,4,2,1,5,0,0
20742,-100,4,2,1,50,0,0
22371,-100,4,2,1,5,0,0
22428,-100,4,2,1,50,0,0
22709,-100,4,2,1,5,0,0
22765,-100,4,2,1,50,0,0
25068,-100,4,2,1,5,0,0
25124,-100,4,2,1,50,0,0
25405,-100,4,2,1,5,0,0
25461,-100,4,2,1,50,0,0
25742,-100,4,2,1,5,0,0
25798,-100,4,2,1,50,0,0
26079,-100,4,2,1,5,0,0
26135,-100,4,2,1,50,0,0
26416,-100,4,2,1,5,0,0
26473,-100,4,2,1,50,0,0
27091,-100,4,2,1,5,0,0
27147,-100,4,2,1,50,0,0
27428,-100,4,2,1,5,0,0
27484,-100,4,2,1,50,0,0
27765,-100,4,2,1,5,0,0
27821,-100,4,2,1,50,0,0
28102,-100,4,2,1,5,0,0
28158,-100,4,2,1,50,0,0
28776,-100,4,2,1,5,0,0
28832,-100,4,2,1,50,0,0
30461,-100,4,2,1,5,0,0
30517,-100,4,2,1,50,0,0
30798,-100,4,2,1,5,0,0
30855,-100,4,2,1,50,0,0
31135,-100,4,2,1,5,0,0
31192,-100,4,2,1,50,0,0
31473,-100,4,2,1,5,0,0
31529,-100,4,2,1,50,0,0
33158,-100,4,2,1,5,0,0
33214,-100,4,2,1,50,0,0
34506,-100,4,2,1,5,0,0
34562,-100,4,2,1,50,0,0
34843,-100,4,2,1,5,0,0
34900,-100,4,2,1,50,0,0
35180,-100,4,2,1,5,0,0
35237,-100,4,2,1,50,0,0
35855,-100,4,2,1,5,0,0
35911,-100,4,2,1,50,0,0
36192,-100,4,2,1,5,0,0
36248,-100,4,2,1,50,0,0
36529,-100,4,2,1,5,0,0
36585,-100,4,2,1,50,0,0
36866,-100,4,2,1,5,0,0
36922,-100,4,2,1,50,0,0
37203,-100,4,2,1,5,0,0
37259,-100,4,2,1,50,0,0
37540,-100,4,2,1,5,0,0
37596,-100,4,2,1,50,0,0
37877,-100,4,2,1,5,0,0
37933,-100,4,2,1,50,0,0
38214,-100,4,2,1,5,0,0
38270,-100,4,2,1,50,0,0
38551,-100,4,2,1,5,0,0
38607,-100,4,2,1,50,0,0
38888,-100,4,2,1,5,0,0
38944,-100,4,2,1,50,0,0
39225,-100,4,2,1,5,0,0
39282,-100,4,2,1,50,0,0
39562,-100,4,2,1,5,0,0
39619,-100,4,2,1,50,0,0
40911,-100,4,2,1,5,0,0
40967,-100,4,2,1,50,0,0
41248,-100,4,2,1,5,0,0
41304,-100,4,2,1,50,0,0
41585,-100,4,2,1,5,0,0
41641,-100,4,2,1,50,0,0
41922,-100,4,2,1,5,0,0
41978,-100,4,2,1,50,0,0
42259,-100,4,2,1,5,0,0
42315,-100,4,2,1,50,0,0
43326,-100,4,2,1,20,0,0
43664,-100,4,2,1,50,0,0
43944,-100,4,2,1,5,0,0
44001,-100,4,2,1,50,0,0
44282,-100,4,2,1,5,0,0
44338,-100,4,2,1,50,0,0
44619,-100,4,2,1,5,0,0
44675,-100,4,2,1,50,0,0
44956,-100,4,2,1,5,0,0
45012,-100,4,2,1,50,0,0
45293,-100,4,2,1,5,0,0
45349,-100,4,2,1,50,0,0
45630,-100,4,2,1,5,0,0
45686,-100,4,2,1,50,0,0
45967,-100,4,2,1,5,0,0
46023,-100,4,2,1,50,0,0
46304,-100,4,2,1,5,0,0
46360,-100,4,2,1,50,0,0
49338,-100,4,2,1,5,0,0
49394,-100,4,2,1,50,0,0
49675,-100,4,2,1,5,0,0
49731,-100,4,2,1,50,0,0
50012,-100,4,2,1,5,0,0
50068,-100,4,2,1,50,0,0
50349,-100,4,2,1,5,0,0
50405,-100,4,2,1,50,0,0
50686,-100,4,2,1,5,0,0
50742,-100,4,2,1,50,0,0
51023,-100,4,2,1,5,0,0
51079,-100,4,2,1,50,0,0
51697,-100,4,2,1,5,0,0
51753,-100,4,2,1,50,0,0
54731,-100,4,2,1,5,0,0
54787,-100,4,2,1,50,0,0
55068,-100,4,2,1,5,0,0
55124,-100,4,2,1,50,0,0
55405,-100,4,2,1,5,0,0
55461,-100,4,2,1,50,0,0
55742,-100,4,2,1,5,0,0
55798,-100,4,2,1,50,0,0
56079,-100,4,2,1,5,0,0
56135,-100,4,2,1,50,0,0
57091,-100,4,2,1,5,0,0
57147,-100,4,2,1,50,0,0
57428,-100,4,2,1,5,0,0
57484,-100,4,2,1,50,0,0
57765,-100,4,2,1,5,0,0
57821,-100,4,2,1,50,0,0
58102,-100,4,2,1,5,0,0
58158,-100,4,2,1,50,0,0
58439,-100,4,2,1,5,0,0
58495,-100,4,2,1,50,0,0
60124,-100,4,2,1,5,0,0
60180,-100,4,2,1,50,0,0
60461,-100,4,2,1,5,0,0
60517,-100,4,2,1,50,0,0
60798,-100,4,2,1,5,0,0
60855,-100,4,2,1,50,0,0
61135,-100,4,2,1,5,0,0
61192,-100,4,2,1,50,0,0
65237,-100,4,2,3,50,0,0
65349,-100,4,2,1,50,0,0
65461,-100,4,2,4,50,0,0
66585,-100,4,2,1,50,0,0
66697,-100,4,2,4,50,0,0
67933,-100,4,1,1,50,0,0
70630,-100,4,2,3,50,0,0
70742,-100,4,2,4,50,0,0
71978,-100,4,2,4,50,0,0
72428,-100,4,2,4,50,0,0
72765,-100,4,2,4,50,0,0
72989,-100,4,2,1,50,0,0
73326,-100,4,1,1,50,0,0
76023,-100,4,2,3,50,0,0
76135,-100,4,2,4,50,0,0
77371,-100,4,2,1,50,0,0
77484,-100,4,2,4,50,0,0
77821,-100,4,2,4,50,0,0
78046,-100,4,2,4,50,0,0
78158,-100,4,2,4,50,0,0
78383,-100,4,2,4,50,0,0
78720,-100,4,2,1,50,0,0
81416,-100,4,2,3,50,0,0
81529,-100,4,2,4,50,0,0
82765,-100,4,2,1,50,0,0
82877,-100,4,2,4,50,0,0
83102,-100,4,2,1,50,0,0
83214,-100,4,2,4,50,0,0
83439,-100,4,2,1,50,0,0
83551,-100,4,2,4,50,0,0
83776,-100,4,2,1,50,0,0
84113,-100,4,2,3,50,0,0
84225,-100,4,2,4,50,0,0
85405,-100,4,2,1,50,0,0
86810,-100,4,2,3,50,0,0
86922,-100,4,2,4,50,0,0
88158,-100,4,2,1,50,0,0
88270,-100,4,2,4,50,0,0
89506,-100,4,2,1,50,0,0
89619,-100,4,2,4,50,0,0
90855,-100,4,1,1,50,0,0
92203,-100,4,2,3,50,0,0
92652,-100,4,2,1,5,0,0
92709,-100,4,2,1,50,0,0
95349,-100,4,2,1,5,0,0
95405,-100,4,2,1,50,0,0
97596,-100,4,2,2,70,0,1
102610,-100,4,2,2,5,0,1
102652,-100,4,2,2,70,0,1
108383,-100,4,2,1,50,0,0
108664,-100,4,2,1,5,0,0
108720,-100,4,2,1,50,0,0
109001,-100,4,2,1,5,0,0
109057,-100,4,2,1,50,0,0
111360,-100,4,2,1,5,0,0
111416,-100,4,2,1,50,0,0
111697,-100,4,2,1,5,0,0
111753,-100,4,2,1,50,0,0
112034,-100,4,2,1,5,0,0
112091,-100,4,2,1,50,0,0
112371,-100,4,2,1,5,0,0
112428,-100,4,2,1,50,0,0
112709,-100,4,2,1,5,0,0
112765,-100,4,2,1,50,0,0
113383,-100,4,2,1,5,0,0
113439,-100,4,2,1,50,0,0
113720,-100,4,2,1,5,0,0
113776,-100,4,2,1,50,0,0
114057,-100,4,2,1,5,0,0
114113,-100,4,2,1,50,0,0
114394,-100,4,2,1,5,0,0
114450,-100,4,2,1,50,0,0
114731,-100,4,2,1,5,0,0
114787,-100,4,2,1,50,0,0
115068,-100,4,2,1,5,0,0
115124,-100,4,2,1,50,0,0
116753,-100,4,2,1,5,0,0
116810,-100,4,2,1,50,0,0
117091,-100,4,2,1,5,0,0
117147,-100,4,2,1,50,0,0
117428,-100,4,2,1,5,0,0
117484,-100,4,2,1,50,0,0
117765,-100,4,2,1,5,0,0
117821,-100,4,2,1,50,0,0
119113,-100,4,2,1,5,0,0
119169,-100,4,2,1,50,0,0
119450,-100,4,2,1,5,0,0
119506,-100,4,2,1,50,0,0
119787,-100,4,2,1,5,0,0
119843,-100,4,2,1,50,0,0
120124,-100,4,2,1,5,0,0
120180,-100,4,2,1,50,0,0
120461,-100,4,2,1,5,0,0
120517,-100,4,2,1,50,0,0
120798,-100,4,2,1,5,0,0
120855,-100,4,2,1,50,0,0
121135,-100,4,2,1,5,0,0
121192,-100,4,2,1,50,0,0
121473,-100,4,2,1,5,0,0
121529,-100,4,2,1,50,0,0
122147,-100,4,2,1,5,0,0
122203,-100,4,2,1,50,0,0
122484,-100,4,2,1,5,0,0
122540,-100,4,2,1,50,0,0
122821,-100,4,2,1,5,0,0
122877,-100,4,2,1,50,0,0
123158,-100,4,2,1,5,0,0
123214,-100,4,2,1,50,0,0
123495,-100,4,2,1,5,0,0
123551,-100,4,2,1,50,0,0
123832,-100,4,2,1,5,0,0
123888,-100,4,2,1,50,0,0
124169,-100,4,2,1,5,0,0
124225,-100,4,2,1,50,0,0
124506,-100,4,2,1,5,0,0
124562,-100,4,2,1,50,0,0
124843,-100,4,2,1,5,0,0
124900,-100,4,2,1,50,0,0
125180,-100,4,2,1,5,0,0
125237,-100,4,2,1,50,0,0
125517,-100,4,2,1,5,0,0
125574,-100,4,2,1,50,0,0
125855,-100,4,2,1,5,0,0
125911,-100,4,2,1,50,0,0
127540,-100,4,2,1,5,0,0
127596,-100,4,2,1,50,0,0
127877,-100,4,2,1,5,0,0
127933,-100,4,2,1,50,0,0
128214,-100,4,2,1,5,0,0
128270,-100,4,2,1,50,0,0
128551,-100,4,2,1,5,0,0
128607,-100,4,2,1,50,0,0
129619,-100,4,2,1,15,0,0
129956,-100,4,2,1,50,0,0
130237,-100,4,2,1,5,0,0
130293,-100,4,2,1,50,0,0
130574,-100,4,2,1,5,0,0
130630,-100,4,2,1,50,0,0
130911,-100,4,2,1,5,0,0
130967,-100,4,2,1,50,0,0
131248,-100,4,2,1,5,0,0
131304,-100,4,2,1,50,0,0
132933,-100,4,2,1,5,0,0
132989,-100,4,2,1,50,0,0
133270,-100,4,2,1,5,0,0
133326,-100,4,2,1,50,0,0
133607,-100,4,2,1,5,0,0
133664,-100,4,2,1,50,0,0
133944,-100,4,2,1,5,0,0
134001,-100,4,2,1,50,0,0
135630,-100,4,2,1,5,0,0
135686,-100,4,2,1,50,0,0
135967,-100,4,2,1,5,0,0
136023,-100,4,2,1,50,0,0
136304,-100,4,2,1,5,0,0
136360,-100,4,2,1,50,0,0
136641,-100,4,2,1,5,0,0
136697,-100,4,2,1,50,0,0
136978,-100,4,2,1,5,0,0
137034,-100,4,2,1,50,0,0
137315,-100,4,2,1,5,0,0
137371,-100,4,2,1,50,0,0
137652,-100,4,2,1,5,0,0
137709,-100,4,2,1,50,0,0
138326,-100,4,2,1,5,0,0
138383,-100,4,2,1,50,0,0
138664,-100,4,2,1,5,0,0
138720,-100,4,2,1,50,0,0
139001,-100,4,2,1,5,0,0
139057,-100,4,2,1,50,0,0
139338,-100,4,2,1,5,0,0
139394,-100,4,2,1,50,0,0
140686,-100,4,2,1,5,0,0
140742,-100,4,2,1,50,0,0
141023,-100,4,2,1,5,0,0
141079,-100,4,2,1,50,0,0
141360,-100,4,2,1,5,0,0
141416,-100,4,2,1,50,0,0
141697,-100,4,2,1,5,0,0
141753,-100,4,2,1,50,0,0
142034,-100,4,2,1,5,0,0
142091,-100,4,2,1,50,0,0
143720,-100,4,2,1,5,0,0
143776,-100,4,2,1,50,0,0
144057,-100,4,2,1,5,0,0
144113,-100,4,2,1,50,0,0
144394,-100,4,2,1,5,0,0
144450,-100,4,2,1,50,0,0
144731,-100,4,2,1,5,0,0
144787,-100,4,2,1,50,0,0
146135,-100,4,2,4,50,0,0
150855,-100,4,2,3,50,0,0
152877,-100,4,2,1,50,0,0
156922,-100,4,2,3,50,0,0
158270,-100,4,2,1,50,0,0
162315,-100,4,2,3,50,0,0
163664,-100,4,2,1,50,0,0
167709,-100,4,2,3,50,0,0
169057,-100,4,2,1,50,0,0
170405,-100,4,2,3,50,0,0
171669,-100,4,2,1,50,0,0
173102,-100,4,2,3,50,0,0
174450,-100,4,2,1,50,0,0
178495,-100,4,2,3,50,0,0
178944,-100,4,2,1,50,0,0
183888,-100,4,2,2,80,0,1
188551,-100,4,2,2,5,0,1
188607,-100,4,2,2,80,0,1
193326,-100,4,2,2,80,0,0
194675,-100,4,2,2,80,0,1
196023,-100,4,2,2,80,0,0
197371,-100,4,2,2,80,0,1
199310,-100,4,2,2,5,0,1
199394,-100,4,2,2,80,0,0
200068,-100,4,2,2,80,0,1
204900,-100,4,2,2,5,0,1
204956,-100,4,2,2,80,0,1
205461,-100,4,2,1,5,0,0

[Colours]
Combo1 : 174,86,233
Combo2 : 176,83,179
Combo3 : 138,90,177
Combo4 : 100,102,189

[HitObjects]
120,204,518,6,0,L|308:188,2,180,2|2|2,3:2|0:0|0:0,0:0:0:0:
227,206,1529,1,2,0:0:0:0:
120,209,1866,1,10,0:1:0:0:
120,316,2203,1,2,0:1:0:0:
228,319,2540,1,2,0:1:0:0:
120,316,2877,1,2,0:1:0:0:
393,304,3214,6,0,B|265:283|265:283|258:223,2,180,2|2|2,3:2|0:0|0:0,0:0:0:0:
397,306,4225,1,2,0:0:0:0:
151,301,4562,2,0,L|121:191,1,90,10|0,0:1|0:0,0:0:0:0:
215,194,4900,2,0,L|185:84,1,90,2|0,0:1|0:0,0:0:0:0:
281,101,5237,2,0,L|157:97,1,90,2|0,2:1|0:0,0:0:0:0:
101,88,5574,1,2,0:1:0:0:
348,97,5911,6,0,L|160:81,2,180,2|2|2,3:2|0:0|0:0,0:0:0:0:
222,108,6922,1,2,0:0:0:0:
97,105,7259,1,10,0:1:0:0:
94,230,7596,1,2,2:1:0:0:
220,224,7933,1,2,0:1:0:0:
346,228,8270,1,2,0:1:0:0:
101,270,8607,6,0,B|229:249|229:249|236:189,2,180,2|2|2,3:2|0:0|0:0,0:0:0:0:
227,269,9619,1,2,0:0:0:0:
480,271,9956,1,10,0:1:0:0:
283,261,10293,2,0,P|286:192|401:170,1,180,2|2,1:0|1:0,0:0:0:0:
476,160,10967,1,0,0:0:0:0:
60,234,11304,6,0,P|76:146|166:172,1,180,2|2,3:2|2:0,0:0:0:0:
312,156,11978,1,2,0:0:0:0:
186,149,12315,1,2,0:0:0:0:
311,139,12652,1,10,0:1:0:0:
187,112,12989,1,2,0:1:0:0:
61,107,13326,1,2,0:1:0:0:
56,238,13664,1,2,0:1:0:0:
306,260,14001,6,0,L|304:53,1,180,2|2,3:2|0:0,0:0:0:0:
124,89,14675,1,2,0:0:0:0:
267,92,15012,1,2,0:0:0:0:
29,105,15349,2,0,L|151:102,1,90,10|0,0:0|1:0,0:0:0:0:
118,102,15686,2,0,L|240:99,1,90,0|0,1:0|1:0,0:0:0:0:
207,99,16023,2,0,L|207:212,1,90,0|0,1:0|1:0,0:0:0:0:
116,186,16360,1,0,1:0:0:0:
512,157,16697,6,0,L|324:153,2,180,2|2|2,3:2|0:0|0:0,0:0:0:0:
354,137,17709,1,2,0:0:0:0:
210,133,18046,1,10,0:1:0:0:
354,137,18383,1,0,0:0:0:0:
497,135,18720,1,2,1:0:0:0:
497,135,19057,1,2,1:0:0:0:
92,151,19394,6,0,P|65:209|119:233,1,135,2|0,3:2|0:0,0:0:0:0:
162,232,19731,2,0,P|225:210|213:132,1,135,2|0,0:0|0:0,0:0:0:0:
182,146,20068,2,0,L|47:146,1,135,2|0,0:0|0:0,0:0:0:0:
47,146,20405,2,0,L|202:147,1,135,2|0,0:0|0:0,0:0:0:0:
228,148,20742,6,0,P|309:171|340:63,1,180,10|0,0:0|0:0,0:0:0:0:
192,97,21416,1,0,0:0:0:0:
469,99,21753,1,0,3:0:0:0:
56,179,22091,6,0,P|20:99|110:105,1,180,6|0,3:2|0:0,0:0:0:0:
230,85,22765,2,0,L|130:88,1,90,2|2,1:0|1:0,0:0:0:0:
230,85,23102,2,0,L|319:82,1,90,2|2,1:0|1:0,0:0:0:0:
115,203,23439,1,10,0:0:0:0:
25,202,23607,1,0,0:0:0:0:
23,111,23776,1,2,1:0:0:0:
112,109,23944,1,0,0:0:0:0:
202,105,24113,1,2,2:0:0:0:
41,81,24450,1,2,2:0:0:0:
348,82,24787,6,0,P|225:73|177:13,2,180,0|2|2,3:2|0:0|0:0,0:0:0:0:
492,78,25798,2,0,L|497:192,1,90,2|0,1:0|0:0,0:0:0:0:
406,159,26135,2,0,L|530:161,1,90,10|0,1:0|0:0,0:0:0:0:
321,186,26473,2,0,P|325:96|488:188,1,360,2|2,1:0|0:1,0:0:0:0:
406,173,27315,1,0,0:0:0:0:
154,181,27484,6,0,P|82:133|162:78,1,180,2|2,3:2|0:0,0:0:0:0:
287,73,28158,2,0,L|89:78,1,180,2|2,0:0|0:0,0:0:0:0:
378,119,28832,1,10,0:0:0:0:
216,121,29169,1,0,0:0:0:0:
54,128,29506,1,0,0:0:0:0:
54,128,29843,1,0,0:0:0:0:
352,113,30180,6,0,L|149:115,2,180,2|2|2,3:2|0:0|0:0,0:0:0:0:
189,114,31192,1,2,0:0:0:0:
450,207,31529,2,0,L|446:97,1,90,10|0,1:0|0:0,0:0:0:0:
356,122,31866,2,0,L|360:12,1,90,2|0,1:0|1:0,0:0:0:0:
449,31,32203,1,2,2:1:0:0:
305,38,32540,1,0,0:0:0:0:
394,44,32709,1,0,0:0:0:0:
154,234,32877,6,0,L|153:34,1,180,2|2,3:2|0:0,0:0:0:0:
296,61,33551,1,2,0:0:0:0:
153,81,33888,1,2,0:0:0:0:
419,211,34225,1,10,2:1:0:0:
285,154,34562,1,2,0:1:0:0:
429,150,34900,1,2,0:1:0:0:
429,150,35237,1,2,0:1:0:0:
137,225,35574,6,0,P|79:166|174:120,1,180,0|2,3:2|0:0,0:0:0:0:
277,115,36248,1,2,0:0:0:0:
133,121,36585,1,2,0:0:0:0:
133,121,36753,1,0,0:0:0:0:
299,119,36922,6,0,L|496:123,1,180,10|2,1:0|0:1,0:0:0:0:
317,119,37596,1,2,0:1:0:0:
478,125,37933,1,2,0:1:0:0:
475,119,38102,1,0,0:0:0:0:
217,131,38270,6,0,P|132:122|109:33,1,180,2|2,3:2|0:0,0:0:0:0:
267,52,38944,1,2,0:0:0:0:
429,41,39282,1,2,0:0:0:0:
183,135,39619,1,10,0:0:0:0:
183,135,39956,2,0,L|278:138,1,90,2|2,0:1|0:1,0:0:0:0:
354,140,40293,2,0,L|264:137,1,90,2|2,0:1|0:1,0:0:0:0:
183,135,40630,2,0,L|178:20,1,90,2|0,0:1|0:0,0:0:0:0:
429,90,40967,6,0,L|232:12,2,180,2|2|2,3:2|0:0|0:0,0:0:0:0:
267,88,41978,1,2,0:0:0:0:
4,207,42315,2,0,L|3:-12,1,180,10|0,0:0|0:0,0:0:0:0:
3,27,43326,1,0,3:0:0:0:
450,57,43664,6,0,P|473:182|437:194,1,180,6|2,3:0|0:0,0:0:0:0:
294,173,44338,2,0,L|481:178,1,180,2|2,0:0|0:0,0:0:0:0:
204,227,45012,2,0,L|201:111,1,90,10|0,0:0|0:0,0:0:0:0:
282,136,45349,2,0,L|279:20,1,90,0|0,0:0|0:0,0:0:0:0:
198,53,45686,2,0,L|419:57,1,180,0|2,0:0|0:1,0:0:0:0:
114,215,46360,6,0,P|92:150|189:150,1,180,2|0,3:1|0:0,0:0:0:0:
260,137,46866,1,2,2:1:0:0:
340,137,47034,2,0,P|362:72|265:72,1,180,2|0,0:1|0:0,0:0:0:0:
194,64,47540,1,2,2:1:0:0:
360,145,47709,6,0,L|362:15,1,90,10|0,1:0|0:0,0:0:0:0:
360,145,48046,2,0,L|233:146,1,90,0|2,0:0|2:1,0:0:0:0:
361,55,48383,2,0,L|464:62,1,90,2|0,0:1|0:0,0:0:0:0:
452,53,48888,1,2,2:1:0:0:
212,71,49057,6,0,L|16:62,2,180,6|2|2,3:0|0:0|0:0,0:0:0:0:
373,72,50068,1,2,0:0:0:0:
114,71,50405,2,0,L|-4:70,1,90,10|0,0:0|0:0,0:0:0:0:
114,71,50742,2,0,L|229:73,1,90,0|0,2:0|0:0,0:0:0:0:
95,157,51079,2,0,P|42:76|125:74,1,180,0|2,0:0|0:1,0:0:0:0:
349,64,51753,6,0,L|158:60,1,180,2|0,3:1|0:0,0:0:0:0:
259,59,52259,1,2,2:1:0:0:
348,68,52428,2,0,P|406:64|415:177,1,180,2|0,0:1|0:0,0:0:0:0:
339,166,52933,1,2,2:1:0:0:
170,167,53102,6,0,L|294:165,1,90,10|0,0:1|0:0,0:0:0:0:
168,77,53439,2,0,L|68:74,1,90,0|2,0:0|2:1,0:0:0:0:
78,74,53776,2,0,L|167:70,1,90,2|0,1:0|0:0,0:0:0:0:
169,165,54282,1,2,2:1:0:0:
402,158,54450,6,0,L|203:114,2,180,6|2|2,3:0|0:0|0:0,0:0:0:0:
222,152,55461,1,2,0:0:0:0:
383,147,55798,1,10,0:0:0:0:
217,143,56135,2,0,L|216:28,1,90,2|2,0:1|0:1,0:0:0:0:
216,53,56473,2,0,L|341:45,1,90,2|2,0:1|0:1,0:0:0:0:
216,53,56810,2,0,L|126:52,1,90,2|0,0:1|0:0,0:0:0:0:
297,156,57147,6,0,P|370:137|394:35,2,180,2|2|2,3:2|0:0|0:0,0:0:0:0:
135,156,58158,1,2,0:0:0:0:
296,156,58495,1,10,0:0:0:0:
135,156,58832,2,0,L|247:157,1,90,2|2,0:1|0:1,0:0:0:0:
217,142,59169,2,0,L|127:147,1,90,2|2,0:1|0:1,0:0:0:0:
127,146,59506,2,0,L|130:29,1,90,2|2,0:1|0:1,0:0:0:0:
360,122,59843,6,0,P|333:60|229:83,1,180,4|2,3:0|0:0,0:0:0:0:
77,79,60517,1,2,0:0:0:0:
239,83,60855,1,2,0:0:0:0:
400,80,61192,1,10,0:0:0:0:
400,80,61529,2,0,L|403:180,1,90,2|2,2:1|2:1,2:1:0:0:
401,169,61866,1,0,0:0:0:0:
239,169,62203,1,0,0:0:0:0:
256,192,62540,12,2,64562,1:0:0:0:
209,182,65237,6,0,L|62:188,1,120,6|0,3:0|0:0,0:0:0:0:
89,186,65574,2,0,L|209:182,1,120,0|0,0:0|0:0,0:0:0:0:
263,182,65911,1,0,0:0:0:0:
101,179,66248,1,0,0:0:0:0:
368,176,66585,6,0,P|391:137|310:130,1,120,8|0,0:0|0:0,0:0:0:0:
273,99,66922,2,0,P|250:60|331:53,1,120,0|0,0:0|0:0,0:0:0:0:
366,31,67259,1,0,0:0:0:0:
300,22,67371,1,0,0:0:0:0:
234,27,67484,1,0,0:0:0:0:
234,27,67596,1,0,0:0:0:0:
300,22,67709,1,0,0:0:0:0:
366,29,67821,1,0,0:0:0:0:
225,153,67933,6,0,P|194:94|291:90,1,180,2|0,3:1|0:0,0:0:0:0:
369,69,68439,1,2,0:0:0:0:
280,55,68607,2,0,L|88:58,1,180,2|0,0:0|0:0,0:0:0:0:
190,50,69113,1,2,0:0:0:0:
345,162,69282,2,0,P|392:120|263:96,1,270,10|2,0:1|0:0,0:0:0:0:
178,66,69956,2,0,L|465:60,1,270,2|2,1:0|0:0,0:0:0:0:
214,141,70630,6,0,L|21:143,2,180,12|0|0,3:0|0:0|0:0,0:0:0:0:
393,142,71641,1,0,0:0:0:0:
137,148,71978,2,0,P|121:80|215:86,1,180,8|0,0:0|0:0,0:0:0:0:
268,77,72428,1,0,0:0:0:0:
267,17,72540,1,0,0:0:0:0:
207,16,72652,2,0,L|373:17,1,120,0|0,0:0|0:0,0:0:0:0:
326,16,72989,2,0,L|207:16,1,120
342,200,73326,6,0,P|388:149|305:105,1,180,2|0,3:1|0:0,0:0:0:0:
224,98,73832,1,2,0:0:0:0:
134,90,74001,2,0,P|156:33|267:47,1,180,2|0,0:0|0:0,0:0:0:0:
349,44,74506,1,2,0:0:0:0:
183,174,74675,6,0,P|100:155|103:58,1,180,10|0,0:0|0:0,0:0:0:0:
182,69,75180,1,2,0:0:0:0:
352,73,75349,2,0,L|45:71,1,270,2|2,0:0|0:0,0:0:0:0:
313,141,76023,6,0,L|506:143,2,180,6|0|0,3:0|0:0|0:0,0:0:0:0:
133,139,77034,1,0,0:0:0:0:
312,128,77371,2,0,L|305:46,1,60,8|0,0:0|0:0,0:0:0:0:
246,63,77596,1,0,0:0:0:0:
185,63,77709,1,0,0:0:0:0:
182,122,77821,1,0,0:0:0:0:
240,132,77933,1,0,0:0:0:0:
300,137,78046,2,0,L|146:137,1,120,0|0,0:0|0:0,0:0:0:0:
180,137,78383,2,0,L|315:140,1,120,2|0,2:0|0:0,0:0:0:0:
447,134,78720,6,0,P|433:55|335:63,1,180,2|0,3:1|0:0,0:0:0:0:
256,52,79225,1,2,1:1:0:0:
166,64,79394,2,0,L|362:58,1,180,2|0,1:1|0:0,0:0:0:0:
256,52,79900,1,2,1:1:0:0:
424,205,80068,2,0,P|481:126|408:126,1,180,10|0,1:1|0:0,0:0:0:0:
351,109,80574,1,2,1:1:0:0:
261,107,80742,2,0,L|455:102,1,180,2|0,0:1|0:0,0:0:0:0:
16,240,81416,6,0,L|17:31,1,180,12|0,3:0|0:0,0:0:0:0:
106,65,81922,1,0,0:0:0:0:
196,65,82091,1,0,0:0:0:0:
16,60,82428,1,0,0:0:0:0:
294,57,82765,2,0,L|94:60,2,180,8|0|0,0:0|1:0|1:0,0:0:0:0:
473,54,83776,1,0,1:0:0:0:
200,213,84113,6,0,P|161:175|217:150,1,120,8|0,3:0|0:0,0:0:0:0:
262,146,84450,2,0,P|301:108|245:83,1,120,0|0,0:0|0:0,0:0:0:0:
199,77,84787,1,0,0:0:0:0:
378,76,85124,1,0,0:0:0:0:
375,166,85293,1,0,0:0:0:0:
130,220,85461,6,0,P|91:168|227:152,1,270,10|0,0:0|0:0,0:0:0:0:
394,130,86135,2,0,P|371:38|211:79,1,270,2|0,0:0|0:0,0:0:0:0:
454,215,86810,6,0,L|448:59,1,120,6|0,3:0|0:0,0:0:0:0:
389,91,87147,2,0,L|255:90,1,120,0|0,0:0|0:0,0:0:0:0:
329,90,87484,1,0,0:0:0:0:
167,86,87821,1,0,0:0:0:0:
388,166,88158,6,0,L|394:79,1,60,8|0,0:0|0:0,0:0:0:0:
333,97,88383,1,0,0:0:0:0:
274,98,88495,1,0,0:0:0:0:
395,97,88720,1,0,0:0:0:0:
333,97,88832,1,0,0:0:0:0:
333,43,88944,1,0,0:0:0:0:
387,43,89057,1,0,0:0:0:0:
440,45,89169,1,0,0:0:0:0:
440,99,89282,1,0,0:0:0:0:
209,122,89506,6,0,L|365:119,1,120,0|0,3:0|0:0,0:0:0:0:
274,121,89843,2,0,L|118:124,1,120,0|0,0:0|0:0,0:0:0:0:
154,68,90180,1,0,0:0:0:0:
208,69,90293,1,0,0:0:0:0:
261,67,90405,1,0,0:0:0:0:
208,69,90517,1,0,0:0:0:0:
153,74,90630,1,0,0:0:0:0:
464,142,90855,6,0,P|365:129|306:55,2,180,10|2|2,0:0|0:0|0:0,0:0:0:0:
302,143,91866,1,0,0:0:0:0:
382,142,92034,1,2,0:0:0:0:
148,228,92203,6,0,P|62:231|45:144,1,180,12|0,3:0|0:0,0:0:0:0:
202,156,92877,2,0,L|18:160,1,180,0|0,0:0|0:0,0:0:0:0:
308,226,93551,2,0,P|312:160|222:185,1,180,10|2,0:0|0:0,0:0:0:0:
116,169,94113,1,0,0:0:0:0:
169,178,94225,2,0,P|229:118|206:104,1,120,2|0,0:0|0:0,0:0:0:0:
179,114,94562,2,0,P|119:54|142:40,1,120,2|0,0:0|0:0,0:0:0:0:
248,69,94900,6,0,P|364:62|372:6,1,180,2|0,3:2|0:0,0:0:0:0:
213,36,95574,1,0,0:0:0:0:
374,31,95911,1,0,0:0:0:0:
105,198,96248,2,0,P|74:118|221:128,1,270,10|0,0:1|0:0,0:0:0:0:
293,100,96922,2,0,L|-20:95,1,270,2|0,0:1|0:0,0:0:0:0:
260,129,97596,6,0,L|369:126,1,90,4|0,3:0|0:0,0:0:0:0:
259,129,97933,2,0,L|150:126,1,90,0|0,3:0|0:0,0:0:0:0:
336,184,98270,2,0,L|334:71,1,90,0|0,3:0|0:0,0:0:0:0:
168,138,98607,2,0,L|166:25,1,90,0|0,3:0|0:0,0:0:0:0:
403,105,98944,2,0,P|356:50|386:240,1,630,8|0,0:0|0:0,0:0:0:0:
118,287,100293,6,0,L|121:162,1,90,4|0,3:0|0:0,0:0:0:0:
210,196,100630,2,0,L|120:195,1,90,0|0,3:0|0:0,0:0:0:0:
282,164,100967,2,0,L|285:42,1,90,0|0,3:0|0:0,0:0:0:0:
126,69,101304,2,0,L|36:70,1,90,0|0,3:0|0:0,0:0:0:0:
274,188,101641,2,0,P|275:86|125:113,1,270,8|0,0:0|0:0,0:0:0:0:
227,87,102315,2,0,B|34:86|34:86|35:4,1,270,2|0,0:0|0:0,0:0:0:0:
265,50,102989,6,0,L|369:45,1,90,4|0,3:0|0:0,0:0:0:0:
444,51,103326,2,0,L|340:46,1,90,0|0,3:0|0:0,0:0:0:0:
189,147,103664,2,0,L|187:27,1,90,0|0,3:0|0:0,0:0:0:0:
354,148,104001,2,0,L|356:28,1,90,0|0,3:0|0:0,0:0:0:0:
125,111,104338,2,0,B|-2:109|-2:109|285:101|285:101|125:93|125:93|121:6,1,630,8|0,0:0|0:0,0:0:0:0:
359,51,105686,6,0,L|360:161,1,90,4|0,3:0|0:0,0:0:0:0:
269,142,106023,2,0,L|268:252,1,90,0|0,3:0|0:0,0:0:0:0:
438,228,106360,2,0,L|306:227,1,90,0|0,3:0|0:0,0:0:0:0:
186,222,106697,2,0,L|54:221,1,90,0|0,3:0|0:0,0:0:0:0:
332,307,107034,2,0,B|459:207|459:207|278:228|278:228|459:195|459:195|454:171|454:171|359:164,1,630,8|0,0:0|0:0,0:0:0:0:
142,161,108383,6,0,P|87:108|167:98,1,180,2|2,3:2|0:0,0:0:0:0:
336,90,109057,2,0,L|226:90,1,90,2|2,0:1|0:1,0:0:0:0:
156,85,109394,2,0,L|266:85,1,90,2|2,0:1|0:1,0:0:0:0:
416,207,109731,1,10,0:0:0:0:
331,208,109900,1,0,0:0:0:0:
291,132,110068,1,0,0:0:0:0:
341,63,110237,1,0,0:0:0:0:
425,75,110405,1,0,0:0:0:0:
425,75,110742,1,0,0:0:0:0:
164,82,111079,6,0,P|287:73|335:13,2,180,2|2|2,3:2|0:0|0:0,0:0:0:0:
20,78,112091,2,0,L|125:85,1,90,2|0,0:1|0:0,0:0:0:0:
200,81,112428,2,0,L|76:83,1,90,10|0,1:0|0:0,0:0:0:0:
259,189,112765,2,0,P|346:76|181:54,1,360,2|2,0:1|0:1,0:0:0:0:
101,49,113607,1,0,0:0:0:0:
358,181,113776,6,0,P|430:133|350:78,1,180,2|2,3:2|0:0,0:0:0:0:
225,73,114450,2,0,L|423:78,1,180,2|2,0:0|2:0,0:0:0:0:
134,119,115124,1,10,0:0:0:0:
296,121,115461,1,0,0:0:0:0:
458,128,115798,1,0,0:0:0:0:
458,128,116135,1,0,0:0:0:0:
160,113,116473,6,0,L|363:115,2,180,2|2|2,3:2|0:0|0:0,0:0:0:0:
323,114,117484,1,2,0:0:0:0:
62,207,117821,2,0,L|66:97,1,90,10|0,1:1|1:0,0:0:0:0:
156,122,118158,2,0,L|44:118,1,90,2|0,1:0|1:0,0:0:0:0:
63,31,118495,1,2,1:0:0:0:
126,28,118664,1,0,0:0:0:0:
188,28,118832,1,0,0:0:0:0:
126,28,119001,1,0,0:0:0:0:
358,234,119169,6,0,L|359:34,1,180,2|2,3:2|0:0,0:0:0:0:
216,61,119843,1,2,0:0:0:0:
359,81,120180,1,2,0:0:0:0:
93,211,120517,1,10,0:0:0:0:
227,154,120855,1,0,0:0:0:0:
83,150,121192,1,0,0:0:0:0:
83,150,121529,1,0,0:0:0:0:
375,225,121866,6,0,P|433:166|338:120,1,180,2|2,3:2|0:0,0:0:0:0:
235,115,122540,1,2,0:0:0:0:
379,121,122877,1,2,0:0:0:0:
379,121,123046,1,0,0:0:0:0:
213,119,123214,6,0,P|164:82|245:25,1,180,10|2,2:1|2:1,0:0:0:0:
356,20,123888,1,2,2:1:0:0:
230,26,124225,1,2,2:1:0:0:
166,24,124394,1,0,0:0:0:0:
411,138,124562,6,0,P|468:119|396:59,1,180,2|2,3:2|0:0,0:0:0:0:
264,40,125237,1,2,0:0:0:0:
426,50,125574,1,2,0:0:0:0:
264,40,125911,2,0,L|475:32,1,180,10|0,0:0|1:0,0:0:0:0:
264,40,126585,1,0,1:0:0:0:
84,27,126922,2,0,L|207:26,1,90,0|0,1:0|0:0,0:0:0:0:
414,159,127259,6,0,P|456:126|397:108,1,135,2|0,3:2|0:0,0:0:0:0:
356,100,127596,2,0,P|314:67|373:49,1,135,2|0,0:0|0:0,0:0:0:0:
412,35,127933,2,0,L|248:30,1,135,2|0,0:0|0:0,0:0:0:0:
231,28,128270,2,0,L|395:23,1,135,2|0,0:0|0:0,0:0:0:0:
320,23,128607,6,0,L|127:23,1,180,8|0,0:0|1:0,0:0:0:0:
65,108,129282,1,0,0:0:0:0:
65,108,129619,1,0,3:0:0:0:
480,273,129956,6,0,L|482:74,1,180,2|2,3:2|0:0,0:0:0:0:
320,85,130630,1,2,0:0:0:0:
481,88,130967,1,2,0:0:0:0:
227,220,131304,6,0,P|125:195|237:156,1,270,10|2,2:1|2:1,0:0:0:0:
321,137,131978,2,0,L|18:135,1,270,2|2,2:1|0:1,0:0:0:0:
303,288,132652,2,0,P|369:280|384:163,1,180,2|2,3:2|0:0,0:0:0:0:
217,172,133326,1,2,0:0:0:0:
396,158,133664,1,2,0:0:0:0:
138,255,134001,6,0,L|142:147,1,90,10|0,0:0|1:0,0:0:0:0:
229,144,134338,2,0,L|107:142,1,90,0|0,1:0|1:0,0:0:0:0:
229,135,134675,2,0,L|352:131,1,90,0|0,1:0|1:0,0:0:0:0:
228,126,135012,2,0,L|138:131,1,90,0|0,1:0|0:0,0:0:0:0:
389,135,135349,6,0,P|371:65|271:67,1,180,0|2,3:0|0:0,0:0:0:0:
96,63,136023,1,2,0:0:0:0:
276,61,136360,1,2,0:0:0:0:
18,222,136697,2,0,L|19:41,1,180,8|0,0:0|0:0,0:0:0:0:
198,45,137371,2,0,L|185:155,1,90,2|0,0:0|0:0,0:0:0:0:
96,128,137709,2,0,L|110:242,1,90,2|0,0:0|0:0,0:0:0:0:
342,218,138046,6,0,L|162:172,2,180,2|2|2,3:2|0:0|0:0,0:0:0:0:
162,210,139057,1,2,0:0:0:0:
415,213,139394,1,8,0:0:0:0:
253,208,139731,2,0,L|156:206,1,90,2|2,2:1|2:1,2:1:0:0:
171,125,140068,2,0,L|286:118,1,90,2|2,2:1|2:1,2:1:0:0:
179,120,140405,2,0,L|89:118,1,90,2|0,2:1|2:1,2:1:0:0:
331,255,140742,6,0,P|405:249|401:143,1,180,2|2,3:2|0:0,0:0:0:0:
254,152,141416,1,2,0:0:0:0:
416,158,141753,1,2,0:0:0:0:
150,251,142091,2,0,L|158:69,1,180,8|2,0:0|1:0,0:0:0:0:
247,74,142596,1,0,0:0:0:0:
336,64,142765,2,0,L|205:64,1,90,2|0,2:1|2:1,2:1:0:0:
336,62,143102,2,0,L|425:63,1,90,2|0,2:1|2:1,2:1:0:0:
186,216,143439,6,0,P|209:127|300:135,1,180,2|2,3:2|0:0,0:0:0:0:
464,117,144113,1,2,0:0:0:0:
284,114,144450,1,2,0:0:0:0:
30,183,144787,5,10,0:0:0:0:
112,178,144956,1,0,1:0:0:0:
120,95,145124,1,0,1:0:0:0:
40,75,145293,1,0,1:0:0:0:
130,75,145461,2,0,L|245:70,1,90,0|0,1:0|1:0,0:0:0:0:
134,154,145798,2,0,L|128:40,1,90,2|0,2:1|0:0,0:0:0:0:
379,79,146135,1,2,3:0:0:0:
256,192,146473,12,2,148495,0:0:0:0:
344,188,150517,5,0,0:0:0:0:
344,188,150686,1,0,0:0:0:0:
276,191,150812,1,0,0:0:0:0:
366,190,150981,1,0,0:0:0:0:
456,188,151150,1,0,0:0:0:0:
456,188,151234,1,0,3:0:0:0:
456,188,151318,1,0,3:0:0:0:
166,240,151529,6,0,P|136:179|233:173,1,180,6|0,3:0|0:0,0:0:0:0:
310,158,152034,1,0,0:0:0:0:
220,155,152203,2,0,L|414:151,1,180,0|0,0:0|0:0,0:0:0:0:
145,327,152877,2,0,P|81:231|366:252,1,630,8|0,0:0|0:0,0:0:0:0:
131,257,154225,6,0,L|133:41,1,180,2|0,3:2|0:0,0:0:0:0:
222,79,154731,1,2,0:0:0:0:
311,69,154900,2,0,L|93:69,1,180,2|0,0:0|0:0,0:0:0:0:
41,64,155405,1,2,0:0:0:0:
278,203,155574,2,0,P|303:126|159:139,1,270,10|2,0:0|0:0,0:0:0:0:
336,136,156248,2,0,P|447:154|423:30,1,270,2|2,0:0|0:0,0:0:0:0:
154,214,156922,6,0,L|160:29,1,180,12|0,3:0|0:0,0:0:0:0:
249,39,157428,1,0,0:0:0:0:
171,84,157596,2,0,P|81:73|65:-10,1,180,0|0,0:0|0:0,0:0:0:0:
330,39,158270,2,0,B|40:38|40:38|42:130,1,360,8|0,0:0|0:0,0:0:0:0:
41,108,159282,1,0,0:0:0:0:
476,240,159619,6,0,P|442:144|369:163,1,180,2|0,3:2|0:0,0:0:0:0:
291,156,160124,1,2,0:0:0:0:
381,160,160293,2,0,P|439:121|359:89,1,180,2|0,0:0|0:0,0:0:0:0:
280,75,160798,1,2,0:0:0:0:
116,81,160967,6,0,P|58:130|126:161,1,180,10|0,0:0|0:0,0:0:0:0:
217,165,161473,1,2,0:0:0:0:
389,224,161641,2,0,P|477:201|481:104,1,180,2|0,0:0|0:0,0:0:0:0:
391,120,162147,1,2,0:0:0:0:
164,108,162315,6,0,L|387:116,1,180,6|0,3:0|0:0,0:0:0:0:
245,100,162821,1,0,0:0:0:0:
146,106,162989,2,0,P|77:69|148:29,1,180,0|0,0:0|0:0,0:0:0:0:
393,50,163664,2,0,L|175:47,1,180,8|0,0:0|0:0,0:0:0:0:
394,229,164338,2,0,P|466:193|418:106,1,180,0|0,0:0|0:0,0:0:0:0:
340,107,164843,1,0,0:0:0:0:
105,155,165012,6,0,P|122:87|239:99,1,180,2|0,3:2|0:0,0:0:0:0:
317,77,165517,1,2,0:0:0:0:
217,70,165686,2,0,P|157:96|204:181,1,180,2|0,0:0|0:0,0:0:0:0:
296,183,166192,1,2,0:0:0:0:
122,194,166360,2,0,B|39:71|39:71|170:71,1,270,10|2,0:0|2:0,0:0:0:0:
335,114,167034,2,0,P|442:94|435:13,1,180,2|0,0:0|0:0,0:0:0:0:
349,47,167540,1,2,2:0:0:0:
111,160,167709,6,2,P|59:124|139:102,1,180,12|0,3:0|0:0,0:0:0:0:
232,98,168214,1,0,0:0:0:0:
331,102,168383,2,0,L|112:113,1,180,0|0,0:0|0:0,0:0:0:0:
415,229,169057,2,0,P|444:165|243:159,1,360,8|0,0:0|1:0,0:0:0:0:
428,123,170068,1,2,2:0:0:0:
166,186,170405,6,0,B|29:173|29:173|16:107,1,180,12|0,3:0|0:0,0:0:0:0:
200,116,171079,2,0,L|14:118,1,180,0|0,0:0|0:0,0:0:0:0:
437,208,171753,2,0,P|506:176|455:99,1,180,10|0,0:0|0:0,0:0:0:0:
188,159,172428,2,0,P|119:127|170:50,1,180,2|0,0:0|0:0,0:0:0:0:
246,62,172933,1,0,0:0:0:0:
479,96,173102,6,0,L|279:93,1,180,6|0,3:0|0:0,0:0:0:0:
209,88,173607,1,0,0:0:0:0:
299,93,173776,2,0,L|485:92,1,180,0|0,0:0|0:0,0:0:0:0:
240,218,174450,6,0,P|203:163|469:137,1,540,8|0,0:0|1:0,0:0:0:0:
214,156,175798,2,0,L|393:143,2,180,0|0|0,3:0|0:0|0:0,0:0:0:0:
33,162,176810,1,0,0:0:0:0:
307,171,177147,6,0,L|94:167,1,180,10|0,0:0|0:0,0:0:0:0:
394,272,177821,2,0,P|504:235|475:189,1,180,2|0,0:0|0:0,0:0:0:0:
409,205,178326,1,0,0:0:0:0:
174,237,178495,6,0,P|135:194|222:166,1,180,12|0,3:0|0:0,0:0:0:0:
316,167,179001,1,0,0:0:0:0:
208,168,179169,2,0,L|22:172,1,180,0|0,0:0|0:0,0:0:0:0:
329,214,179843,6,0,L|550:212,2,180,10|2|2,0:0|0:0|0:0,0:0:0:0:
509,215,180855,1,2,0:0:0:0:
224,209,181192,1,2,3:0:0:0:
403,204,181529,2,0,L|43:202,1,360,0|0,0:0|0:0,0:0:0:0:
341,224,182540,2,0,P|453:233|388:133,1,270,10|0,0:0|0:0,0:0:0:0:
288,157,183214,2,0,P|176:166|137:26,1,270,2|0,0:0|0:0,0:0:0:0:
374,136,183888,6,0,L|375:26,1,90,4|0,3:0|0:0,0:0:0:0:
285,57,184225,2,0,L|172:59,1,90
285,57,184562,2,0,L|181:56,1,90,0|0,0:0|0:0,0:0:0:0:
371,69,184900,2,0,L|486:68,1,90,0|0,0:0|0:0,0:0:0:0:
229,107,185237,2,0,P|276:52|246:242,1,630,8|0,0:0|0:0,0:0:0:0:
46,273,186585,6,0,L|49:148,1,90,4|0,3:0|0:0,0:0:0:0:
138,185,186922,2,0,L|48:184,1,90,0|0,0:0|0:0,0:0:0:0:
138,185,187259,2,0,L|252:185,1,90,0|0,0:0|0:0,0:0:0:0:
46,94,187596,2,0,L|48:202,1,90,0|0,0:0|0:0,0:0:0:0:
276,272,187933,2,0,P|394:280|435:136,1,270,10|0,0:0|0:0,0:0:0:0:
354,170,188607,2,0,P|426:183|361:64,1,270,2|0,0:0|0:0,0:0:0:0:
156,109,189282,6,0,L|34:111,1,90,4|0,3:0|0:0,0:0:0:0:
156,109,189619,2,0,L|57:115,1,90,0|0,0:0|0:0,0:0:0:0:
234,159,189956,2,0,L|236:36,1,90,0|0,0:0|0:0,0:0:0:0:
69,137,190293,2,0,L|67:14,1,90,0|0,0:0|0:0,0:0:0:0:
314,185,190630,6,0,P|292:116|261:285,1,630,8|0,0:0|0:0,0:0:0:0:
492,291,191978,2,0,P|479:224|21:160,1,630,4|0,3:0|0:0,0:0:0:0:
263,166,193326,2,0,L|469:156,1,180,10|0,0:0|0:0,0:0:0:0:
179,174,194001,2,0,L|-44:180,1,180,2|0,0:0|0:0,0:0:0:0:
456,250,194675,6,0,L|452:132,1,90,4|0,3:0|0:0,0:0:0:0:
362,167,195012,2,0,L|358:49,1,90,4|0,3:0|0:0,0:0:0:0:
172,189,195349,2,0,L|176:71,1,90,4|0,3:0|0:0,0:0:0:0:
351,81,195686,2,0,L|457:81,1,90,4|0,3:0|0:0,0:0:0:0:
176,327,196023,2,0,B|176:26|176:26|41:24|41:24|34:230,1,630,8|0,0:0|0:0,0:0:0:0:
279,215,197371,6,0,L|395:213,1,90,4|0,3:0|0:0,0:0:0:0:
278,216,197709,2,0,L|162:214,1,90,0|0,0:0|0:0,0:0:0:0:
7,179,198046,2,0,L|120:174,1,90,0|0,0:0|0:0,0:0:0:0:
268,163,198383,2,0,L|381:158,1,90,0|0,0:0|0:0,0:0:0:0:
112,278,198720,2,0,P|108:173|272:186,1,270,10|0,0:0|0:0,0:0:0:0:
157,167,199394,2,2,P|59:155|57:0,1,270
298,78,200068,6,0,L|193:63,1,90,4|0,3:0|0:0,0:0:0:0:
118,69,200405,2,0,L|223:54,1,90,4|0,3:0|0:0,0:0:0:0:
375,51,200742,2,0,L|260:40,1,90,4|0,3:0|0:0,0:0:0:0:
112,48,201079,2,0,L|99:180,1,90,4|0,3:0|0:0,0:0:0:0:
336,258,201416,2,0,P|281:218|487:214,1,630,8|0,0:0|0:0,0:0:0:0:
246,269,202765,6,0,P|201:183|481:219,1,630,4|0,3:0|0:0,0:0:0:0:
234,279,204113,2,0,B|86:262|86:262|149:253|149:253|78:154|78:154|481:149,1,720,8|0,0:0|0:0,0:0:0:0:
