osu file format v14

[General]
AudioFilename: audio.mp3
AudioLeadIn: 0
PreviewTime: 151529
Countdown: 0
SampleSet: Soft
StackLeniency: 0.4
Mode: 0
LetterboxInBreaks: 0
WidescreenStoryboard: 0

[Editor]
Bookmarks: 24787,32877,43664,54450,65237,76023,86810,97596,108383,119169,129956,176135,183888
DistanceSpacing: 2.2
BeatDivisor: 4
GridSize: 4
TimelineZoom: 2.1

[Metadata]
Title:SLOW DANCING IN THE DARK
TitleUnicode:SLOW DANCING IN THE DARK
Artist:Joji
ArtistUnicode:Joji
Creator:Mayflower
Version:INSANE feat. EM0NKY
Source:
Tags:ballads1 1 english filthy frank papa franku george miller pink guy 88rising ambient dance R&B Soul Hip Hop hiphop Yeah Right Can't Get Over You cant Patrick Wimberly Francisco Frankie Ramirez Chris Athens eiri- ayyri em0nky emonky marblelemons thepython JeirYagtama jieryagtama Jeirin Liyac cyanine californian darknessofblue Jemzuu AJamez
BeatmapID:2131562
BeatmapSetID:902215

[Difficulty]
HPDrainRate:4
CircleSize:4.4
OverallDifficulty:7.8
ApproachRate:9
SliderMultiplier:1.6
SliderTickRate:1

[Events]
//Background and Video events
0,0,"SLOW DANCING BACKGROUND POG.jpg",0,0
//Break Periods
//Storyboard Layer 0 (Background)
//Storyboard Layer 1 (Fail)
//Storyboard Layer 2 (Pass)
//Storyboard Layer 3 (Foreground)
//Storyboard Layer 4 (Overlay)
//Storyboard Sound Samples

[TimingPoints]
518,337.078651685393,4,2,1,50,1,0
518,-142.857142857143,4,2,1,50,0,0
798,-100,4,2,1,5,0,0
855,-142.857142857143,4,2,1,50,0,0
1135,-142.857142857143,4,2,1,5,0,0
1192,-142.857142857143,4,2,1,50,0,0
1473,-142.857142857143,4,2,1,5,0,0
1529,-142.857142857143,4,2,1,50,0,0
1810,-142.857142857143,4,2,1,5,0,0
1866,-142.857142857143,4,2,1,50,0,0
2147,-142.857142857143,4,2,1,5,0,0
2203,-142.857142857143,4,2,1,50,0,0
2484,-142.857142857143,4,2,1,5,0,0
2540,-142.857142857143,4,2,1,50,0,0
2877,-142.857142857143,4,2,1,50,0,0
3214,-142.857142857143,4,2,1,50,0,0
3495,-142.857142857143,4,2,1,5,0,0
3551,-142.857142857143,4,2,1,50,0,0
3832,-142.857142857143,4,2,1,5,0,0
3888,-142.857142857143,4,2,1,50,0,0
4169,-142.857142857143,4,2,1,5,0,0
4225,-142.857142857143,4,2,1,50,0,0
4506,-142.857142857143,4,2,1,5,0,0
4562,-142.857142857143,4,2,1,50,0,0
4843,-142.857142857143,4,2,1,5,0,0
4900,-142.857142857143,4,2,1,50,0,0
5180,-142.857142857143,4,2,1,5,0,0
5237,-142.857142857143,4,2,1,50,0,0
5517,-142.857142857143,4,2,1,5,0,0
5574,-142.857142857143,4,2,1,50,0,0
6192,-142.857142857143,4,2,1,5,0,0
6248,-142.857142857143,4,2,1,50,0,0
6529,-142.857142857143,4,2,1,5,0,0
6585,-142.857142857143,4,2,1,50,0,0
6866,-142.857142857143,4,2,1,5,0,0
6922,-142.857142857143,4,2,1,50,0,0
7203,-142.857142857143,4,2,1,5,0,0
7259,-142.857142857143,4,2,1,50,0,0
7540,-142.857142857143,4,2,1,5,0,0
7596,-142.857142857143,4,2,1,50,0,0
7877,-142.857142857143,4,2,1,5,0,0
7933,-142.857142857143,4,2,1,50,0,0
8888,-142.857142857143,4,2,1,5,0,0
8944,-142.857142857143,4,2,1,50,0,0
9225,-142.857142857143,4,2,1,5,0,0
9282,-142.857142857143,4,2,1,50,0,0
9562,-142.857142857143,4,2,1,5,0,0
9619,-142.857142857143,4,2,1,50,0,0
9900,-142.857142857143,4,2,1,5,0,0
9956,-142.857142857143,4,2,1,50,0,0
10237,-142.857142857143,4,2,1,5,0,0
10293,-142.857142857143,4,2,1,50,0,0
10393,-250.000000000001,4,2,1,50,0,0
10967,-142.857142857143,4,2,1,5,0,0
11304,-142.857142857143,4,2,1,50,0,0
11585,-142.857142857143,4,2,1,5,0,0
11641,-142.857142857143,4,2,1,50,0,0
11922,-142.857142857143,4,2,1,5,0,0
11978,-142.857142857143,4,2,1,50,0,0
12259,-142.857142857143,4,2,1,5,0,0
12315,-142.857142857143,4,2,1,50,0,0
12933,-142.857142857143,4,2,1,5,0,0
12989,-142.857142857143,4,2,1,50,0,0
13270,-142.857142857143,4,2,1,5,0,0
13326,-142.857142857143,4,2,1,50,0,0
13607,-142.857142857143,4,2,1,5,0,0
13664,-142.857142857143,4,2,1,50,0,0
14282,-142.857142857143,4,2,1,5,0,0
14338,-142.857142857143,4,2,1,50,0,0
14619,-142.857142857143,4,2,1,5,0,0
14675,-142.857142857143,4,2,1,50,0,0
14956,-142.857142857143,4,2,1,5,0,0
15012,-142.857142857143,4,2,1,50,0,0
15293,-142.857142857143,4,2,1,5,0,0
15349,-142.857142857143,4,2,1,50,0,0
16978,-142.857142857143,4,2,1,5,0,0
17034,-142.857142857143,4,2,1,50,0,0
17315,-142.857142857143,4,2,1,5,0,0
17371,-142.857142857143,4,2,1,50,0,0
17652,-142.857142857143,4,2,1,5,0,0
17709,-142.857142857143,4,2,1,50,0,0
17989,-142.857142857143,4,2,1,5,0,0
18046,-142.857142857143,4,2,1,50,0,0
19001,-142.857142857143,4,2,1,5,0,0
19057,-142.857142857143,4,2,1,50,0,0
19647,-142.857142857143,4,2,1,5,0,0
19731,-142.857142857143,4,2,1,50,0,0
19984,-142.857142857143,4,2,1,5,0,0
20068,-142.857142857143,4,2,1,50,0,0
20321,-142.857142857143,4,2,1,5,0,0
20405,-142.857142857143,4,2,1,50,0,0
20658,-142.857142857143,4,2,1,5,0,0
20742,-142.857142857143,4,2,1,50,0,0
22091,-111.111111111111,4,2,1,50,0,0
22371,-111.111111111111,4,2,1,5,0,0
22428,-111.111111111111,4,2,1,50,0,0
22709,-111.111111111111,4,2,1,5,0,0
22765,-111.111111111111,4,2,1,50,0,0
25068,-111.111111111111,4,2,1,5,0,0
25124,-111.111111111111,4,2,1,50,0,0
25405,-111.111111111111,4,2,1,5,0,0
25461,-111.111111111111,4,2,1,50,0,0
25742,-111.111111111111,4,2,1,5,0,0
25798,-111.111111111111,4,2,1,50,0,0
26079,-111.111111111111,4,2,1,5,0,0
26135,-111.111111111111,4,2,1,50,0,0
26416,-111.111111111111,4,2,1,5,0,0
26473,-111.111111111111,4,2,1,50,0,0
27091,-111.111111111111,4,2,1,5,0,0
27147,-111.111111111111,4,2,1,50,0,0
27428,-111.111111111111,4,2,1,5,0,0
27484,-111.111111111111,4,2,1,50,0,0
27765,-111.111111111111,4,2,1,5,0,0
27821,-111.111111111111,4,2,1,50,0,0
28102,-111.111111111111,4,2,1,5,0,0
28158,-111.111111111111,4,2,1,50,0,0
28776,-111.111111111111,4,2,1,5,0,0
28832,-111.111111111111,4,2,1,50,0,0
30461,-111.111111111111,4,2,1,5,0,0
30517,-111.111111111111,4,2,1,50,0,0
30798,-111.111111111111,4,2,1,5,0,0
30855,-111.111111111111,4,2,1,50,0,0
31135,-111.111111111111,4,2,1,5,0,0
31192,-111.111111111111,4,2,1,50,0,0
31473,-111.111111111111,4,2,1,5,0,0
31529,-111.111111111111,4,2,1,50,0,0
33158,-111.111111111111,4,2,1,5,0,0
33214,-111.111111111111,4,2,1,50,0,0
34506,-111.111111111111,4,2,1,5,0,0
34562,-111.111111111111,4,2,1,50,0,0
34843,-111.111111111111,4,2,1,5,0,0
34900,-111.111111111111,4,2,1,50,0,0
35180,-111.111111111111,4,2,1,5,0,0
35237,-111.111111111111,4,2,1,50,0,0
35855,-111.111111111111,4,2,1,5,0,0
35911,-111.111111111111,4,2,1,50,0,0
36192,-111.111111111111,4,2,1,5,0,0
36248,-111.111111111111,4,2,1,50,0,0
36529,-111.111111111111,4,2,1,5,0,0
36585,-111.111111111111,4,2,1,50,0,0
36866,-111.111111111111,4,2,1,5,0,0
36922,-111.111111111111,4,2,1,50,0,0
37203,-111.111111111111,4,2,1,5,0,0
37259,-111.111111111111,4,2,1,50,0,0
37540,-111.111111111111,4,2,1,5,0,0
37596,-111.111111111111,4,2,1,50,0,0
37877,-111.111111111111,4,2,1,5,0,0
37933,-111.111111111111,4,2,1,50,0,0
38214,-111.111111111111,4,2,1,5,0,0
38270,-111.111111111111,4,2,1,50,0,0
38551,-111.111111111111,4,2,1,5,0,0
38607,-111.111111111111,4,2,1,50,0,0
38888,-111.111111111111,4,2,1,5,0,0
38944,-111.111111111111,4,2,1,50,0,0
39225,-111.111111111111,4,2,1,5,0,0
39282,-111.111111111111,4,2,1,50,0,0
39562,-111.111111111111,4,2,1,5,0,0
39619,-111.111111111111,4,2,1,50,0,0
40911,-111.111111111111,4,2,1,5,0,0
40967,-111.111111111111,4,2,1,50,0,0
41248,-111.111111111111,4,2,1,5,0,0
41304,-111.111111111111,4,2,1,50,0,0
41585,-111.111111111111,4,2,1,5,0,0
41641,-111.111111111111,4,2,1,50,0,0
41922,-111.111111111111,4,2,1,5,0,0
41978,-111.111111111111,4,2,1,50,0,0
42259,-111.111111111111,4,2,1,5,0,0
42315,-111.111111111111,4,2,1,50,0,0
43326,-111.111111111111,4,2,1,20,0,0
43664,-83.3333333333333,4,2,1,50,0,0
43944,-83.3333333333333,4,2,1,5,0,0
44001,-83.3333333333333,4,2,1,50,0,0
44282,-83.3333333333333,4,2,1,5,0,0
44338,-83.3333333333333,4,2,1,50,0,0
44619,-83.3333333333333,4,2,1,5,0,0
44675,-83.3333333333333,4,2,1,50,0,0
44956,-83.3333333333333,4,2,1,5,0,0
45012,-83.3333333333333,4,2,1,50,0,0
45293,-83.3333333333333,4,2,1,5,0,0
45349,-83.3333333333333,4,2,1,50,0,0
45630,-83.3333333333333,4,2,1,5,0,0
45686,-83.3333333333333,4,2,1,50,0,0
45967,-83.3333333333333,4,2,1,5,0,0
46023,-83.3333333333333,4,2,1,50,0,0
46304,-83.3333333333333,4,2,1,5,0,0
46360,-83.3333333333333,4,2,1,50,0,0
49338,-83.3333333333333,4,2,1,5,0,0
49394,-83.3333333333333,4,2,1,50,0,0
49675,-83.3333333333333,4,2,1,5,0,0
49731,-83.3333333333333,4,2,1,50,0,0
50012,-83.3333333333333,4,2,1,5,0,0
50068,-83.3333333333333,4,2,1,50,0,0
50349,-83.3333333333333,4,2,1,5,0,0
50405,-83.3333333333333,4,2,1,50,0,0
50686,-83.3333333333333,4,2,1,5,0,0
50742,-83.3333333333333,4,2,1,50,0,0
51023,-83.3333333333333,4,2,1,5,0,0
51079,-83.3333333333333,4,2,1,50,0,0
51697,-83.3333333333333,4,2,1,5,0,0
51753,-83.3333333333333,4,2,1,50,0,0
54731,-83.3333333333333,4,2,1,5,0,0
54787,-83.3333333333333,4,2,1,50,0,0
55068,-83.3333333333333,4,2,1,5,0,0
55124,-83.3333333333333,4,2,1,50,0,0
55405,-83.3333333333333,4,2,1,5,0,0
55461,-83.3333333333333,4,2,1,50,0,0
55742,-83.3333333333333,4,2,1,5,0,0
55798,-83.3333333333333,4,2,1,50,0,0
56079,-83.3333333333333,4,2,1,5,0,0
56135,-83.3333333333333,4,2,1,50,0,0
57091,-83.3333333333333,4,2,1,5,0,0
57147,-83.3333333333333,4,2,1,50,0,0
57428,-83.3333333333333,4,2,1,5,0,0
57484,-83.3333333333333,4,2,1,50,0,0
57765,-83.3333333333333,4,2,1,5,0,0
57821,-83.3333333333333,4,2,1,50,0,0
58102,-83.3333333333333,4,2,1,5,0,0
58158,-83.3333333333333,4,2,1,50,0,0
58439,-83.3333333333333,4,2,1,5,0,0
58495,-83.3333333333333,4,2,1,50,0,0
60124,-83.3333333333333,4,2,1,5,0,0
60180,-83.3333333333333,4,2,1,50,0,0
60461,-83.3333333333333,4,2,1,5,0,0
60517,-83.3333333333333,4,2,1,50,0,0
60798,-83.3333333333333,4,2,1,5,0,0
60855,-83.3333333333333,4,2,1,50,0,0
61135,-83.3333333333333,4,2,1,5,0,0
61192,-83.3333333333333,4,2,1,50,0,0
65237,-83.3333333333333,4,2,3,50,0,0
65349,-83.3333333333333,4,2,1,50,0,0
65461,-83.3333333333333,4,2,4,50,0,0
66585,-71.4285714285714,4,2,1,50,0,0
66697,-71.4285714285714,4,2,4,50,0,0
66922,-83.3333333333333,4,2,4,50,0,0
67933,-83.3333333333333,4,1,1,50,0,0
70630,-83.3333333333333,4,2,3,50,0,0
70742,-83.3333333333333,4,2,4,50,0,0
71978,-83.3333333333333,4,2,4,50,0,0
72428,-83.3333333333333,4,2,4,50,0,0
72765,-83.3333333333333,4,2,4,50,0,0
72989,-83.3333333333333,4,2,1,50,0,0
73326,-83.3333333333333,4,1,1,50,0,0
76023,-83.3333333333333,4,2,3,50,0,0
76135,-83.3333333333333,4,2,4,50,0,0
77371,-83.3333333333333,4,2,1,50,0,0
77484,-83.3333333333333,4,2,4,50,0,0
77709,-83.3333333333333,4,2,1,50,0,0
77821,-83.3333333333333,4,2,4,50,0,0
78720,-83.3333333333333,4,2,1,50,0,0
81416,-83.3333333333333,4,2,3,50,0,0
81529,-83.3333333333333,4,2,4,50,0,0
82765,-83.3333333333333,4,2,1,50,0,0
82877,-83.3333333333333,4,2,4,50,0,0
83102,-83.3333333333333,4,2,1,50,0,0
83214,-83.3333333333333,4,2,4,50,0,0
83439,-83.3333333333333,4,2,1,50,0,0
83551,-83.3333333333333,4,2,4,50,0,0
83776,-83.3333333333333,4,2,1,50,0,0
84113,-83.3333333333333,4,2,3,50,0,0
84225,-83.3333333333333,4,2,4,50,0,0
85405,-83.3333333333333,4,2,1,50,0,0
86810,-83.3333333333333,4,2,3,50,0,0
86922,-83.3333333333333,4,2,4,50,0,0
88158,-71.4285714285714,4,2,1,50,0,0
88270,-71.4285714285714,4,2,4,50,0,0
88495,-83.3333333333333,4,2,4,50,0,0
89506,-83.3333333333333,4,2,1,50,0,0
89619,-83.3333333333333,4,2,4,50,0,0
90855,-83.3333333333333,4,1,1,50,0,0
92203,-83.3333333333333,4,2,3,50,0,0
92652,-83.3333333333333,4,2,1,5,0,0
92709,-83.3333333333333,4,2,1,50,0,0
95349,-83.3333333333333,4,2,1,5,0,0
95405,-83.3333333333333,4,2,1,50,0,0
96248,-200,4,2,1,50,0,0
97596,-66.6666666666667,4,2,2,70,0,1
97849,-66.6666666666667,4,2,2,5,0,1
97933,-66.6666666666667,4,2,2,70,0,1
98186,-66.6666666666667,4,2,2,5,0,1
98270,-66.6666666666667,4,2,2,70,0,1
98523,-66.6666666666667,4,2,2,5,0,1
98607,-66.6666666666667,4,2,2,70,0,1
98860,-66.6666666666667,4,2,2,5,0,1
98944,-200,4,2,2,70,0,1
100293,-66.6666666666667,4,2,2,70,0,1
100546,-66.6666666666667,4,2,2,5,0,1
100630,-66.6666666666667,4,2,2,70,0,1
100883,-66.6666666666667,4,2,2,5,0,1
100967,-66.6666666666667,4,2,2,70,0,1
101220,-66.6666666666667,4,2,2,5,0,1
101304,-66.6666666666667,4,2,2,70,0,1
101557,-66.6666666666667,4,2,2,5,0,1
101641,-200,4,2,2,70,0,1
102315,-100,4,2,2,70,0,1
102610,-100,4,2,2,5,0,1
102652,-100,4,2,2,70,0,1
102989,-66.6666666666667,4,2,2,70,0,1
103242,-66.6666666666667,4,2,2,5,0,1
103326,-66.6666666666667,4,2,2,70,0,1
103579,-66.6666666666667,4,2,2,5,0,1
103664,-66.6666666666667,4,2,2,70,0,1
103916,-66.6666666666667,4,2,2,5,0,1
104001,-66.6666666666667,4,2,2,70,0,1
104253,-66.6666666666667,4,2,2,5,0,1
104338,-200,4,2,2,70,0,1
105686,-66.6666666666667,4,2,2,70,0,1
105939,-66.6666666666667,4,2,2,5,0,1
106023,-66.6666666666667,4,2,2,70,0,1
106276,-66.6666666666667,4,2,2,5,0,1
106360,-66.6666666666667,4,2,2,70,0,1
106613,-66.6666666666667,4,2,2,5,0,1
106697,-66.6666666666667,4,2,2,70,0,1
106950,-66.6666666666667,4,2,2,5,0,1
107034,-200,4,2,2,70,0,1
108383,-111.111111111111,4,2,1,50,0,0
108664,-111.111111111111,4,2,1,5,0,0
108720,-111.111111111111,4,2,1,50,0,0
109001,-111.111111111111,4,2,1,5,0,0
109057,-111.111111111111,4,2,1,50,0,0
111360,-111.111111111111,4,2,1,5,0,0
111416,-111.111111111111,4,2,1,50,0,0
111697,-111.111111111111,4,2,1,5,0,0
111753,-111.111111111111,4,2,1,50,0,0
112034,-111.111111111111,4,2,1,5,0,0
112091,-111.111111111111,4,2,1,50,0,0
112371,-111.111111111111,4,2,1,5,0,0
112428,-111.111111111111,4,2,1,50,0,0
112709,-111.111111111111,4,2,1,5,0,0
112765,-111.111111111111,4,2,1,50,0,0
113383,-111.111111111111,4,2,1,5,0,0
113439,-111.111111111111,4,2,1,50,0,0
113720,-111.111111111111,4,2,1,5,0,0
113776,-111.111111111111,4,2,1,50,0,0
114057,-111.111111111111,4,2,1,5,0,0
114113,-111.111111111111,4,2,1,50,0,0
114394,-111.111111111111,4,2,1,5,0,0
114450,-111.111111111111,4,2,1,50,0,0
114731,-111.111111111111,4,2,1,5,0,0
114787,-111.111111111111,4,2,1,50,0,0
115068,-111.111111111111,4,2,1,5,0,0
115124,-111.111111111111,4,2,1,50,0,0
116753,-111.111111111111,4,2,1,5,0,0
116810,-111.111111111111,4,2,1,50,0,0
117091,-111.111111111111,4,2,1,5,0,0
117147,-111.111111111111,4,2,1,50,0,0
117428,-111.111111111111,4,2,1,5,0,0
117484,-111.111111111111,4,2,1,50,0,0
117765,-111.111111111111,4,2,1,5,0,0
117821,-111.111111111111,4,2,1,50,0,0
118664,-249.999999999999,4,2,1,50,0,0
119113,-249.999999999999,4,2,1,5,0,0
119169,-111.111111111111,4,2,1,50,0,0
119450,-111.111111111111,4,2,1,5,0,0
119506,-111.111111111111,4,2,1,50,0,0
119787,-111.111111111111,4,2,1,5,0,0
119843,-111.111111111111,4,2,1,50,0,0
120124,-111.111111111111,4,2,1,5,0,0
120180,-111.111111111111,4,2,1,50,0,0
120461,-111.111111111111,4,2,1,5,0,0
120517,-111.111111111111,4,2,1,50,0,0
120798,-111.111111111111,4,2,1,5,0,0
120855,-111.111111111111,4,2,1,50,0,0
121135,-111.111111111111,4,2,1,5,0,0
121192,-111.111111111111,4,2,1,50,0,0
121473,-111.111111111111,4,2,1,5,0,0
121529,-111.111111111111,4,2,1,50,0,0
122147,-111.111111111111,4,2,1,5,0,0
122203,-111.111111111111,4,2,1,50,0,0
122484,-111.111111111111,4,2,1,5,0,0
122540,-111.111111111111,4,2,1,50,0,0
122821,-111.111111111111,4,2,1,5,0,0
122877,-111.111111111111,4,2,1,50,0,0
123158,-111.111111111111,4,2,1,5,0,0
123214,-111.111111111111,4,2,1,50,0,0
123495,-111.111111111111,4,2,1,5,0,0
123551,-111.111111111111,4,2,1,50,0,0
123832,-111.111111111111,4,2,1,5,0,0
123888,-111.111111111111,4,2,1,50,0,0
124169,-111.111111111111,4,2,1,5,0,0
124225,-111.111111111111,4,2,1,50,0,0
124506,-111.111111111111,4,2,1,5,0,0
124562,-111.111111111111,4,2,1,50,0,0
124843,-111.111111111111,4,2,1,5,0,0
124900,-111.111111111111,4,2,1,50,0,0
125180,-111.111111111111,4,2,1,5,0,0
125237,-111.111111111111,4,2,1,50,0,0
125517,-111.111111111111,4,2,1,5,0,0
125574,-111.111111111111,4,2,1,50,0,0
125855,-111.111111111111,4,2,1,5,0,0
125911,-111.111111111111,4,2,1,50,0,0
126922,-249.999999999999,4,2,1,50,0,0
127259,-111.111111111111,4,2,1,50,0,0
127540,-111.111111111111,4,2,1,5,0,0
127596,-111.111111111111,4,2,1,50,0,0
127877,-111.111111111111,4,2,1,5,0,0
127933,-111.111111111111,4,2,1,50,0,0
128214,-111.111111111111,4,2,1,5,0,0
128270,-111.111111111111,4,2,1,50,0,0
128551,-111.111111111111,4,2,1,5,0,0
128607,-111.111111111111,4,2,1,50,0,0
129619,-111.111111111111,4,2,1,15,0,0
129956,-111.111111111111,4,2,1,50,0,0
130237,-111.111111111111,4,2,1,5,0,0
130293,-111.111111111111,4,2,1,50,0,0
130574,-111.111111111111,4,2,1,5,0,0
130630,-111.111111111111,4,2,1,50,0,0
130911,-111.111111111111,4,2,1,5,0,0
130967,-111.111111111111,4,2,1,50,0,0
131248,-111.111111111111,4,2,1,5,0,0
131304,-111.111111111111,4,2,1,50,0,0
132933,-111.111111111111,4,2,1,5,0,0
132989,-111.111111111111,4,2,1,50,0,0
133270,-111.111111111111,4,2,1,5,0,0
133326,-111.111111111111,4,2,1,50,0,0
133607,-111.111111111111,4,2,1,5,0,0
133664,-111.111111111111,4,2,1,50,0,0
133944,-111.111111111111,4,2,1,5,0,0
134001,-111.111111111111,4,2,1,50,0,0
135630,-111.111111111111,4,2,1,5,0,0
135686,-111.111111111111,4,2,1,50,0,0
135967,-111.111111111111,4,2,1,5,0,0
136023,-111.111111111111,4,2,1,50,0,0
136304,-111.111111111111,4,2,1,5,0,0
136360,-111.111111111111,4,2,1,50,0,0
136641,-111.111111111111,4,2,1,5,0,0
136697,-111.111111111111,4,2,1,50,0,0
136978,-111.111111111111,4,2,1,5,0,0
137034,-111.111111111111,4,2,1,50,0,0
137315,-111.111111111111,4,2,1,5,0,0
137371,-111.111111111111,4,2,1,50,0,0
137652,-111.111111111111,4,2,1,5,0,0
137709,-111.111111111111,4,2,1,50,0,0
138326,-111.111111111111,4,2,1,5,0,0
138383,-111.111111111111,4,2,1,50,0,0
138664,-111.111111111111,4,2,1,5,0,0
138720,-111.111111111111,4,2,1,50,0,0
139001,-111.111111111111,4,2,1,5,0,0
139057,-111.111111111111,4,2,1,50,0,0
139338,-111.111111111111,4,2,1,5,0,0
139394,-111.111111111111,4,2,1,50,0,0
140686,-111.111111111111,4,2,1,5,0,0
140742,-111.111111111111,4,2,1,50,0,0
141023,-111.111111111111,4,2,1,5,0,0
141079,-111.111111111111,4,2,1,50,0,0
141360,-111.111111111111,4,2,1,5,0,0
141416,-111.111111111111,4,2,1,50,0,0
141697,-111.111111111111,4,2,1,5,0,0
141753,-111.111111111111,4,2,1,50,0,0
142034,-111.111111111111,4,2,1,5,0,0
142091,-111.111111111111,4,2,1,50,0,0
143720,-111.111111111111,4,2,1,5,0,0
143776,-111.111111111111,4,2,1,50,0,0
144057,-111.111111111111,4,2,1,5,0,0
144113,-111.111111111111,4,2,1,50,0,0
144394,-111.111111111111,4,2,1,5,0,0
144450,-111.111111111111,4,2,1,50,0,0
144731,-111.111111111111,4,2,1,5,0,0
144787,-111.111111111111,4,2,1,50,0,0
145798,-111.111111111111,4,2,1,50,0,0
146135,-111.111111111111,4,2,4,50,0,0
150855,-111.111111111111,4,2,3,50,0,0
151192,-250,4,2,3,50,0,0
151529,-83.3333333333333,4,2,3,50,0,0
152877,-250,4,2,1,50,0,0
154225,-83.3333333333333,4,2,1,50,0,0
155574,-166.666666666667,4,2,1,50,0,0
156922,-83.3333333333333,4,2,3,50,0,0
158270,-250.000000000001,4,2,1,50,0,0
159619,-83.3333333333333,4,2,1,50,0,0
162315,-83.3333333333333,4,2,3,50,0,0
163664,-250,4,2,1,50,0,0
165012,-83.3333333333333,4,2,1,50,0,0
167709,-83.3333333333333,4,2,3,50,0,0
169057,-250,4,2,1,50,0,0
170405,-83.3333333333333,4,2,3,50,0,0
171669,-83.3333333333333,4,2,1,50,0,0
171753,-83.3333333333333,4,2,1,50,0,0
173102,-83.3333333333333,4,2,3,50,0,0
174450,-250,4,2,1,50,0,0
175798,-83.3333333333333,4,2,1,50,0,0
178495,-83.3333333333333,4,2,3,50,0,0
178944,-83.3333333333333,4,2,1,50,0,0
179843,-250,4,2,1,50,0,0
181192,-83.3333333333333,4,2,1,50,0,0
182540,-200,4,2,1,50,0,0
183888,-66.6666666666667,4,2,2,80,0,1
185237,-500,4,2,2,80,0,1
186585,-66.6666666666667,4,2,2,80,0,1
187933,-500,4,2,2,80,0,1
188551,-500,4,2,2,5,0,1
188607,-500,4,2,2,80,0,1
189282,-66.6666666666667,4,2,2,80,0,1
190630,-500,4,2,2,80,0,1
191978,-66.6666666666667,4,2,2,80,0,1
193326,-500,4,2,2,80,0,1
194675,-66.6666666666667,4,2,2,80,0,1
194928,-66.6666666666667,4,2,2,5,0,1
195012,-66.6666666666667,4,2,2,80,0,1
195265,-66.6666666666667,4,2,2,5,0,1
195349,-66.6666666666667,4,2,2,80,0,1
195602,-66.6666666666667,4,2,2,5,0,1
195686,-66.6666666666667,4,2,2,80,0,1
195939,-66.6666666666667,4,2,2,5,0,1
196023,-500,4,2,2,80,0,1
197371,-66.6666666666667,4,2,2,80,0,1
198720,-500,4,2,2,80,0,1
199310,-500,4,2,2,5,0,1
199338,-500,4,2,2,5,0,1
199394,-500,4,2,2,80,0,1
200068,-66.6666666666667,4,2,2,80,0,1
200321,-66.6666666666667,4,2,2,5,0,1
200405,-66.6666666666667,4,2,2,80,0,1
200658,-66.6666666666667,4,2,2,5,0,1
200742,-66.6666666666667,4,2,2,80,0,1
200995,-66.6666666666667,4,2,2,5,0,1
201079,-66.6666666666667,4,2,2,80,0,1
201332,-66.6666666666667,4,2,2,5,0,1
201416,-500,4,2,2,80,0,1
202765,-66.6666666666667,4,2,2,80,0,1
204113,-500,4,2,2,80,0,1
204900,-500,4,2,2,5,0,1
204956,-500,4,2,2,80,0,0
205461,-500,4,2,1,5,0,0
206135,-500,4,2,1,5,0,0

[Colours]
Combo1 : 174,86,233
Combo2 : 176,83,179
Combo3 : 138,90,177
Combo4 : 100,102,189

[HitObjects]
62,353,518,6,0,P|80:310|81:276,1,74.6666643880209,2|0,3:2|0:0,0:0:0:0:
122,334,855,2,0,P|116:287|102:256,1,74.6666643880209,2|0,0:0|0:0,0:0:0:0:
181,254,1192,2,0,P|152:216|124:199,1,74.6666643880209,2|0,0:0|0:0,0:0:0:0:
192,133,1529,2,0,P|148:114|116:113,1,74.6666643880209,2|0,0:0|0:0,0:0:0:0:
251,221,1866,6,0,P|288:192|301:165,1,74.6666643880209,10|0,0:1|0:0,0:0:0:0:
369,72,2203,2,0,P|331:100|314:129,1,74.6666643880209,2|0,0:1|0:0,0:0:0:0:
325,292,2540,2,0,P|343:248|341:210,1,74.6666643880209,2|0,0:1|0:0,0:0:0:0:
337,52,2877,2,0,P|318:95|318:134,1,74.6666643880209,2|0,0:1|0:0,0:0:0:0:
404,229,3214,6,0,L|396:145,1,74.6666643880209,2|0,3:2|0:0,0:0:0:0:
492,21,3551,2,0,L|499:99,1,74.6666643880209,2|0,0:0|0:0,0:0:0:0:
418,194,3888,2,0,L|410:107,1,74.6666643880209,2|0,0:0|0:0,0:0:0:0:
477,55,4225,2,0,L|485:137,1,74.6666643880209,2|0,0:0|0:0,0:0:0:0:
497,202,4562,5,10,0:1:0:0:
490,222,4731,1,0,0:0:0:0:
483,242,4900,1,2,0:1:0:0:
473,269,5068,1,0,0:0:0:0:
468,284,5237,1,2,2:1:0:0:
462,299,5405,1,0,0:0:0:0:
457,314,5574,1,2,0:1:0:0:
184,288,5911,6,0,C|146:268|107:283,1,74.6666643880209,2|0,3:2|0:0,0:0:0:0:
26,377,6248,2,0,B|49:357|65:333|56:299,1,74.6666643880209,2|0,0:0|0:0,0:0:0:0:
86,215,6585,2,0,P|120:174|152:169,1,74.6666643880209,2|0,0:0|0:0,0:0:0:0:
208,177,6922,2,0,P|150:177|130:159,1,74.6666643880209,2|0,0:0|0:0,0:0:0:0:
123,72,7259,6,0,P|161:96|196:98,1,74.6666643880209,10|0,0:1|0:0,0:0:0:0:
284,94,7596,2,0,P|262:76|208:65,1,74.6666643880209,2|0,2:1|0:0,0:0:0:0:
94,225,7933,2,0,P|120:215|154:173,1,74.6666643880209,2|0,0:1|0:0,0:0:0:0:
275,21,8270,2,0,P|248:30|215:71,1,74.6666643880209,2|0,0:1|0:0,0:0:0:0:
227,181,8607,6,0,L|309:173,1,74.6666643880209,2|0,3:2|0:0,0:0:0:0:
435,269,8944,2,0,L|356:277,1,74.6666643880209,2|0,0:0|0:0,0:0:0:0:
262,195,9282,2,0,L|341:188,1,74.6666643880209,2|0,0:0|0:0,0:0:0:0:
401,254,9619,2,0,L|324:265,1,74.6666643880209,2|0,0:0|0:0,0:0:0:0:
257,274,9956,6,0,L|177:283,1,74.6666643880209,10|0,0:1|0:0,0:0:0:0:
114,278,10293,2,0,L|96:281,4,18.6666660970052,2|0|0|0|0,1:0|1:0|1:0|1:0|1:0,1:0:0:0:
31,322,10630,2,0,P|24:281|13:258,1,64,2|0,1:0|0:0,0:0:0:0:
249,165,11304,6,0,C|230:127|187:119,1,74.6666643880209,2|0,3:2|0:0,0:0:0:0:
62,144,11641,2,0,B|95:147|119:144|139:112,1,74.6666643880209,2|0,2:0|0:0,0:0:0:0:
188,37,11978,2,0,P|237:7|261:6,1,74.6666643880209,2|0,0:0|0:0,0:0:0:0:
322,135,12315,2,0,P|280:95|271:70,1,74.6666643880209,2|0,0:0|0:0,0:0:0:0:
410,22,12652,6,0,L|425:99,1,74.6666643880209,10|0,0:1|0:0,0:0:0:0:
383,187,12989,2,0,L|391:267,1,74.6666643880209,2|0,0:1|0:0,0:0:0:0:
316,286,13326,2,0,L|316:364,1,74.6666643880209,2|0,0:1|0:0,0:0:0:0:
261,310,13664,2,0,L|257:390,1,74.6666643880209,2|0,0:1|0:0,0:0:0:0:
84,295,14001,5,2,3:2:0:0:
84,273,14338,1,2,0:0:0:0:
84,263,14675,1,2,0:0:0:0:
86,262,15012,1,2,0:0:0:0:
97,146,15349,6,0,L|101:87,5,55.9999982910157,10|0|0|0|0|0,0:0|1:0|1:0|1:0|1:0|1:0,0:0:0:0:
105,52,16360,1,0,1:0:0:0:
285,182,16697,6,0,P|330:194|364:190,1,74.6666643880209,2|0,3:2|0:0,0:0:0:0:
484,198,17034,2,0,P|443:221|407:221,1,74.6666643880209,2|0,0:0|0:0,0:0:0:0:
246,249,17371,2,0,P|278:281|313:291,1,74.6666643880209,2|0,0:0|0:0,0:0:0:0:
510,264,17709,2,0,P|486:304|446:318,1,74.6666643880209,2|0,0:0|0:0,0:0:0:0:
363,364,18046,6,0,P|373:298|388:281,1,74.6666643880209,10|0,0:1|0:0,0:0:0:0:
409,260,18383,1,0,0:0:0:0:
420,215,18720,1,0,0:0:0:0:
420,205,19057,1,0,0:0:0:0:
311,172,19394,6,0,P|304:124|293:88,1,74.6666643880209,2|0,3:2|0:0,0:0:0:0:
260,17,19731,2,0,P|269:53|274:90,1,74.6666643880209,2|0,0:0|0:0,0:0:0:0:
241,185,20068,2,0,P|236:147|226:111,1,74.6666643880209,2|0,0:0|0:0,0:0:0:0:
177,27,20405,2,0,P|186:63|191:100,1,74.6666643880209,2|0,0:0|0:0,0:0:0:0:
188,197,20742,2,0,P|178:232|163:267,1,74.6666643880209,10|0,0:0|0:0,0:0:0:0:
104,341,21079,1,0,0:0:0:0:
94,355,21753,1,0,3:0:0:0:
18,190,22091,6,0,P|37:161|102:188,1,95.9999970703126,6|0,3:2|0:0,0:0:0:0:
157,259,22428,2,0,P|176:230|241:257,1,95.9999970703126,0|0,0:0|0:0,0:0:0:0:
283,293,22765,1,2,1:0:0:0:
302,210,22933,1,2,1:0:0:0:
365,275,23102,1,2,1:0:0:0:
384,192,23270,1,2,1:0:0:0:
447,257,23439,6,0,P|470:197|462:153,1,95.9999970703126,10|0,0:0|0:0,0:0:0:0:
386,88,23776,2,0,P|444:98|477:84,1,95.9999970703126,2|0,1:0|0:0,0:0:0:0:
429,24,24113,5,2,2:0:0:0:
315,36,24450,1,2,2:0:0:0:
248,292,24787,6,0,P|260:284|281:200,1,95.9999970703126,0|0,3:2|0:0,0:0:0:0:
157,303,25124,2,0,P|161:349|193:384,1,95.9999970703126,2|0,0:0|0:0,0:0:0:0:
314,378,25461,2,0,P|364:354|408:341,1,95.9999970703126,2|0,0:0|0:0,0:0:0:0:
479,262,25798,2,0,P|432:279|390:297,1,95.9999970703126,2|0,1:0|0:0,0:0:0:0:
307,336,26135,1,10,1:0:0:0:
297,336,26473,1,2,1:0:0:0:
287,336,26810,1,0,0:0:0:0:
277,336,27147,1,2,0:1:0:0:
127,208,27484,6,0,P|137:161|134:114,1,95.9999970703126,2|0,3:2|0:0,0:0:0:0:
194,0,27821,2,0,P|220:51|219:109,1,95.9999970703126,2|0,0:0|0:0,0:0:0:0:
225,204,28158,2,0,P|258:191|323:182,1,95.9999970703126,2|0,0:0|0:0,0:0:0:0:
490,196,28495,2,0,P|423:223|396:256,1,95.9999970703126,2|0,0:0|0:0,0:0:0:0:
280,345,28832,1,10,0:0:0:0:
288,339,29169,1,0,0:0:0:0:
295,332,29506,1,0,0:0:0:0:
303,326,29843,1,0,0:0:0:0:
467,127,30180,6,0,P|463:175|471:227,1,95.9999970703126,2|0,3:2|0:0,0:0:0:0:
469,353,30517,2,0,P|460:306|436:256,1,95.9999970703126,2|0,0:0|0:0,0:0:0:0:
364,142,30855,2,0,P|321:178|311:232,1,95.9999970703126,2|0,0:0|0:0,0:0:0:0:
308,303,31192,2,0,P|365:280|386:232,1,95.9999970703126,2|0,0:0|0:0,0:0:0:0:
435,169,31529,1,10,1:0:0:0:
438,157,31866,2,0,L|414:165,4,23.9999992675781,2|0|0|0|0,1:0|1:0|1:0|1:0|1:0,1:0:0:0:
461,78,32203,1,2,2:1:0:0:
36,77,32877,6,0,P|51:143|80:164,1,95.9999970703126,2|0,3:2|0:0,0:0:0:0:
152,128,33214,2,0,P|120:92|117:45,1,95.9999970703126,2|0,0:0|0:0,0:0:0:0:
220,63,33551,2,0,P|252:99|255:146,1,95.9999970703126,2|0,0:0|0:0,0:0:0:0:
211,277,33888,2,0,P|179:241|176:194,1,95.9999970703126,2|0,0:0|0:0,0:0:0:0:
291,85,34225,6,0,L|390:60,1,95.9999970703126,10|0,2:1|0:0,0:0:0:0:
355,117,34562,2,0,L|455:86,1,95.9999970703126,2|0,0:1|0:0,0:0:0:0:
419,149,34900,2,0,L|528:119,1,95.9999970703126,2|0,0:1|0:0,0:0:0:0:
492,184,35237,2,0,L|392:212,1,95.9999970703126,2|0,0:1|0:0,0:0:0:0:
316,230,35574,6,0,P|294:243|309:202,1,95.9999970703126,0|0,3:2|0:0,0:0:0:0:
291,267,35911,2,0,P|269:280|249:221,1,95.9999970703126,2|0,0:0|0:0,0:0:0:0:
264,309,36248,2,0,P|242:322|185:277,1,95.9999970703126,2|0,0:0|0:0,0:0:0:0:
219,369,36585,2,0,P|192:375|109:344,1,95.9999970703126,2|0,0:0|0:0,0:0:0:0:
55,280,36922,6,0,P|92:228|84:187,1,95.9999970703126,10|0,1:0|0:0,0:0:0:0:
55,117,37259,2,0,P|92:169|84:210,1,95.9999970703126,2|0,0:1|0:0,0:0:0:0:
1,350,37596,2,0,P|27:291|67:278,1,95.9999970703126,2|0,0:1|0:0,0:0:0:0:
108,46,37933,2,0,P|81:104|41:117,1,95.9999970703126,2|0,0:1|0:0,0:0:0:0:
0,185,38270,6,0,P|70:164|110:192,1,95.9999970703126,2|0,3:2|0:0,0:0:0:0:
160,258,38607,2,0,P|206:266|247:244,1,95.9999970703126,2|0,0:0|0:0,0:0:0:0:
263,116,38944,2,0,P|304:93|350:102,1,95.9999970703126,2|0,0:0|0:0,0:0:0:0:
425,242,39282,2,0,P|471:250|512:228,1,95.9999970703126,2|0,0:0|0:0,0:0:0:0:
476,67,39619,6,0,P|446:102|444:149,1,95.9999970703126,10|0,0:0|0:0,0:0:0:0:
456,199,39956,1,2,0:1:0:0:
482,223,40124,1,2,0:1:0:0:
406,306,40293,1,2,0:1:0:0:
419,338,40461,1,2,0:1:0:0:
277,329,40630,1,2,0:1:0:0:
265,231,40967,6,0,P|227:201|159:219,1,95.9999970703126,2|0,3:2|0:0,0:0:0:0:
199,289,41304,2,0,P|205:241|156:191,1,95.9999970703126,2|0,0:0|0:0,0:0:0:0:
68,260,41641,2,0,P|112:242|131:174,1,95.9999970703126,2|0,0:0|0:0,0:0:0:0:
11,108,41978,2,0,P|48:138|116:120,1,95.9999970703126,2|0,0:0|0:0,0:0:0:0:
153,40,42315,6,0,L|255:46,1,95.9999970703126,10|0,0:0|0:0,0:0:0:0:
325,50,42652,1,0,0:0:0:0:
340,53,43326,1,0,3:0:0:0:
74,335,43664,6,0,P|36:264|40:207,1,127.99999609375,6|0,3:0|0:0,0:0:0:0:
78,138,44001,2,0,P|116:209|112:266,1,127.99999609375,2|0,0:0|0:0,0:0:0:0:
64,384,44338,2,0,P|111:354|198:379,1,127.99999609375,2|0,0:0|0:0,0:0:0:0:
291,384,44675,2,0,P|299:328|324:242,1,127.99999609375,2|0,0:0|0:0,0:0:0:0:
350,150,45012,1,10,0:0:0:0:
350,133,45349,1,0,0:0:0:0:
350,123,45686,1,0,0:0:0:0:
350,113,46023,1,2,0:1:0:0:
475,2,46360,6,0,B|455:146|528:90|512:238,1,239.999992675781,2|0,3:1|0:0,0:0:0:0:
470,345,46866,1,2,2:1:0:0:
426,187,47034,2,0,P|372:129|367:244,1,239.999992675781,2|0,0:1|0:0,0:0:0:0:
325,338,47540,1,2,2:1:0:0:
179,263,47709,2,0,P|164:199|143:151,1,95.9999970703126,10|0,1:0|0:0,0:0:0:0:
265,184,48046,2,0,P|280:120|301:72,1,95.9999970703126,0|2,0:0|2:1,0:0:0:0:
132,198,48383,2,0,P|117:134|96:86,1,95.9999970703126,2|0,0:1|0:0,0:0:0:0:
323,156,48720,2,0,P|338:92|359:44,1,95.9999970703126,0|2,0:0|2:1,0:0:0:0:
223,166,49057,6,0,B|208:244|261:216|257:304,1,127.99999609375,6|0,3:0|0:0,0:0:0:0:
274,329,49394,2,0,P|208:292|139:309,1,127.99999609375,2|0,0:0|0:0,0:0:0:0:
85,352,49731,2,0,P|151:389|220:372,1,127.99999609375,2|0,0:0|0:0,0:0:0:0:
313,326,50068,2,0,P|339:272|362:182,1,127.99999609375,2|0,0:0|0:0,0:0:0:0:
371,101,50405,1,10,0:0:0:0:
371,84,50742,1,0,2:0:0:0:
371,74,51079,1,0,0:0:0:0:
371,64,51416,1,2,0:1:0:0:
109,0,51753,6,0,P|84:87|158:33,1,239.999992675781,2|0,3:1|0:0,0:0:0:0:
68,118,52259,1,2,2:1:0:0:
70,303,52428,2,0,B|81:237|128:229|212:248|129:329|184:394,1,239.999992675781,2|0,0:1|0:0,0:0:0:0:
228,279,52933,1,2,2:1:0:0:
175,71,53102,2,0,P|170:145|165:177,1,95.9999970703126,10|0,0:1|0:0,0:0:0:0:
302,119,53439,2,0,P|307:193|312:225,1,95.9999970703126,0|2,0:0|2:1,0:0:0:0:
143,113,53776,2,0,P|138:187|133:219,1,95.9999970703126,2|0,1:0|0:0,0:0:0:0:
197,355,54282,1,2,2:1:0:0:
232,371,54450,6,0,P|296:372|363:355,1,127.99999609375,6|0,3:0|0:0,0:0:0:0:
494,329,54787,2,0,P|431:313|372:277,1,127.99999609375,2|0,0:0|0:0,0:0:0:0:
223,290,55124,2,0,P|278:258|331:202,1,127.99999609375,2|0,0:0|0:0,0:0:0:0:
384,62,55461,2,0,P|383:125|410:194,1,127.99999609375,2|0,0:0|0:0,0:0:0:0:
446,272,55798,1,10,0:0:0:0:
467,133,56135,5,2,0:1:0:0:
494,85,56304,1,2,0:1:0:0:
363,122,56473,1,2,0:1:0:0:
362,67,56641,1,2,0:1:0:0:
259,148,56810,2,0,P|235:100|156:68,1,127.99999609375,2|0,0:1|0:0,0:0:0:0:
75,236,57147,6,0,P|139:216|169:159,1,127.99999609375,2|0,3:2|0:0,0:0:0:0:
254,61,57484,6,0,P|185:42|130:3,1,127.99999609375,2|0,0:0|0:0,0:0:0:0:
72,45,57821,2,0,P|41:48|50:124,1,127.99999609375,2|0,0:0|0:0,0:0:0:0:
64,229,58158,2,0,P|41:212|52:119,1,127.99999609375,2|0,0:0|0:0,0:0:0:0:
75,3,58495,2,0,P|57:29|49:130,1,127.99999609375,10|0,0:0|0:0,0:0:0:0:
191,132,58832,5,2,0:1:0:0:
255,108,59001,1,2,0:1:0:0:
182,228,59169,1,2,0:1:0:0:
249,239,59338,1,2,0:1:0:0:
139,312,59506,1,2,0:1:0:0:
191,355,59675,1,2,0:1:0:0:
0,253,59843,6,0,P|60:211|120:220,1,127.99999609375,4|0,3:0|0:0,0:0:0:0:
224,293,60180,2,0,P|282:307|349:280,1,127.99999609375,2|0,0:0|0:0,0:0:0:0:
468,191,60517,2,0,P|410:177|346:207,1,127.99999609375,2|0,0:0|0:0,0:0:0:0:
372,374,60855,2,0,P|413:330|420:257,1,127.99999609375,2|0,0:0|0:0,0:0:0:0:
411,125,61192,5,10,0:0:0:0:
101,125,61529,5,2,1:0:0:0:
101,125,61697,1,2,1:0:0:0:
256,192,61866,12,0,64394,0:0:0:0:
256,192,64562,6,0,B|302:231|317:286|317:286|319:215|348:188,1,191.999994140625,2|2,1:0|1:0,0:0:0:0:
399,101,65237,6,0,P|407:155|427:173,1,63.9999980468751,6|0,3:0|0:0,0:0:0:0:
446,233,65461,2,0,P|453:262|472:293,2,63.9999980468751
356,318,65798,2,0,P|349:347|330:378,2,63.9999980468751
233,195,66248,2,0,P|226:166|207:135,2,63.9999980468751,0|0|0,0:0|0:0|0:0,0:0:0:0:
277,313,66585,6,0,P|226:353|143:356,1,149.333328776042,8|0,0:0|0:0,0:0:0:0:
118,322,66922,1,0,0:0:0:0:
129,303,67034,1,0,0:0:0:0:
136,277,67147,1,0,0:0:0:0:
118,255,67259,1,0,0:0:0:0:
109,226,67371,1,0,0:0:0:0:
113,196,67484,1,0,0:0:0:0:
152,173,67596,1,0,0:0:0:0:
166,132,67709,1,0,0:0:0:0:
144,92,67821,1,0,0:0:0:0:
95,65,67933,6,0,P|126:117|242:39,1,239.999992675781,2|0,3:1|0:0,0:0:0:0:
168,21,68439,1,2,0:0:0:0:
278,114,68607,2,0,P|321:162|453:87,1,239.999992675781,2|0,0:0|0:0,0:0:0:0:
462,23,69113,1,2,0:0:0:0:
364,82,69282,2,0,P|346:140|375:219,1,143.999995605469,10|0,0:1|0:0,0:0:0:0:
423,262,69619,2,0,P|465:277|479:273,4,31.9999990234375,0|0|0|2|0,0:0|0:0|0:0|0:0|0:0,0:0:0:0:
336,184,69956,2,0,P|274:163|195:292,1,239.999992675781,2|0,1:0|0:0,0:0:0:0:
226,375,70461,1,2,0:0:0:0:
35,274,70630,6,0,P|88:179|349:199,1,383.99998828125,12|0,3:0|0:0,0:0:0:0:
404,233,71416,6,0,P|412:179|432:161,1,63.9999980468751
477,84,71641,2,0,P|484:55|503:24,2,63.9999980468751,0|0|0,0:0|0:0|0:0,0:0:0:0:
355,92,71978,2,0,P|348:63|329:32,2,63.9999980468751,8|0|0,0:0|0:0|0:0,0:0:0:0:
279,219,72540,2,0,P|272:248|253:279,2,63.9999980468751
107,61,73326,6,0,P|150:128|73:259,1,239.999992675781,2|0,3:1|0:0,0:0:0:0:
0,285,73832,1,2,0:0:0:0:
163,303,74001,2,0,B|287:297|225:374|384:382,1,239.999992675781,2|0,0:0|0:0,0:0:0:0:
470,377,74506,1,2,0:0:0:0:
284,264,74675,2,0,P|304:184|415:74,1,239.999992675781,10|0,0:0|0:0,0:0:0:0:
511,25,75180,1,2,0:0:0:0:
482,169,75349,2,0,P|473:251|381:183,1,239.999992675781,2|0,0:0|0:0,0:0:0:0:
400,86,75855,1,2,0:0:0:0:
254,145,76023,6,0,P|308:137|326:117,1,63.9999980468751,6|0,3:0|0:0,0:0:0:0:
423,83,76248,2,0,P|452:76|483:57,2,63.9999980468751
434,183,76585,2,0,P|463:190|494:209,2,63.9999980468751
322,271,77034,2,0,P|293:278|262:297,2,63.9999980468751,0|0|0,0:0|0:0|0:0,0:0:0:0:
232,144,77371,2,0,P|201:136|173:119,2,63.9999980468751,8|0|0,0:0|0:0|0:0,0:0:0:0:
6,294,78046,2,0,P|33:277|64:269,2,63.9999980468751
57,148,78383,2,0,P|84:164|115:172,2,63.9999980468751,2|0|0,2:0|0:0|0:0,0:0:0:0:
71,31,78720,6,0,P|105:116|107:264,1,239.999992675781,2|0,3:1|1:0,0:0:0:0:
100,359,79225,1,2,1:1:0:0:
203,252,79394,2,0,P|183:193|35:211,1,239.999992675781,2|0,1:1|1:1,1:1:0:0:
0,285,79900,1,2,1:1:0:0:
129,240,80068,2,0,B|262:226|196:315|362:304,1,239.999992675781,10|0,1:1|1:1,1:1:0:0:
452,294,80574,1,2,1:1:0:0:
328,200,80742,2,0,P|302:109|406:131,1,239.999992675781,2|0,0:1|0:1,0:1:0:0:
445,203,81248,1,2,0:1:0:0:
341,36,81416,6,0,B|313:124|357:102|319:209|319:209|257:278|214:278|169:203|252:132|341:232|378:296|378:296|391:253|405:172|481:208|495:51,1,767.999976562501,12|8,3:0|0:0,0:0:0:0:
469,259,83102,1,0,1:0:0:0:
472,262,83439,1,0,1:0:0:0:
477,264,83776,1,0,1:0:0:0:
347,221,84113,6,0,B|148:158|190:37|413:83|206:250|206:250|181:272|119:279|92:325|92:325|109:271|101:200|101:200|60:200|37:171,1,735.999977539063,8|0,3:0|0:0,0:0:0:0:
38,172,85461,2,0,B|89:189|141:240|141:240|127:73|219:17,1,351.999989257813,10|0,0:0|0:0,0:0:0:0:
201,29,86135,2,0,P|175:129|191:391,1,351.999989257813,2|0,0:0|0:0,0:0:0:0:
186,375,86810,6,0,P|178:321|158:303,1,63.9999980468751,6|0,3:0|0:0,0:0:0:0:
139,243,87034,2,0,P|132:214|113:183,2,63.9999980468751
229,158,87371,2,0,P|236:129|255:98,2,63.9999980468751
345,243,87821,2,0,P|352:272|371:303,2,63.9999980468751,0|0|0,0:0|0:0|0:0,0:0:0:0:
312,88,88158,6,0,P|371:62|452:81,1,149.333328776042,8|0,0:0|0:0,0:0:0:0:
460,116,88495,1,0,0:0:0:0:
449,135,88607,1,0,0:0:0:0:
442,161,88720,1,0,0:0:0:0:
460,183,88832,1,0,0:0:0:0:
469,212,88944,1,0,0:0:0:0:
465,242,89057,1,0,0:0:0:0:
426,265,89169,1,0,0:0:0:0:
412,306,89282,1,0,0:0:0:0:
434,346,89394,1,0,0:0:0:0:
483,373,89506,6,0,P|474:324|477:292,2,63.9999980468751,0|0|0,3:0|0:0|0:0,0:0:0:0:
338,301,89843,2,0,P|347:252|344:220,2,63.9999980468751,0|0|0,0:0|0:0|0:0,0:0:0:0:
463,175,90180,2,0,P|454:126|457:94,2,63.9999980468751,0|0|0,0:0|0:0|0:0,0:0:0:0:
367,55,90517,2,0,P|359:104|348:132,2,63.9999980468751,0|0|0,0:0|0:0|0:0,0:0:0:0:
240,0,90855,6,0,B|220:119|291:66|265:200,1,191.999994140625,10|0,0:0|0:0,0:0:0:0:
238,305,91304,1,2,0:0:0:0:
133,188,91529,2,0,P|74:208|110:319,1,191.999994140625,2|0,0:0|0:0,0:0:0:0:
236,349,91978,1,2,0:0:0:0:
29,295,92203,2,0,P|61:263|109:30,2,287.999991210938,12|2|0,3:0|0:1|0:0,0:0:0:0:
284,144,93551,6,0,B|285:217|285:217|362:92,1,191.999994140625,10|2,0:0|0:0,0:0:0:0:
444,41,94057,1,2,0:0:0:0:
470,151,94225,2,0,L|485:347,1,191.999994140625,2|2,0:0|0:0,0:0:0:0:
347,345,94900,2,0,P|295:303|72:283,2,287.999991210938,2|2|0,3:2|0:0|0:0,0:0:0:0:
150,111,96248,6,0,L|129:260,1,146.666666666667,10|0,0:1|0:0,0:0:0:0:
170,307,96922,2,0,L|190:161,1,146.666666666667,2|0,0:1|0:0,0:0:0:0:
203,110,97596,6,0,P|283:145|347:79,1,180.000006866455,4|0,3:0|0:0,0:0:0:0:
391,19,97933,2,0,P|320:70|347:171,1,180.000006866455,0|0,3:0|0:0,0:0:0:0:
397,247,98270,2,0,P|387:160|288:137,1,180.000006866455,0|0,3:0|0:0,0:0:0:0:
164,178,98607,2,0,P|244:213|308:148,1,180.000006866455,0|0,3:0|0:0,0:0:0:0:
334,64,98944,6,0,P|348:44|337:110,1,280,8|0,0:0|0:0,0:0:0:0:
202,34,100293,6,0,P|116:49|148:112,1,180.000006866455,4|0,3:0|0:0,0:0:0:0:
146,186,100630,2,0,P|232:171|186:112,1,180.000006866455,0|0,3:0|0:0,0:0:0:0:
142,25,100967,2,0,P|56:40|102:108,1,180.000006866455,0|0,3:0|0:0,0:0:0:0:
149,265,101304,2,0,P|235:250|187:185,1,180.000006866455,0|0,3:0|0:0,0:0:0:0:
137,146,101641,6,0,P|96:139|142:117,1,120,8|0,0:0|0:0,0:0:0:0:
360,151,102315,6,0,P|401:144|331:130,1,240,2|0,0:0|0:0,0:0:0:0:
316,231,102989,6,0,B|293:311|293:311|199:332,1,180.000006866455,4|0,3:0|0:0,0:0:0:0:
71,330,103326,2,0,B|94:250|94:250|190:229,1,180.000006866455,0|0,3:0|0:0,0:0:0:0:
367,265,103664,2,0,B|344:345|344:345|246:361,1,180.000006866455,0|0,3:0|2:0,0:0:0:0:
26,299,104001,2,0,B|49:219|49:219|148:202,1,180.000006866455,0|0,3:0|0:0,0:0:0:0:
241,187,104338,6,0,P|278:155|212:185,1,280,8|0,0:0|0:0,0:0:0:0:
281,265,105686,6,0,L|466:270,1,180.000006866455,4|0,3:0|0:0,0:0:0:0:
512,361,106023,2,0,L|355:261,1,180.000006866455,0|0,3:0|0:0,0:0:0:0:
282,125,106360,2,0,L|366:286,1,180.000006866455,0|0,3:0|0:0,0:0:0:0:
505,384,106697,2,0,L|507:202,1,180.000006866455,0|0,3:0|0:0,0:0:0:0:
497,74,107034,6,0,B|472:112|396:144|352:76|352:68|352:64|328:20|236:28|220:68,1,300,8|0,0:0|0:0,0:0:0:0:
152,144,108383,6,0,P|171:173|236:146,1,95.9999970703126,2|0,3:2|0:0,0:0:0:0:
312,132,108720,2,0,P|333:143|370:211,1,95.9999970703126,2|0,0:0|0:0,0:0:0:0:
411,336,109057,1,2,0:1:0:0:
430,253,109225,1,2,0:1:0:0:
493,318,109394,1,2,0:1:0:0:
512,235,109562,1,2,0:1:0:0:
412,307,109731,6,0,P|373:335|325:342,1,95.9999970703126,10|0,0:0|0:0,0:0:0:0:
384,221,110068,2,0,P|430:228|469:256,1,95.9999970703126
292,233,110405,5,0,0:0:0:0:
265,257,110742,1,0,0:0:0:0:
278,92,111079,6,0,P|290:100|311:184,1,95.9999970703126,2|0,3:2|0:0,0:0:0:0:
187,81,111416,2,0,P|191:35|223:0,1,95.9999970703126,2|0,0:0|0:0,0:0:0:0:
344,6,111753,2,0,P|394:30|438:43,1,95.9999970703126,2|0,0:0|0:0,0:0:0:0:
509,122,112091,2,0,P|462:105|420:87,1,95.9999970703126,2|0,0:1|0:0,0:0:0:0:
337,48,112428,1,10,1:0:0:0:
327,48,112765,1,2,0:1:0:0:
317,48,113102,1,0,0:0:0:0:
307,48,113439,1,2,0:1:0:0:
193,112,113776,6,0,P|143:141|135:185,1,95.9999970703126,2|0,3:2|0:0,0:0:0:0:
150,273,114113,2,0,P|189:244|251:223,1,95.9999970703126,2|0,0:0|0:0,0:0:0:0:
331,208,114450,2,0,P|324:254|339:311,1,95.9999970703126,2|0,0:0|0:0,0:0:0:0:
440,372,114787,2,0,P|447:326|432:269,1,95.9999970703126,2|0,2:0|0:0,0:0:0:0:
374,181,115124,1,10,0:0:0:0:
369,172,115461,1,0,0:0:0:0:
364,163,115798,1,0,0:0:0:0:
359,154,116135,1,0,0:0:0:0:
272,27,116473,6,0,P|247:97|221:124,1,95.9999970703126,2|0,3:2|0:0,0:0:0:0:
128,193,116810,2,0,P|153:263|179:290,1,95.9999970703126,2|0,0:0|0:0,0:0:0:0:
258,343,117147,2,0,P|260:294|286:243,1,95.9999970703126,2|0,0:0|0:0,0:0:0:0:
385,216,117484,2,0,P|383:265|357:316,1,95.9999970703126,2|0,0:0|0:0,0:0:0:0:
306,384,117821,1,10,1:1:0:0:
281,313,117989,1,0,1:0:0:0:
295,384,118158,1,2,1:0:0:0:
270,313,118326,1,0,1:0:0:0:
280,384,118495,1,2,1:0:0:0:
255,313,118664,2,0,P|238:277|210:254,1,64
88,184,119169,6,0,P|126:203|175:173,1,95.9999970703126,2|0,3:2|0:0,0:0:0:0:
202,88,119506,2,0,P|164:69|106:86,1,95.9999970703126,2|0,0:0|0:0,0:0:0:0:
35,219,119843,2,0,P|73:238|135:234,1,95.9999970703126,2|0,0:0|0:0,0:0:0:0:
269,171,120180,2,0,P|307:152|374:137,1,95.9999970703126,2|0,0:0|0:0,0:0:0:0:
483,121,120517,6,0,L|403:58,1,95.9999970703126,10|0,0:0|0:0,0:0:0:0:
212,55,120855,2,0,L|312:69,1,95.9999970703126,0|0,0:0|0:0,0:0:0:0:
387,135,121192,2,0,L|292:172,1,95.9999970703126,0|0,0:0|0:0,0:0:0:0:
231,215,121529,2,0,L|310:278,1,95.9999970703126,0|0,0:0|0:0,0:0:0:0:
392,365,121866,6,0,P|356:350|287:349,1,95.9999970703126,2|0,3:2|0:0,0:0:0:0:
340,302,122203,2,0,P|386:292|431:308,1,95.9999970703126,2|0,0:0|0:0,0:0:0:0:
462,239,122540,2,0,P|415:228|379:257,1,95.9999970703126,2|0,0:0|0:0,0:0:0:0:
322,196,122877,2,0,P|368:185|387:232,1,95.9999970703126,2|0,0:0|0:0,0:0:0:0:
462,130,123214,6,0,L|366:99,1,95.9999970703126,10|0,2:1|2:1,2:1:0:0:
401,63,123551,2,0,L|305:58,1,95.9999970703126,2|0,2:1|2:1,2:1:0:0:
317,7,123888,2,0,L|231:51,1,95.9999970703126,2|0,2:1|2:1,2:1:0:0:
216,1,124225,2,0,L|164:82,1,95.9999970703126,2|0,2:1|2:1,2:1:0:0:
74,200,124562,6,0,P|128:188|151:227,1,95.9999970703126,2|0,3:2|0:0,0:0:0:0:
103,300,124900,2,0,P|135:331|178:315,1,95.9999970703126,2|0,0:0|0:0,0:0:0:0:
223,162,125237,2,0,P|277:150|300:189,1,95.9999970703126,2|0,0:0|0:0,0:0:0:0:
325,350,125574,2,0,P|357:381|400:365,1,95.9999970703126,2|0,0:0|0:0,0:0:0:0:
488,278,125911,6,0,B|430:273|430:273|398:236,1,95.9999970703126,10|0,0:0|0:0,0:0:0:0:
366,89,126248,2,0,B|399:41|399:41|447:32,1,95.9999970703126,0|0,1:0|0:0,0:0:0:0:
512,67,126585,2,0,B|478:114|478:114|430:123,1,95.9999970703126,0|0,1:0|0:0,0:0:0:0:
293,144,126922,2,0,L|246:149,1,42.6666666666667,0|0,1:0|0:0,0:0:0:0:
43,188,127259,6,0,P|91:176|86:192,1,95.9999970703126,2|0,3:2|0:0,0:0:0:0:
100,267,127596,2,0,P|72:236|40:268,1,95.9999970703126,2|0,0:0|0:0,0:0:0:0:
39,344,127933,2,0,P|71:313|127:333,1,95.9999970703126,2|0,0:0|0:0,0:0:0:0:
220,368,128270,2,0,P|265:378|299:347,1,95.9999970703126,2|0,0:0|0:0,0:0:0:0:
317,191,128607,2,0,P|360:205|374:250,1,95.9999970703126,8|0,0:0|0:0,0:0:0:0:
358,337,128944,2,0,L|356:368,4,23.9999992675781,0|0|0|0|0,1:0|1:0|1:0|1:0|1:0,1:0:0:0:
359,327,129619,1,0,3:0:0:0:
404,210,129956,6,0,P|396:162|402:98,1,95.9999970703126,2|0,3:2|0:0,0:0:0:0:
345,221,130293,2,0,P|358:174|390:118,1,95.9999970703126,2|0,0:0|0:0,0:0:0:0:
262,211,130630,2,0,P|293:174|346:137,1,95.9999970703126,2|0,0:0|0:0,0:0:0:0:
151,203,130967,2,0,P|195:182|258:172,1,95.9999970703126,2|0,0:0|0:0,0:0:0:0:
101,145,131304,2,0,P|80:182|45:102,1,179.999994506836,10|0,2:1|2:1,2:1:0:0:
89,55,131810,1,2,2:1:0:0:
36,201,131978,2,0,B|6:295|68:258|19:374,1,143.999995605469,2|0,2:1|2:1,2:1:0:0:
158,344,132428,1,2,2:1:0:0:
238,247,132652,6,0,P|289:251|333:290,1,95.9999970703126,2|0,3:2|0:0,0:0:0:0:
322,182,132989,2,0,P|366:207|389:261,1,95.9999970703126,2|0,0:0|0:0,0:0:0:0:
402,154,133326,2,0,P|431:195|430:254,1,95.9999970703126,2|0,0:0|0:0,0:0:0:0:
474,187,133664,2,0,P|483:237|457:289,1,95.9999970703126,2|0,0:0|0:0,0:0:0:0:
398,326,134001,1,10,0:0:0:0:
373,255,134169,1,0,1:0:0:0:
387,326,134338,1,0,1:0:0:0:
362,255,134506,1,0,1:0:0:0:
372,326,134675,1,0,1:0:0:0:
347,248,134843,2,0,P|335:283|302:387,1,143.999995605469,0|0,1:0|0:0,0:0:0:0:
228,201,135349,6,0,P|201:166|186:112,1,95.9999970703126,0|0,3:0|0:0,0:0:0:0:
210,235,135686,2,0,P|170:214|134:172,1,95.9999970703126,2|0,0:0|0:0,0:0:0:0:
208,275,136023,2,0,P|163:273|112:249,1,95.9999970703126,2|0,0:0|0:0,0:0:0:0:
283,312,136360,2,0,P|242:329|186:329,1,95.9999970703126,2|0,0:0|0:0,0:0:0:0:
386,310,136697,1,8,0:0:0:0:
395,315,137034,1,0,0:0:0:0:
404,320,137371,1,2,0:0:0:0:
413,325,137709,1,2,0:0:0:0:
400,107,138046,6,0,P|352:107|307:125,1,95.9999970703126,2|0,3:2|0:0,0:0:0:0:
474,184,138383,2,0,P|430:164|382:161,1,95.9999970703126,2|0,0:0|0:0,0:0:0:0:
454,261,138720,2,0,P|422:224|380:202,1,95.9999970703126,2|0,0:0|0:0,0:0:0:0:
404,320,139057,2,0,P|390:274|362:235,1,95.9999970703126,2|0,0:0|0:0,0:0:0:0:
358,384,139394,1,8,0:0:0:0:
342,365,139731,6,0,L|328:344,4,23.9999992675781,2|0|0|0|0,1:0|1:0|1:0|1:0|1:0,1:0:0:0:
261,284,140068,1,2,2:1:0:0:
241,354,140237,1,2,2:1:0:0:
195,223,140405,1,2,2:1:0:0:
81,337,140742,6,0,P|56:273|69:231,1,95.9999970703126,2|0,3:2|0:0,0:0:0:0:
126,160,141079,2,0,P|151:224|138:266,1,95.9999970703126,2|0,0:0|0:0,0:0:0:0:
158,360,141416,2,0,P|191:317|240:286,1,95.9999970703126,2|0,0:0|0:0,0:0:0:0:
331,235,141753,2,0,P|369:263|397:301,1,95.9999970703126,2|0,0:0|0:0,0:0:0:0:
472,356,142091,1,8,0:0:0:0:
473,345,142428,1,2,2:1:0:0:
474,335,142765,1,2,2:1:0:0:
476,325,143102,1,2,2:1:0:0:
325,118,143439,6,0,P|331:188|320:211,1,95.9999970703126,2|0,3:2|0:0,0:0:0:0:
195,257,143776,2,0,P|189:187|200:164,1,95.9999970703126,2|0,0:0|0:0,0:0:0:0:
258,73,144113,2,0,P|294:100|360:128,1,95.9999970703126,2|0,0:0|0:0,0:0:0:0:
428,153,144450,2,0,P|454:191|465:260,1,95.9999970703126,2|0,0:0|0:0,0:0:0:0:
469,368,144787,1,10,0:0:0:0:
398,343,144956,1,0,1:0:0:0:
469,357,145124,1,0,1:0:0:0:
398,332,145293,1,0,1:0:0:0:
469,342,145461,1,0,1:0:0:0:
405,318,145630,1,0,1:0:0:0:
318,241,145798,2,0,P|296:224|207:213,1,119.999996337891,2|0,1:0|0:0,0:0:0:0:
189,223,146135,5,2,3:0:0:0:
169,239,146248,1,2,0:0:0:0:
198,269,146360,1,2,0:0:0:0:
164,295,146473,1,2,0:0:0:0:
173,269,146585,1,2,0:0:0:0:
213,243,146697,1,0,0:0:0:0:
268,266,146810,1,0,0:0:0:0:
286,338,146922,1,2,0:0:0:0:
308,264,147034,1,0,0:0:0:0:
364,207,147147,1,2,0:0:0:0:
455,193,147259,1,2,0:0:0:0:
479,209,147371,1,2,0:0:0:0:
464,247,147484,6,0,P|481:289|494:317,2,47.9999985351563,8|2|2,0:0|0:0|0:0,0:0:0:0:
360,180,147821,2,0,P|343:222|330:250,2,47.9999985351563,0|0|0,0:0|0:0|0:0,0:0:0:0:
487,75,148158,1,2,0:0:0:0:
467,108,148270,1,2,0:0:0:0:
425,114,148383,1,2,0:0:0:0:
412,103,148495,1,2,0:0:0:0:
163,223,150855,5,0,3:0:0:0:
181,214,151023,1,0,3:0:0:0:
286,165,151192,2,0,L|276:169,4,8,0|0|0|0|0,3:0|3:0|3:0|3:0|3:0,0:0:0:0:
180,308,151529,6,0,P|235:307|316:256,1,127.99999609375,6|0,3:0|0:0,0:0:0:0:
395,347,151866,2,0,P|421:298|417:203,1,127.99999609375,0|0,0:0|0:0,0:0:0:0:
387,82,152203,2,0,P|360:130|364:225,1,127.99999609375,0|0,0:0|0:0,0:0:0:0:
395,347,152540,2,0,P|366:299|281:255,1,127.99999609375,0|0,0:0|0:0,0:0:0:0:
215,218,152877,2,0,P|178:224|197:96,1,234.666666666667,8|0,0:0|0:0,0:0:0:0:
252,111,154225,6,0,P|298:199|429:209,1,239.999992675781,2|0,3:2|0:0,0:0:0:0:
512,173,154731,1,2,0:0:0:0:
368,0,154900,2,0,P|274:44|276:176,1,239.999992675781,2|0,0:0|0:0,0:0:0:0:
280,275,155405,1,2,0:0:0:0:
103,179,155574,6,0,B|94:157|94:157|126:47,1,119.999996337891,10|0,0:0|0:0,0:0:0:0:
179,18,156079,1,2,0:0:0:0:
0,120,156248,2,0,L|57:242,1,119.999996337891,2|0,0:0|0:0,0:0:0:0:
128,248,156753,1,2,0:0:0:0:
256,339,156922,6,0,B|311:338|311:338|392:287,1,127.99999609375,12|0,3:0|0:0,0:0:0:0:
433,372,157259,2,0,B|459:323|459:323|455:228,1,127.99999609375,0|0,0:0|0:0,0:0:0:0:
427,64,157596,2,0,B|400:112|400:112|404:207,1,127.99999609375,0|0,0:0|0:0,0:0:0:0:
374,294,157933,2,0,B|345:246|345:246|260:202,1,127.99999609375,0|0,0:0|0:0,0:0:0:0:
194,201,158270,2,0,P|157:207|176:79,1,234.666666666667,8|0,0:0|0:0,0:0:0:0:
255,105,159619,6,0,B|301:194|301:194|443:205,1,239.999992675781,2|0,3:2|0:0,0:0:0:0:
512,252,160124,1,2,0:0:0:0:
403,20,160293,2,0,B|315:66|315:66|301:222,1,239.999992675781,2|0,0:0|0:0,0:0:0:0:
274,304,160798,1,2,0:0:0:0:
224,136,160967,6,0,L|65:323,1,239.999992675781,10|0,0:0|0:0,0:0:0:0:
0,384,161473,1,2,0:0:0:0:
7,198,161641,2,0,P|59:99|129:170,1,239.999992675781,2|0,0:0|0:0,0:0:0:0:
172,257,162147,1,2,0:0:0:0:
290,290,162315,6,0,P|235:289|154:238,1,127.99999609375,6|0,3:0|0:0,0:0:0:0:
75,329,162652,2,0,P|49:280|53:185,1,127.99999609375,0|0,0:0|0:0,0:0:0:0:
83,64,162989,2,0,P|110:112|106:207,1,127.99999609375,0|0,0:0|0:0,0:0:0:0:
75,329,163326,2,0,P|104:281|189:237,1,127.99999609375,0|0,0:0|0:0,0:0:0:0:
255,200,163664,2,0,P|292:206|273:78,1,234.666666666667,8|0,0:0|0:0,0:0:0:0:
165,66,165012,6,0,P|94:96|141:231,1,239.999992675781,2|0,3:2|0:0,0:0:0:0:
232,281,165517,1,2,0:0:0:0:
328,133,165686,2,0,P|324:260|205:266,1,239.999992675781,2|0,0:0|0:0,0:0:0:0:
138,217,166192,1,2,0:0:0:0:
210,163,166360,2,0,L|244:115,6,31.9999990234375,10|0|0|0|0|0|0,0:0|0:0|0:0|0:0|0:0|0:0|0:0,0:0:0:0:
183,57,166866,1,2,2:0:0:0:
301,72,167034,2,0,B|385:122|474:51|474:51|423:145,1,287.999991210938,2|2,0:0|2:0,0:0:0:0:
370,245,167709,6,0,P|319:275|249:234,1,127.99999609375,12|0,3:0|0:0,0:0:0:0:
223,172,168046,1,0,0:0:0:0:
205,301,168214,1,0,0:0:0:0:
204,169,168383,1,0,0:0:0:0:
186,298,168551,1,0,0:0:0:0:
173,164,168720,1,0,0:0:0:0:
155,293,168888,1,0,0:0:0:0:
135,156,169057,6,0,L|149:91,3,64,8|0|0|2,0:0|1:0|1:0|2:0,0:0:0:0:
213,36,170405,6,0,L|346:46,1,127.99999609375,12|0,3:0|0:0,0:0:0:0:
381,74,170742,2,0,L|248:64,1,127.99999609375
213,104,171079,2,0,L|346:114,1,127.99999609375
372,152,171416,2,0,L|239:142,1,127.99999609375
67,84,171753,6,0,P|45:130|78:267,1,191.999994140625,10|0,0:0|0:0,0:0:0:0:
438,262,172428,2,0,P|472:174|445:84,1,191.999994140625,2|0,0:0|0:0,0:0:0:0:
200,156,173102,6,0,P|248:164|260:244,1,127.99999609375,6|0,3:0|0:0,0:0:0:0:
152,188,173439,2,0,P|201:127|207:66,1,127.99999609375
271,15,173776,2,0,P|316:24|355:72,3,95.9999970703126
418,180,174450,6,0,L|432:245,3,64,8|0|0|0,0:0|1:0|1:0|1:0,0:0:0:0:
447,321,175798,6,0,L|300:325,1,127.99999609375,0|0,3:0|0:0,0:0:0:0:
192,324,176135,1,0,0:0:0:0:
192,324,176304,1,0,0:0:0:0:
192,324,176473,2,0,L|65:321,1,127.99999609375,0|0,0:0|0:0,0:0:0:0:
2,245,176810,2,0,L|149:249,1,127.99999609375,0|0,0:0|0:0,0:0:0:0:
242,245,177147,6,0,L|276:197,6,31.9999990234375,10|0|0|0|0|0|0,0:0|0:0|0:0|0:0|0:0|0:0|0:0,0:0:0:0:
196,313,177596,1,2,0:0:0:0:
96,287,177821,1,2,0:0:0:0:
64,147,178214,1,2,0:0:0:0:
180,186,178495,6,0,P|231:162|246:95,1,127.99999609375,12|0,3:0|0:0,0:0:0:0:
231,13,178832,2,0,P|181:38|165:104,1,127.99999609375,0|0,0:0|0:0,0:0:0:0:
292,199,179169,2,0,P|295:143|246:96,1,127.99999609375,0|0,0:0|0:0,0:0:0:0:
53,92,179506,2,0,P|99:122|164:103,1,127.99999609375,0|0,0:0|0:0,0:0:0:0:
240,22,179843,6,0,L|305:8,3,64,10|2|2|2,0:0|0:0|0:0|0:0,0:0:0:0:
360,44,181192,6,0,L|485:88,1,127.99999609375,2|0,3:0|0:0,0:0:0:0:
512,124,181529,2,0,L|386:79,1,127.99999609375
342,109,181866,2,0,L|467:153,1,127.99999609375
483,197,182203,2,0,L|357:152,1,127.99999609375
203,72,182540,6,0,P|257:147|262:208,1,146.666666666667,10|0,0:0|0:0,0:0:0:0:
263,255,183214,2,0,P|274:199|306:113,1,146.666666666667,2|0,0:0|0:0,0:0:0:0:
350,42,183888,6,0,P|415:160|211:7,1,920.000035095216,4|0,3:0|0:0,0:0:0:0:
184,13,185237,2,0,P|156:47|116:113,1,120,8|0,0:0|0:0,0:0:0:0:
89,224,186585,6,0,B|176:198|197:104|197:104|198:255|279:359|279:359|381:167|530:321|418:382|366:372|286:302|281:119,1,920.000035095216,4|0,3:0|0:0,0:0:0:0:
283,157,187933,2,0,P|309:196|324:206,1,64,10|2,0:0|0:0,0:0:0:0:
82,48,189282,6,0,P|321:233|42:88,1,920.000035095216,4|0,3:0|0:0,0:0:0:0:
32,104,190630,2,0,P|33:154|72:215,1,120,8|0,0:0|0:0,0:0:0:0:
163,242,191978,6,0,B|262:219|314:225|314:225|203:194|112:148|112:148|81:56|86:-1|284:-6|280:62|260:142|455:73|455:73|402:157,1,920.000035095216,4|0,3:0|0:0,0:0:0:0:
408,146,193326,6,0,P|431:126|452:108,1,58.6666666666667,10|0,0:0|0:0,0:0:0:0:
452,107,194001,2,0,P|453:140|461:167,1,58.6666666666667,2|0,0:0|0:0,0:0:0:0:
498,230,194675,6,0,P|460:186|306:159,1,180.000006866455,4|0,3:0|0:0,0:0:0:0:
267,302,195012,2,0,P|311:264|338:110,1,180.000006866455,4|0,3:0|0:0,0:0:0:0:
194,71,195349,2,0,P|232:115|386:142,1,180.000006866455,4|0,3:0|0:0,0:0:0:0:
424,0,195686,2,0,P|380:38|353:192,1,180.000006866455,4|0,3:0|0:0,0:0:0:0:
359,218,196023,6,0,P|364:177|402:108,1,120,8|0,0:0|0:0,0:0:0:0:
404,13,197371,6,0,B|430:100|524:121|524:121|373:122|268:203|268:203|461:305|307:454|246:342|256:290|326:210|509:205,1,920.000035095216,4|0,3:0|0:0,0:0:0:0:
512,227,198720,2,0,P|476:253|464:327,1,120,10|0,0:0|0:0,0:0:0:0:
378,240,200068,6,0,B|341:178|341:178|381:27,1,180.000006866455,4|0,3:0|0:0,0:0:0:0:
263,220,200405,2,0,B|329:229|329:229|372:263|372:263|442:264,1,180.000006866455,4|0,3:0|0:0,0:0:0:0:
249,228,200742,2,0,B|237:328|237:328|351:304,1,180.000006866455,4|0,3:0|0:0,0:0:0:0:
490,237,201079,2,0,B|432:279|432:279|405:384,1,180.000006866455,4|0,3:0|0:0,0:0:0:0:
398,256,201416,6,0,B|427:210|427:210|403:144,1,120,8|0,0:0|0:0,0:0:0:0:
254,66,202765,6,0,B|166:174|166:174|145:304|145:304|208:377|208:377|342:166|342:166|388:263|388:263|455:200|455:200|465:90|465:90,1,920.000035095216,4|0,3:0|0:0,0:0:0:0:
464,97,204113,2,0,B|476:170,1,74.6666666666667,8|0,0:0|0:0,0:0:0:0:
256,192,204956,12,0,206135,0:0:0:0:
