osu file format v14

[General]
AudioFilename: audio.mp3
AudioLeadIn: 0
PreviewTime: 151529
Countdown: 0
SampleSet: Soft
StackLeniency: 0.7
Mode: 0
LetterboxInBreaks: 0
WidescreenStoryboard: 1

[Editor]
Bookmarks: 3130,6585,22091,32203,33720,65237,65911,66023,67259,71978,77371,90855,93551,108383,113439,146135,147821,162315,173102,194675
DistanceSpacing: 1.1
BeatDivisor: 3
GridSize: 8
TimelineZoom: 2.599999

[Metadata]
Title:SLOW DANCING IN THE DARK
TitleUnicode:SLOW DANCING IN THE DARK
Artist:Joji
ArtistUnicode:Joji
Creator:Mayflower
Version:EASY
Source:
Tags:ballads1 1 english filthy frank papa franku george miller pink guy 88rising ambient dance R&B Soul Hip Hop hiphop Yeah Right Can't Get Over You cant Patrick Wimberly Francisco Frankie Ramirez Chris Athens eiri- ayyri em0nky emonky marblelemons thepython JeirYagtama jieryagtama Jeirin Liyac cyanine californian darknessofblue Jemzuu AJamez
BeatmapID:2202126
BeatmapSetID:902215

[Difficulty]
HPDrainRate:3
CircleSize:3
OverallDifficulty:3
ApproachRate:4
SliderMultiplier:0.799999999999999
SliderTickRate:1

[Events]
//Background and Video events
0,0,"SLOW DANCING BACKGROUND POG.jpg",0,0
//Break Periods
//Storyboard Layer 0 (Background)
//Storyboard Layer 1 (Fail)
//Storyboard Layer 2 (Pass)
//Storyboard Layer 3 (Foreground)
//Storyboard Layer 4 (Overlay)
//Storyboard Sound Samples

[TimingPoints]
518,337.078651685393,4,2,1,50,1,0
798,-100,4,2,1,5,0,0
855,-100,4,2,1,50,0,0
1135,-100,4,2,1,5,0,0
1192,-100,4,2,1,50,0,0
1473,-100,4,2,1,5,0,0
1529,-100,4,2,1,50,0,0
1810,-100,4,2,1,5,0,0
1866,-100,4,2,1,50,0,0
2147,-100,4,2,1,5,0,0
2203,-100,4,2,1,50,0,0
2484,-100,4,2,1,5,0,0
2540,-100,4,2,1,50,0,0
3495,-100,4,2,1,5,0,0
3551,-100,4,2,1,50,0,0
3832,-100,4,2,1,5,0,0
3888,-100,4,2,1,50,0,0
4169,-100,4,2,1,5,0,0
4225,-100,4,2,1,50,0,0
4506,-100,4,2,1,5,0,0
4562,-100,4,2,1,50,0,0
4843,-100,4,2,1,5,0,0
4900,-100,4,2,1,50,0,0
5180,-100,4,2,1,5,0,0
5237,-100,4,2,1,50,0,0
5517,-100,4,2,1,5,0,0
5574,-100,4,2,1,50,0,0
6192,-100,4,2,1,5,0,0
6248,-100,4,2,1,50,0,0
6529,-100,4,2,1,5,0,0
6585,-100,4,2,1,50,0,0
6866,-100,4,2,1,5,0,0
6922,-100,4,2,1,50,0,0
7203,-100,4,2,1,5,0,0
7259,-100,4,2,1,50,0,0
7540,-100,4,2,1,5,0,0
7596,-100,4,2,1,50,0,0
7877,-100,4,2,1,5,0,0
7933,-100,4,2,1,50,0,0
8888,-100,4,2,1,5,0,0
8944,-100,4,2,1,50,0,0
9225,-100,4,2,1,5,0,0
9282,-100,4,2,1,50,0,0
9562,-100,4,2,1,5,0,0
9619,-100,4,2,1,50,0,0
9900,-100,4,2,1,5,0,0
9956,-100,4,2,1,50,0,0
10237,-100,4,2,1,5,0,0
10293,-100,4,2,1,50,0,0
10967,-100,4,2,1,5,0,0
11304,-100,4,2,1,50,0,0
11585,-100,4,2,1,5,0,0
11641,-100,4,2,1,50,0,0
11922,-100,4,2,1,5,0,0
11978,-100,4,2,1,50,0,0
12259,-100,4,2,1,5,0,0
12315,-100,4,2,1,50,0,0
12933,-100,4,2,1,5,0,0
12989,-100,4,2,1,50,0,0
13270,-100,4,2,1,5,0,0
13326,-100,4,2,1,50,0,0
13607,-100,4,2,1,5,0,0
13664,-100,4,2,1,50,0,0
14282,-100,4,2,1,5,0,0
14338,-100,4,2,1,50,0,0
14619,-100,4,2,1,5,0,0
14675,-100,4,2,1,50,0,0
14956,-100,4,2,1,5,0,0
15012,-100,4,2,1,50,0,0
15293,-100,4,2,1,5,0,0
15349,-100,4,2,1,50,0,0
16978,-100,4,2,1,5,0,0
17034,-100,4,2,1,50,0,0
17315,-100,4,2,1,5,0,0
17371,-100,4,2,1,50,0,0
17652,-100,4,2,1,5,0,0
17709,-100,4,2,1,50,0,0
17989,-100,4,2,1,5,0,0
18046,-100,4,2,1,50,0,0
19001,-100,4,2,1,5,0,0
19057,-100,4,2,1,50,0,0
19647,-100,4,2,1,5,0,0
19731,-100,4,2,1,50,0,0
19984,-100,4,2,1,5,0,0
20068,-100,4,2,1,50,0,0
20321,-100,4,2,1,5,0,0
20405,-100,4,2,1,50,0,0
20658,-100,4,2,1,5,0,0
20742,-100,4,2,1,50,0,0
22371,-100,4,2,1,5,0,0
22428,-100,4,2,1,50,0,0
22709,-100,4,2,1,5,0,0
22765,-100,4,2,1,50,0,0
25068,-100,4,2,1,5,0,0
25124,-100,4,2,1,50,0,0
25405,-100,4,2,1,5,0,0
25461,-100,4,2,1,50,0,0
25742,-100,4,2,1,5,0,0
25798,-100,4,2,1,50,0,0
26079,-100,4,2,1,5,0,0
26135,-100,4,2,1,50,0,0
26416,-100,4,2,1,5,0,0
26473,-100,4,2,1,50,0,0
27091,-100,4,2,1,5,0,0
27147,-100,4,2,1,50,0,0
27428,-100,4,2,1,5,0,0
27484,-100,4,2,1,50,0,0
27765,-100,4,2,1,5,0,0
27821,-100,4,2,1,50,0,0
28102,-100,4,2,1,5,0,0
28158,-100,4,2,1,50,0,0
28776,-100,4,2,1,5,0,0
28832,-100,4,2,1,50,0,0
30461,-100,4,2,1,5,0,0
30517,-100,4,2,1,50,0,0
30798,-100,4,2,1,5,0,0
30855,-100,4,2,1,50,0,0
31135,-100,4,2,1,5,0,0
31192,-100,4,2,1,50,0,0
31473,-100,4,2,1,5,0,0
31529,-100,4,2,1,50,0,0
33158,-100,4,2,1,5,0,0
33214,-100,4,2,1,50,0,0
34506,-100,4,2,1,5,0,0
34562,-100,4,2,1,50,0,0
34843,-100,4,2,1,5,0,0
34900,-100,4,2,1,50,0,0
35180,-100,4,2,1,5,0,0
35237,-100,4,2,1,50,0,0
35855,-100,4,2,1,5,0,0
35911,-100,4,2,1,50,0,0
36192,-100,4,2,1,5,0,0
36248,-100,4,2,1,50,0,0
36529,-100,4,2,1,5,0,0
36585,-100,4,2,1,50,0,0
36866,-100,4,2,1,5,0,0
36922,-100,4,2,1,50,0,0
37203,-100,4,2,1,5,0,0
37259,-100,4,2,1,50,0,0
37540,-100,4,2,1,5,0,0
37596,-100,4,2,1,50,0,0
37877,-100,4,2,1,5,0,0
37933,-100,4,2,1,50,0,0
38214,-100,4,2,1,5,0,0
38270,-100,4,2,1,50,0,0
38551,-100,4,2,1,5,0,0
38607,-100,4,2,1,50,0,0
38888,-100,4,2,1,5,0,0
38944,-100,4,2,1,50,0,0
39225,-100,4,2,1,5,0,0
39282,-100,4,2,1,50,0,0
39562,-100,4,2,1,5,0,0
39619,-100,4,2,1,50,0,0
40911,-100,4,2,1,5,0,0
40967,-100,4,2,1,50,0,0
41248,-100,4,2,1,5,0,0
41304,-100,4,2,1,50,0,0
41585,-100,4,2,1,5,0,0
41641,-100,4,2,1,50,0,0
41922,-100,4,2,1,5,0,0
41978,-100,4,2,1,50,0,0
42259,-100,4,2,1,5,0,0
42315,-100,4,2,1,50,0,0
43326,-100,4,2,1,20,0,0
43664,-100,4,2,1,50,0,0
43944,-100,4,2,1,5,0,0
44001,-100,4,2,1,50,0,0
44282,-100,4,2,1,5,0,0
44338,-100,4,2,1,50,0,0
44619,-100,4,2,1,5,0,0
44675,-100,4,2,1,50,0,0
44956,-100,4,2,1,5,0,0
45012,-100,4,2,1,50,0,0
45293,-100,4,2,1,5,0,0
45349,-100,4,2,1,50,0,0
45630,-100,4,2,1,5,0,0
45686,-100,4,2,1,50,0,0
45967,-100,4,2,1,5,0,0
46023,-100,4,2,1,50,0,0
46304,-100,4,2,1,5,0,0
46360,-100,4,2,1,50,0,0
49338,-100,4,2,1,5,0,0
49394,-100,4,2,1,50,0,0
49675,-100,4,2,1,5,0,0
49731,-100,4,2,1,50,0,0
50012,-100,4,2,1,5,0,0
50068,-100,4,2,1,50,0,0
50349,-100,4,2,1,5,0,0
50405,-100,4,2,1,50,0,0
50686,-100,4,2,1,5,0,0
50742,-100,4,2,1,50,0,0
51023,-100,4,2,1,5,0,0
51079,-100,4,2,1,50,0,0
51697,-100,4,2,1,5,0,0
51753,-100,4,2,1,50,0,0
54731,-100,4,2,1,5,0,0
54787,-100,4,2,1,50,0,0
55068,-100,4,2,1,5,0,0
55124,-100,4,2,1,50,0,0
55405,-100,4,2,1,5,0,0
55461,-100,4,2,1,50,0,0
55742,-100,4,2,1,5,0,0
55798,-100,4,2,1,50,0,0
56079,-100,4,2,1,5,0,0
56135,-100,4,2,1,50,0,0
57091,-100,4,2,1,5,0,0
57147,-100,4,2,1,50,0,0
57428,-100,4,2,1,5,0,0
57484,-100,4,2,1,50,0,0
57765,-100,4,2,1,5,0,0
57821,-100,4,2,1,50,0,0
58102,-100,4,2,1,5,0,0
58158,-100,4,2,1,50,0,0
58439,-100,4,2,1,5,0,0
58495,-100,4,2,1,50,0,0
60124,-100,4,2,1,5,0,0
60180,-100,4,2,1,50,0,0
60461,-100,4,2,1,5,0,0
60517,-100,4,2,1,50,0,0
60798,-100,4,2,1,5,0,0
60855,-100,4,2,1,50,0,0
61135,-100,4,2,1,5,0,0
61192,-100,4,2,1,50,0,0
65237,-100,4,2,3,50,0,0
65349,-100,4,2,1,50,0,0
65461,-100,4,2,4,50,0,0
66585,-100,4,2,1,50,0,0
66697,-100,4,2,4,50,0,0
67933,-100,4,1,1,50,0,0
70630,-100,4,2,3,50,0,0
70742,-100,4,2,4,50,0,0
71978,-100,4,2,4,50,0,0
72428,-100,4,2,4,50,0,0
72652,-100,4,2,4,50,0,0
72765,-100,4,2,4,50,0,0
72989,-100,4,2,1,50,0,0
73326,-100,4,1,1,50,0,0
76023,-100,4,2,3,50,0,0
76135,-100,4,2,4,50,0,0
77371,-100,4,2,1,50,0,0
77484,-100,4,2,4,50,0,0
77709,-100,4,2,1,50,0,0
77821,-100,4,2,4,50,0,0
78046,-100,4,2,4,50,0,0
78158,-100,4,2,4,50,0,0
78383,-100,4,2,4,50,0,0
78720,-100,4,2,1,50,0,0
81416,-100,4,2,3,50,0,0
81529,-100,4,2,4,50,0,0
82765,-100,4,2,1,50,0,0
82877,-100,4,2,4,50,0,0
83102,-100,4,2,1,50,0,0
83214,-100,4,2,4,50,0,0
83439,-100,4,2,1,50,0,0
83551,-100,4,2,4,50,0,0
83776,-100,4,2,1,50,0,0
84113,-100,4,2,3,50,0,0
84225,-100,4,2,4,50,0,0
85405,-100,4,2,1,50,0,0
86810,-100,4,2,3,50,0,0
86922,-100,4,2,4,50,0,0
88158,-100,4,2,1,50,0,0
88270,-100,4,2,4,50,0,0
89506,-100,4,2,1,50,0,0
89619,-100,4,2,4,50,0,0
90855,-100,4,1,1,50,0,0
92203,-100,4,2,3,50,0,0
92652,-100,4,2,1,5,0,0
92709,-100,4,2,1,50,0,0
95349,-100,4,2,1,5,0,0
95405,-100,4,2,1,50,0,0
97596,-83.3333333333333,4,2,2,70,0,1
102610,-83.3333333333333,4,2,2,5,0,1
102652,-83.3333333333333,4,2,2,70,0,1
108383,-100,4,2,1,50,0,0
108664,-100,4,2,1,5,0,0
108720,-100,4,2,1,50,0,0
109001,-100,4,2,1,5,0,0
109057,-100,4,2,1,50,0,0
111360,-100,4,2,1,5,0,0
111416,-100,4,2,1,50,0,0
111697,-100,4,2,1,5,0,0
111753,-100,4,2,1,50,0,0
112034,-100,4,2,1,5,0,0
112091,-100,4,2,1,50,0,0
112371,-100,4,2,1,5,0,0
112428,-100,4,2,1,50,0,0
112709,-100,4,2,1,5,0,0
112765,-100,4,2,1,50,0,0
113383,-100,4,2,1,5,0,0
113439,-100,4,2,1,50,0,0
113720,-100,4,2,1,5,0,0
113776,-100,4,2,1,50,0,0
114057,-100,4,2,1,5,0,0
114113,-100,4,2,1,50,0,0
114394,-100,4,2,1,5,0,0
114450,-100,4,2,1,50,0,0
114731,-100,4,2,1,5,0,0
114787,-100,4,2,1,50,0,0
115068,-100,4,2,1,5,0,0
115124,-100,4,2,1,50,0,0
116753,-100,4,2,1,5,0,0
116810,-100,4,2,1,50,0,0
117091,-100,4,2,1,5,0,0
117147,-100,4,2,1,50,0,0
117428,-100,4,2,1,5,0,0
117484,-100,4,2,1,50,0,0
117765,-100,4,2,1,5,0,0
117821,-100,4,2,1,50,0,0
119113,-100,4,2,1,5,0,0
119169,-100,4,2,1,50,0,0
119450,-100,4,2,1,5,0,0
119506,-100,4,2,1,50,0,0
119787,-100,4,2,1,5,0,0
119843,-100,4,2,1,50,0,0
120124,-100,4,2,1,5,0,0
120180,-100,4,2,1,50,0,0
120461,-100,4,2,1,5,0,0
120517,-100,4,2,1,50,0,0
120798,-100,4,2,1,5,0,0
120855,-100,4,2,1,50,0,0
121135,-100,4,2,1,5,0,0
121192,-100,4,2,1,50,0,0
121473,-100,4,2,1,5,0,0
121529,-100,4,2,1,50,0,0
122147,-100,4,2,1,5,0,0
122203,-100,4,2,1,50,0,0
122484,-100,4,2,1,5,0,0
122540,-100,4,2,1,50,0,0
122821,-100,4,2,1,5,0,0
122877,-100,4,2,1,50,0,0
123158,-100,4,2,1,5,0,0
123214,-100,4,2,1,50,0,0
123495,-100,4,2,1,5,0,0
123551,-100,4,2,1,50,0,0
123832,-100,4,2,1,5,0,0
123888,-100,4,2,1,50,0,0
124169,-100,4,2,1,5,0,0
124225,-100,4,2,1,50,0,0
124506,-100,4,2,1,5,0,0
124562,-100,4,2,1,50,0,0
124843,-100,4,2,1,5,0,0
124900,-100,4,2,1,50,0,0
125180,-100,4,2,1,5,0,0
125237,-100,4,2,1,50,0,0
125517,-100,4,2,1,5,0,0
125574,-100,4,2,1,50,0,0
125855,-100,4,2,1,5,0,0
125911,-100,4,2,1,50,0,0
127540,-100,4,2,1,5,0,0
127596,-100,4,2,1,50,0,0
127877,-100,4,2,1,5,0,0
127933,-100,4,2,1,50,0,0
128214,-100,4,2,1,5,0,0
128270,-100,4,2,1,50,0,0
128551,-100,4,2,1,5,0,0
128607,-100,4,2,1,50,0,0
129619,-100,4,2,1,15,0,0
129956,-100,4,2,1,50,0,0
130237,-100,4,2,1,5,0,0
130293,-100,4,2,1,50,0,0
130574,-100,4,2,1,5,0,0
130630,-100,4,2,1,50,0,0
130911,-100,4,2,1,5,0,0
130967,-100,4,2,1,50,0,0
131248,-100,4,2,1,5,0,0
131304,-100,4,2,1,50,0,0
132933,-100,4,2,1,5,0,0
132989,-100,4,2,1,50,0,0
133270,-100,4,2,1,5,0,0
133326,-100,4,2,1,50,0,0
133607,-100,4,2,1,5,0,0
133664,-100,4,2,1,50,0,0
133944,-100,4,2,1,5,0,0
134001,-100,4,2,1,50,0,0
135630,-100,4,2,1,5,0,0
135686,-100,4,2,1,50,0,0
135967,-100,4,2,1,5,0,0
136023,-100,4,2,1,50,0,0
136304,-100,4,2,1,5,0,0
136360,-100,4,2,1,50,0,0
136641,-100,4,2,1,5,0,0
136697,-100,4,2,1,50,0,0
136978,-100,4,2,1,5,0,0
137034,-100,4,2,1,50,0,0
137315,-100,4,2,1,5,0,0
137371,-100,4,2,1,50,0,0
137652,-100,4,2,1,5,0,0
137709,-100,4,2,1,50,0,0
138326,-100,4,2,1,5,0,0
138383,-100,4,2,1,50,0,0
138664,-100,4,2,1,5,0,0
138720,-100,4,2,1,50,0,0
139001,-100,4,2,1,5,0,0
139057,-100,4,2,1,50,0,0
139338,-100,4,2,1,5,0,0
139394,-100,4,2,1,50,0,0
140686,-100,4,2,1,5,0,0
140742,-100,4,2,1,50,0,0
141023,-100,4,2,1,5,0,0
141079,-100,4,2,1,50,0,0
141360,-100,4,2,1,5,0,0
141416,-100,4,2,1,50,0,0
141697,-100,4,2,1,5,0,0
141753,-100,4,2,1,50,0,0
142034,-100,4,2,1,5,0,0
142091,-100,4,2,1,50,0,0
143720,-100,4,2,1,5,0,0
143776,-100,4,2,1,50,0,0
144057,-100,4,2,1,5,0,0
144113,-100,4,2,1,50,0,0
144394,-100,4,2,1,5,0,0
144450,-100,4,2,1,50,0,0
144731,-100,4,2,1,5,0,0
144787,-100,4,2,1,50,0,0
145798,-100,4,2,1,50,0,0
150855,-100,4,2,3,50,0,0
152877,-100,4,2,1,50,0,0
156922,-100,4,2,3,50,0,0
158270,-100,4,2,1,50,0,0
162315,-100,4,2,3,50,0,0
163664,-100,4,2,1,50,0,0
167709,-100,4,2,3,50,0,0
169057,-100,4,2,1,50,0,0
170405,-100,4,2,3,50,0,0
171669,-100,4,2,1,50,0,0
173102,-100,4,2,3,50,0,0
174450,-100,4,2,1,50,0,0
178495,-100,4,2,3,50,0,0
178944,-100,4,2,1,50,0,0
183888,-76.9230769230769,4,2,2,80,0,1
188551,-76.9230769230769,4,2,2,5,0,1
188607,-76.9230769230769,4,2,2,80,0,1
194675,-68.9655172413793,4,2,2,80,0,1
199310,-68.9655172413793,4,2,2,5,0,1
199394,-68.9655172413793,4,2,2,80,0,1
205461,-83.3333333333333,4,2,1,5,0,0
206473,-83.3333333333333,4,2,1,5,0,0

[Colours]
Combo1 : 174,86,233
Combo2 : 176,83,179
Combo3 : 138,90,177
Combo4 : 100,102,189

[HitObjects]
369,222,518,6,0,P|347:171|167:155,1,240,2|2,3:2|0:0,0:0:0:0:
110,192,1866,2,0,P|89:139|67:110,2,79.9999999999999,10|2|2,0:1|0:1|0:1,0:0:0:0:
203,341,3214,2,0,B|164:290|206:203|274:220|274:220|286:277,1,240,2|2,3:2|0:0,0:0:0:0:
337,349,4562,2,0,L|383:259,1,79.9999999999999,10|2,0:1|0:1,0:0:0:0:
400,193,5237,1,2,2:1:0:0:
406,17,5911,6,0,B|387:142|473:143|457:250,1,240,2|2,3:2|0:0,0:0:0:0:
430,328,7259,2,0,P|346:305|326:302,2,79.9999999999999,10|2|2,0:1|2:1|0:1,0:0:0:0:
263,270,8607,2,0,P|174:239|107:360,1,240,2|2,3:2|0:0,0:0:0:0:
22,308,9956,2,0,P|2:219|4:200,1,79.9999999999999,10|2,0:1|0:1,0:0:0:0:
9,144,10630,1,2,0:1:0:0:
179,98,11304,6,0,B|146:154|157:197|157:197|203:187|306:207,1,240,2|2,3:2|0:0,0:0:0:0:
379,199,12652,2,0,P|428:264|443:318,1,79.9999999999999,10|2,0:1|0:1,0:0:0:0:
346,297,13326,2,0,P|312:373|302:383,1,79.9999999999999,2|2,0:1|0:1,0:0:0:0:
227,351,14001,6,0,B|191:316|157:300|157:300|219:269|202:132,1,240,2|2,3:2|0:0,0:0:0:0:
159,88,15349,2,0,P|117:143|81:169,1,79.9999999999999,10|0,0:0|1:0,0:0:0:0:
47,212,16023,1,0,1:0:0:0:
175,332,16697,6,0,B|285:369|337:297|337:297|281:236,1,240,2|2,3:2|0:0,0:0:0:0:
261,171,18046,2,0,P|268:86|247:53,1,79.9999999999999,10|2,0:1|0:1,0:0:0:0:
216,24,18720,1,2,0:1:0:0:
71,123,19394,6,0,L|54:207,2,79.9999999999999,2|2|2,3:2|0:0|0:0,0:0:0:0:
170,274,20742,1,10,0:0:0:0:
170,274,21079,1,0,0:0:0:0:
209,12,22091,6,0,P|144:-1|71:3,1,79.9999999999999,6|0,3:2|0:0,0:0:0:0:
51,36,22765,2,0,P|58:121|-39:166,1,160,2|10,1:0|0:0,0:0:0:0:
27,250,23776,2,0,P|40:287|48:326,1,79.9999999999999,2|2,1:0|2:0,0:0:0:0:
218,283,24787,6,0,L|299:304,1,79.9999999999999,0|2,3:2|0:0,0:0:0:0:
381,319,25461,2,0,P|370:286|390:232,1,79.9999999999999,2|2,0:0|1:0,0:0:0:0:
386,155,26135,2,0,P|483:171|433:43,1,240,10|2,1:0|0:1,0:0:0:0:
402,33,27484,6,0,L|300:91,2,79.9999999999999,2|2|2,3:2|0:0|0:0,0:0:0:0:
263,141,28832,2,0,P|191:76|104:102,1,160,10|0,0:0|0:0,0:0:0:0:
42,232,30180,6,0,P|61:326|75:335,1,79.9999999999999,2|2,3:2|0:0,0:0:0:0:
123,348,30855,2,0,P|160:336|199:344,1,79.9999999999999,2|2,0:0|0:0,0:0:0:0:
285,362,31529,2,0,B|232:319|232:319|221:171,1,160,10|2,1:0|2:1,0:0:0:0:
195,55,32877,6,0,L|87:66,1,79.9999999999999,2|2,3:2|0:0,0:0:0:0:
103,150,33551,2,0,L|182:158,1,79.9999999999999,2|2,0:0|0:0,0:0:0:0:
269,147,34225,2,0,P|228:235|349:257,1,240,10|2,2:1|0:1,0:0:0:0:
425,263,35574,6,0,B|308:252|329:352|203:327,1,240,2|0,3:2|0:0,0:0:0:0:
379,130,37596,1,2,0:1:0:0:
379,130,37933,1,2,0:1:0:0:
424,46,38270,6,0,P|378:37|336:26,1,79.9999999999999,2|2,3:2|0:0,0:0:0:0:
270,73,38944,2,0,P|193:122|178:193,1,160,2|10,0:0|0:0,0:0:0:0:
214,264,39956,2,0,L|321:300,1,79.9999999999999,2|2,0:1|0:1,0:0:0:0:
464,272,40967,6,0,L|473:191,1,79.9999999999999,2|2,3:2|0:0,0:0:0:0:
383,179,41641,2,0,L|357:104,1,79.9999999999999,2|2,0:0|0:0,0:0:0:0:
280,59,42315,1,10,0:0:0:0:
440,372,43664,6,0,B|247:385|318:233|121:264,1,320,6|10,3:0|0:0,0:0:0:0:
67,248,45349,1,0,0:0:0:0:
95,164,45686,1,0,0:0:0:0:
227,48,46360,6,0,P|238:145|336:137,1,160,2|2,3:1|0:1,0:0:0:0:
374,155,47371,1,0,0:0:0:0:
456,186,47709,2,0,B|356:188|418:262|327:267,1,160,10|2,1:0|0:1,0:0:0:0:
156,252,49057,6,0,L|106:378,2,79.9999999999999,6|2|2,3:0|0:0|0:0,0:0:0:0:
151,164,50068,1,2,0:0:0:0:
200,91,50405,2,0,B|257:95|257:95|291:122|291:122|367:123,1,160,10|0,0:0|0:0,0:0:0:0:
511,193,51753,6,0,P|429:221|444:291,1,160,2|2,3:1|0:1,0:0:0:0:
374,345,52765,1,0,0:0:0:0:
290,315,53102,2,0,P|269:248|208:164,1,160,10|2,0:1|1:0,0:0:0:0:
362,72,54450,6,0,P|385:39|416:14,2,79.9999999999999,6|2|2,3:0|0:0|0:0,0:0:0:0:
341,157,55461,1,2,0:0:0:0:
402,219,55798,2,0,B|311:189|311:189|212:256,1,160,10|2,0:0|0:1,0:0:0:0:
156,369,57147,6,0,P|143:326|119:279,1,79.9999999999999,2|2,3:2|0:0,0:0:0:0:
61,236,57821,2,0,P|72:197|88:161,1,79.9999999999999,2|2,0:0|0:0,0:0:0:0:
139,89,58495,1,10,0:0:0:0:
314,80,59169,2,0,B|329:39|329:39|337:3,1,79.9999999999999,2|2,0:1|0:1,0:0:0:0:
409,55,59843,6,0,P|527:78|539:82,2,79.9999999999999,4|2|2,3:0|0:0|0:0,0:0:0:0:
343,114,60855,1,2,0:0:0:0:
381,195,61192,1,10,0:0:0:0:
459,155,61529,5,2,1:0:0:0:
219,264,62540,6,0,P|182:214|159:198,2,79.9999999999999,0|0|0,3:0|0:0|0:0,0:0:0:0:
291,313,63551,1,0,0:0:0:0:
236,369,63888,1,8,0:0:0:0:
274,197,64562,5,2,1:0:0:0:
407,312,65237,6,0,B|420:234|336:185|447:161|396:49,1,240,6|0,3:0|0:0,0:0:0:0:
353,4,66585,2,0,P|271:30|258:53,1,79.9999999999999,8|0,0:0|0:0,0:0:0:0:
221,88,67259,1,0,0:0:0:0:
45,102,67933,6,0,L|15:228,1,120,2|2,3:1|0:0,0:0:0:0:
33,259,68607,2,0,B|64:251|64:251|153:284,1,120,2|2,0:0|0:0,0:0:0:0:
188,296,69282,1,10,0:1:0:0:
363,279,69956,2,0,L|407:138,1,120,2|2,1:0|0:0,0:0:0:0:
423,127,70630,6,0,B|326:101|270:183|176:131,1,240,12|0,3:0|0:0,0:0:0:0:
107,100,71978,1,8,0:0:0:0:
389,309,73326,6,0,P|451:241|455:189,1,120,2|2,3:1|0:0,0:0:0:0:
477,177,74001,2,0,P|421:188|388:142,1,120,2|2,0:0|0:0,0:0:0:0:
397,99,74675,1,10,0:0:0:0:
250,195,75349,2,0,B|187:184|202:233|106:227,1,120,2|2,0:0|0:0,0:0:0:0:
97,245,76023,6,0,B|163:172|120:99|120:99|218:94|236:-38,1,320,6|8,3:0|0:0,0:0:0:0:
430,287,78720,6,0,L|309:260,1,120,2|2,3:1|1:1,0:0:0:0:
273,241,79394,2,0,B|306:303|306:303|271:377,1,120,2|2,1:1|1:1,1:0:0:0:
255,380,80068,1,10,1:1:0:0:
178,221,80742,2,0,B|181:152|220:185|213:79,1,120,2|2,1:1|1:1,1:0:0:0:
226,66,81416,6,0,P|253:134|399:98,1,240,12|0,3:0|0:0,0:0:0:0:
442,38,82765,1,8,0:0:0:0:
409,299,83776,1,2,1:1:0:0:
340,243,84113,2,0,B|252:244|281:310|178:307,1,160,8|0,3:0|0:0,0:0:0:0:
22,309,85461,1,10,0:0:0:0:
66,138,86135,1,2,0:0:0:0:
211,236,86810,6,0,B|181:187|203:139|273:115|324:177|324:177|337:105|397:50,1,320,6|8,3:0|0:0,0:0:0:0:
450,36,88495,2,0,L|466:148,1,79.9999999999999,0|0,0:0|0:0,0:0:0:0:
492,288,89506,2,0,B|363:263|391:364|247:347,1,240,0|0,3:0|0:0,0:0:0:0:
181,332,90855,1,10,0:0:0:0:
219,160,91529,1,2,0:0:0:0:
394,171,92203,6,0,B|406:88|406:88|436:29,2,120,12|2|2,3:0|0:1|0:1,0:0:0:0:
397,258,93551,1,10,0:0:0:0:
46,295,94900,2,0,P|36:229|89:172,2,120,2|2|2,3:2|0:0|0:0,0:0:0:0:
122,338,96248,1,10,0:1:0:0:
237,205,96922,1,2,0:1:0:0:
448,199,97596,6,0,B|384:164|384:164|357:182|357:182|273:170|273:170|263:158|263:158|174:147|174:147|166:154|166:154|48:133,1,383.99998828125,4|8,3:0|0:0,0:0:0:0:
375,377,100293,2,0,P|314:279|516:207,1,383.99998828125,4|8,3:0|0:0,0:0:0:0:
241,221,102315,1,2,0:0:0:0:
441,153,102989,6,0,B|418:123|418:123|421:92|421:92|410:63|410:63|413:24|413:24|358:40|358:40|351:30|351:30|279:21|279:21|278:15|278:15|215:8|215:8|182:13,1,383.99998828125,4|8,3:0|0:0,0:0:0:0:
13,360,105686,2,0,B|92:343|153:347|153:347|155:355|155:355|157:346|157:346|185:311|186:278|186:278|187:274|187:274|188:276|188:276|221:300|344:259,1,383.99998828125,4|8,3:0|0:0,0:0:0:0:
21,90,108383,6,0,P|86:77|159:81,1,79.9999999999999,2|2,3:2|0:0,0:0:0:0:
186,63,109057,2,0,P|179:148|276:193,1,160,2|10,0:1|0:0,0:0:0:0:
318,201,110068,1,0,0:0:0:0:
365,126,110405,1,0,0:0:0:0:
343,300,111079,6,0,L|235:330,1,79.9999999999999,2|2,3:2|0:0,0:0:0:0:
179,336,111753,2,0,P|190:303|170:249,1,79.9999999999999,2|2,0:0|0:1,0:0:0:0:
131,185,112428,1,10,1:0:0:0:
131,185,112765,1,2,0:1:0:0:
339,22,113776,6,0,L|409:61,2,79.9999999999999,2|2|2,3:2|0:0|0:0,0:0:0:0:
251,19,114787,2,0,P|199:77|121:78,1,160,2|0,2:0|0:0,0:0:0:0:
39,46,115798,1,0,0:0:0:0:
191,133,116473,6,0,P|172:227|158:236,1,79.9999999999999,2|2,3:2|0:0,0:0:0:0:
164,294,117147,2,0,P|127:282|88:290,1,79.9999999999999,2|2,0:0|0:0,0:0:0:0:
3,315,117821,2,0,B|56:272|56:272|62:180,1,160,10|2,1:1|1:0,0:0:0:0:
203,74,119169,6,0,L|311:85,1,79.9999999999999,2|2,3:2|0:0,0:0:0:0:
318,162,119843,2,0,L|239:170,1,79.9999999999999,2|2,0:0|0:0,0:0:0:0:
153,191,120517,1,10,0:0:0:0:
72,347,121192,1,0,0:0:0:0:
20,178,121866,6,0,B|137:167|116:267|242:242,1,240,2|2,3:2|0:0,0:0:0:0:
327,258,123214,2,0,P|345:176|359:159,1,79.9999999999999,10|2,2:1|2:1,0:0:0:0:
414,130,123888,2,0,P|383:45|367:31,1,79.9999999999999,2|2,2:1|2:1,0:0:0:0:
318,5,124562,5,2,3:2:0:0:
157,77,125237,2,0,P|234:126|249:197,1,160,2|10,0:0|0:0,0:0:0:0:
277,272,126248,2,0,L|170:308,1,79.9999999999999,0|0,1:0|1:0,0:0:0:0:
68,181,127259,6,0,L|34:81,1,79.9999999999999,2|2,3:2|0:0,0:0:0:0:
127,85,127933,2,0,L|202:111,1,79.9999999999999,2|2,0:0|0:0,0:0:0:0:
276,158,128607,1,8,0:0:0:0:
486,281,129956,6,0,P|458:322|449:357,2,79.9999999999999,2|2|2,3:2|0:0|0:0,0:0:0:0:
460,196,130967,1,2,0:0:0:0:
407,125,131304,2,0,L|283:110,1,120,10|2,2:1|2:1,0:0:0:0:
249,132,131978,2,0,L|167:140,1,79.9999999999999,2|2,2:1|2:1,0:0:0:0:
85,156,132652,1,2,3:2:0:0:
281,332,133664,1,2,0:0:0:0:
340,267,134001,2,0,P|398:257|427:256,1,79.9999999999999,10|2,0:1|0:1,0:0:0:0:
459,178,134675,2,0,P|419:174|379:167,1,79.9999999999999,2|2,1:1|0:1,0:1:0:0:
299,132,135349,5,0,3:0:0:0:
168,361,136360,1,2,0:0:0:0:
108,296,136697,1,8,0:0:0:0:
23,154,137371,2,0,P|41:118|53:80,1,79.9999999999999,2|2,0:0|0:0,0:0:0:0:
115,18,138046,6,0,P|154:9|192:21,1,79.9999999999999,2|2,3:2|0:0,0:0:0:0:
260,74,138720,2,0,P|299:83|337:71,1,79.9999999999999,2|2,0:0|0:0,0:0:0:0:
410,23,139394,1,8,0:0:0:0:
276,348,140742,6,0,L|356:357,1,79.9999999999999,2|2,3:2|0:0,0:0:0:0:
394,278,141416,2,0,L|473:270,1,79.9999999999999,2|2,0:0|0:0,0:0:0:0:
510,189,142091,1,8,0:0:0:0:
415,40,142765,2,0,L|318:32,1,79.9999999999999,2|2,2:1|2:1,2:1:0:0:
276,98,143439,6,0,B|159:109|180:9|54:34,1,240,2|2,3:2|0:0,0:0:0:0:
16,113,144787,1,10,0:0:0:0:
70,182,145124,2,0,L|109:185,2,40,2|2|2,2:1|2:1|2:1,2:1:0:0:
19,253,145798,5,2,2:1:0:0:
256,192,146135,12,2,148495,0:0:0:0:
18,40,151529,6,0,B|96:27|96:27|98:36|98:36|169:55|169:55|192:22|192:22|194:28|194:28|306:38,1,320,6|8,3:0|0:0,0:0:0:0:
141,349,154225,6,0,L|15:379,1,120,2|2,3:2|0:0,0:0:0:0:
6,336,154900,2,0,B|-2:305|-2:305|31:216,1,120,2|2,0:0|0:0,0:0:0:0:
51,184,155574,1,10,0:0:0:0:
198,88,156248,2,0,P|267:61|284:16,1,120,2|2,0:0|0:0,0:0:0:0:
325,8,156922,6,0,B|351:105|269:161|321:255,1,240,12|0,3:0|0:0,0:0:0:0:
338,327,158270,1,8,0:0:0:0:
25,166,159619,6,0,P|93:104|145:100,1,120,2|2,3:2|0:0,0:0:0:0:
160,111,160293,2,0,P|123:93|138:13,1,120,2|2,0:0|0:0,0:0:0:0:
167,8,160967,1,10,0:0:0:0:
237,169,161641,2,0,B|248:232|199:217|205:313,1,120,2|2,0:0|0:0,0:0:0:0:
221,322,162315,6,0,P|355:343|327:209,1,320,6|8,3:0|0:0,0:0:0:0:
6,63,165012,6,0,P|38:129|45:203,1,120,2|2,3:2|0:0,0:0:0:0:
51,218,165686,2,0,P|75:160|155:157,1,120,2|2,0:0|0:0,0:0:0:0:
170,144,166360,1,10,0:0:0:0:
321,233,167034,2,0,L|449:213,1,120,2|2,0:0|2:0,0:0:0:0:
476,189,167709,6,0,B|398:126|346:205|347:210|347:217|251:281|190:181,1,320,12|8,3:0|0:0,0:0:0:0:
435,79,170068,1,2,2:0:0:0:
377,145,170405,6,0,P|360:207|360:260,2,79.9999999999999,12|0|0,3:0|0:0|0:0,0:0:0:0:
263,279,171753,5,10,0:0:0:0:
139,153,172428,1,2,0:0:0:0:
296,74,173102,6,0,B|218:87|218:87|216:78|216:78|145:59|145:59|122:92|122:92|120:86|120:86|8:76,1,320,6|8,3:0|0:0,0:0:0:0:
16,163,174787,2,0,L|25:265,1,79.9999999999999,0|0,1:0|1:0,0:0:0:0:
183,314,175798,6,0,B|264:299|267:223|226:164|364:133,1,240,0|0,3:0|0:0,0:0:0:0:
414,125,177147,2,0,L|295:99,1,106.666666666667,10|2,0:0|0:0,0:0:0:0:
253,85,177821,2,0,P|266:138|228:199,1,106.666666666667,2|2,0:0|0:0,0:0:0:0:
213,232,178495,6,0,B|310:206|366:288|460:236,1,240,12|0,3:0|0:0,0:0:0:0:
482,161,179843,1,10,0:0:0:0:
130,194,181192,6,0,P|198:134|247:132,2,120,2|0|0,3:2|0:0|0:0,0:0:0:0:
74,262,182540,5,10,0:0:0:0:
118,91,183214,1,2,0:0:0:0:
264,266,183888,6,0,B|281:209|284:178|284:178|272:165|272:165|306:166|306:166|358:207|358:207|406:214|406:214|381:161|407:129|407:129|381:91|381:91|388:53,1,415.999980957032,4|8,3:0|0:0,0:0:0:0:
31,358,186585,2,0,B|68:320|68:320|120:329|152:300|152:300|138:249|79:229|79:229|78:224|78:224|61:228|61:228|61:222|61:222|18:186|34:147|34:147|33:138|33:138|49:132|49:132|90:118,1,415.999980957032,4|10,3:0|0:0,0:0:0:0:
298,81,188607,1,2,0:0:0:0:
400,286,189282,6,0,B|349:265|321:271|321:271|289:246|279:215|279:215|267:299|219:325|219:325|185:254|86:240,1,415.999980957032,4|8,3:0|0:0,0:0:0:0:
468,69,191978,2,0,B|507:26|507:26|528:98|513:127|513:127|484:135|470:152|470:152|469:158|469:158|444:167|407:167|407:167|400:202|400:202|364:152|294:128,1,415.999980957032,4|10,3:0|0:0,0:0:0:0:
99,93,194001,1,2,0:0:0:0:
107,348,194675,5,4,3:0:0:0:
156,242,195012,1,4,3:0:0:0:
204,138,195349,1,4,3:0:0:0:
253,36,195686,2,0,B|284:46|284:46|316:69|316:69|363:83,1,116.000003540039,4|8,3:0|0:0,0:0:0:0:
0,342,197371,6,0,B|143:343|74:240|230:235|230:235|114:199|106:73,1,464.000014160156,4|10,3:0|0:0,0:0:0:0:
512,384,200068,5,4,3:0:0:0:
406,335,200405,1,4,3:0:0:0:
302,286,200742,1,4,3:0:0:0:
200,238,201079,2,0,B|211:197|211:197|212:168|212:168|223:124,1,116.000003540039,4|8,3:0|0:0,0:0:0:0:
476,64,202765,6,0,B|266:157|116:241|424:351|248:58,1,464.000014160156,4|8,3:0|0:0,0:0:0:0:
256,192,204787,12,0,206473,0:0:0:0:
