osu file format v14

[General]
AudioFilename: audio.mp3
AudioLeadIn: 0
PreviewTime: 151529
Countdown: 0
SampleSet: Soft
StackLeniency: 0.4
Mode: 0
LetterboxInBreaks: 0
WidescreenStoryboard: 0

[Editor]
Bookmarks: 518,11304,22091,32877,43664,54450,65237,76023,86810,97596,108383,119169,129956,140742,151529,162315,173102,183888,194675,205461
DistanceSpacing: 2.2
BeatDivisor: 6
GridSize: 32
TimelineZoom: 2.1

[Metadata]
Title:SLOW DANCING IN THE DARK
TitleUnicode:SLOW DANCING IN THE DARK
Artist:Joji
ArtistUnicode:Joji
Creator:Mayflower
Version:AYYRI'S HARD
Source:
Tags:ballads1 1 english filthy frank papa franku george miller pink guy 88rising ambient dance R&B Soul Hip Hop hiphop Yeah Right Can't Get Over You cant Patrick Wimberly Francisco Frankie Ramirez Chris Athens eiri- ayyri em0nky emonky marblelemons thepython JeirYagtama jieryagtama Jeirin Liyac cyanine californian darknessofblue Jemzuu AJamez
BeatmapID:2075749
BeatmapSetID:902215

[Difficulty]
HPDrainRate:5
CircleSize:4
OverallDifficulty:6
ApproachRate:8
SliderMultiplier:1.4
SliderTickRate:1

[Events]
//Background and Video events
0,0,"SLOW DANCING BACKGROUND POG.jpg",0,0
//Break Periods
//Storyboard Layer 0 (Background)
//Storyboard Layer 1 (Fail)
//Storyboard Layer 2 (Pass)
//Storyboard Layer 3 (Foreground)
//Storyboard Layer 4 (Overlay)
//Storyboard Sound Samples

[TimingPoints]
518,337.078651685393,4,2,1,50,1,0
798,-100,4,2,1,5,0,0
855,-100,4,2,1,50,0,0
1135,-100,4,2,1,5,0,0
1192,-100,4,2,1,50,0,0
1473,-100,4,2,1,5,0,0
1529,-100,4,2,1,50,0,0
1810,-100,4,2,1,5,0,0
1866,-100,4,2,1,50,0,0
2147,-100,4,2,1,5,0,0
2203,-100,4,2,1,50,0,0
2484,-100,4,2,1,5,0,0
2540,-100,4,2,1,50,0,0
3495,-100,4,2,1,5,0,0
3551,-100,4,2,1,50,0,0
3832,-100,4,2,1,5,0,0
3888,-100,4,2,1,50,0,0
4169,-100,4,2,1,5,0,0
4225,-100,4,2,1,50,0,0
4506,-100,4,2,1,5,0,0
4562,-100,4,2,1,50,0,0
4843,-100,4,2,1,5,0,0
4900,-100,4,2,1,50,0,0
5180,-100,4,2,1,5,0,0
5237,-100,4,2,1,50,0,0
5517,-100,4,2,1,5,0,0
5574,-100,4,2,1,50,0,0
6192,-100,4,2,1,5,0,0
6248,-100,4,2,1,50,0,0
6529,-100,4,2,1,5,0,0
6585,-100,4,2,1,50,0,0
6866,-100,4,2,1,5,0,0
6922,-100,4,2,1,50,0,0
7203,-100,4,2,1,5,0,0
7259,-100,4,2,1,50,0,0
7540,-100,4,2,1,5,0,0
7596,-100,4,2,1,50,0,0
7877,-100,4,2,1,5,0,0
7933,-100,4,2,1,50,0,0
8888,-100,4,2,1,5,0,0
8944,-100,4,2,1,50,0,0
9225,-100,4,2,1,5,0,0
9282,-100,4,2,1,50,0,0
9562,-100,4,2,1,5,0,0
9619,-100,4,2,1,50,0,0
9900,-100,4,2,1,5,0,0
9956,-100,4,2,1,50,0,0
10237,-100,4,2,1,5,0,0
10293,-100,4,2,1,50,0,0
10967,-100,4,2,1,5,0,0
11304,-100,4,2,1,50,0,0
11585,-100,4,2,1,5,0,0
11641,-100,4,2,1,50,0,0
11922,-100,4,2,1,5,0,0
11978,-100,4,2,1,50,0,0
12259,-100,4,2,1,5,0,0
12315,-100,4,2,1,50,0,0
12933,-100,4,2,1,5,0,0
12989,-100,4,2,1,50,0,0
13270,-100,4,2,1,5,0,0
13326,-100,4,2,1,50,0,0
13607,-100,4,2,1,5,0,0
13664,-100,4,2,1,50,0,0
14282,-100,4,2,1,5,0,0
14338,-100,4,2,1,50,0,0
14619,-100,4,2,1,5,0,0
14675,-100,4,2,1,50,0,0
14956,-100,4,2,1,5,0,0
15012,-100,4,2,1,50,0,0
15293,-100,4,2,1,5,0,0
15349,-100,4,2,1,50,0,0
16978,-100,4,2,1,5,0,0
17034,-100,4,2,1,50,0,0
17315,-100,4,2,1,5,0,0
17371,-100,4,2,1,50,0,0
17652,-100,4,2,1,5,0,0
17709,-100,4,2,1,50,0,0
17989,-100,4,2,1,5,0,0
18046,-100,4,2,1,50,0,0
19001,-100,4,2,1,5,0,0
19057,-100,4,2,1,50,0,0
19647,-100,4,2,1,5,0,0
19731,-100,4,2,1,50,0,0
19984,-100,4,2,1,5,0,0
20068,-100,4,2,1,50,0,0
20321,-100,4,2,1,5,0,0
20405,-100,4,2,1,50,0,0
20658,-100,4,2,1,5,0,0
20742,-100,4,2,1,50,0,0
22371,-100,4,2,1,5,0,0
22428,-100,4,2,1,50,0,0
22709,-100,4,2,1,5,0,0
22765,-100,4,2,1,50,0,0
25068,-100,4,2,1,5,0,0
25124,-100,4,2,1,50,0,0
25405,-100,4,2,1,5,0,0
25461,-100,4,2,1,50,0,0
25742,-100,4,2,1,5,0,0
25798,-100,4,2,1,50,0,0
26079,-100,4,2,1,5,0,0
26135,-100,4,2,1,50,0,0
26416,-100,4,2,1,5,0,0
26473,-100,4,2,1,50,0,0
27091,-100,4,2,1,5,0,0
27147,-100,4,2,1,50,0,0
27428,-100,4,2,1,5,0,0
27484,-100,4,2,1,50,0,0
27765,-100,4,2,1,5,0,0
27821,-100,4,2,1,50,0,0
28102,-100,4,2,1,5,0,0
28158,-100,4,2,1,50,0,0
28776,-100,4,2,1,5,0,0
28832,-100,4,2,1,50,0,0
30461,-100,4,2,1,5,0,0
30517,-100,4,2,1,50,0,0
30798,-100,4,2,1,5,0,0
30855,-100,4,2,1,50,0,0
31135,-100,4,2,1,5,0,0
31192,-100,4,2,1,50,0,0
31473,-100,4,2,1,5,0,0
31529,-100,4,2,1,50,0,0
33158,-100,4,2,1,5,0,0
33214,-100,4,2,1,50,0,0
34506,-100,4,2,1,5,0,0
34562,-100,4,2,1,50,0,0
34843,-100,4,2,1,5,0,0
34900,-100,4,2,1,50,0,0
35180,-100,4,2,1,5,0,0
35237,-100,4,2,1,50,0,0
35855,-100,4,2,1,5,0,0
35911,-100,4,2,1,50,0,0
36192,-100,4,2,1,5,0,0
36248,-100,4,2,1,50,0,0
36529,-100,4,2,1,5,0,0
36585,-100,4,2,1,50,0,0
36866,-100,4,2,1,5,0,0
36922,-100,4,2,1,50,0,0
37203,-100,4,2,1,5,0,0
37259,-100,4,2,1,50,0,0
37540,-100,4,2,1,5,0,0
37596,-100,4,2,1,50,0,0
37877,-100,4,2,1,5,0,0
37933,-100,4,2,1,50,0,0
38214,-100,4,2,1,5,0,0
38270,-100,4,2,1,50,0,0
38551,-100,4,2,1,5,0,0
38607,-100,4,2,1,50,0,0
38888,-100,4,2,1,5,0,0
38944,-100,4,2,1,50,0,0
39225,-100,4,2,1,5,0,0
39282,-100,4,2,1,50,0,0
39562,-100,4,2,1,5,0,0
39619,-100,4,2,1,50,0,0
40911,-100,4,2,1,5,0,0
40967,-100,4,2,1,50,0,0
41248,-100,4,2,1,5,0,0
41304,-100,4,2,1,50,0,0
41585,-100,4,2,1,5,0,0
41641,-100,4,2,1,50,0,0
41922,-100,4,2,1,5,0,0
41978,-100,4,2,1,50,0,0
42259,-100,4,2,1,5,0,0
42315,-100,4,2,1,50,0,0
43326,-100,4,2,1,20,0,0
43664,-100,4,2,1,50,0,0
43944,-100,4,2,1,5,0,0
44001,-100,4,2,1,50,0,0
44282,-100,4,2,1,5,0,0
44338,-100,4,2,1,50,0,0
44619,-100,4,2,1,5,0,0
44675,-100,4,2,1,50,0,0
44956,-100,4,2,1,5,0,0
45012,-100,4,2,1,50,0,0
45293,-100,4,2,1,5,0,0
45349,-100,4,2,1,50,0,0
45630,-100,4,2,1,5,0,0
45686,-100,4,2,1,50,0,0
45967,-100,4,2,1,5,0,0
46023,-100,4,2,1,50,0,0
46304,-100,4,2,1,5,0,0
46360,-100,4,2,1,50,0,0
49338,-100,4,2,1,5,0,0
49394,-100,4,2,1,50,0,0
49675,-100,4,2,1,5,0,0
49731,-100,4,2,1,50,0,0
50012,-100,4,2,1,5,0,0
50068,-100,4,2,1,50,0,0
50349,-100,4,2,1,5,0,0
50405,-100,4,2,1,50,0,0
50686,-100,4,2,1,5,0,0
50742,-100,4,2,1,50,0,0
51023,-100,4,2,1,5,0,0
51079,-100,4,2,1,50,0,0
51697,-100,4,2,1,5,0,0
51753,-100,4,2,1,50,0,0
54731,-100,4,2,1,5,0,0
54787,-100,4,2,1,50,0,0
55068,-100,4,2,1,5,0,0
55124,-100,4,2,1,50,0,0
55405,-100,4,2,1,5,0,0
55461,-100,4,2,1,50,0,0
55742,-100,4,2,1,5,0,0
55798,-100,4,2,1,50,0,0
56079,-100,4,2,1,5,0,0
56135,-100,4,2,1,50,0,0
57091,-100,4,2,1,5,0,0
57147,-100,4,2,1,50,0,0
57428,-100,4,2,1,5,0,0
57484,-100,4,2,1,50,0,0
57765,-100,4,2,1,5,0,0
57821,-100,4,2,1,50,0,0
58102,-100,4,2,1,5,0,0
58158,-100,4,2,1,50,0,0
58439,-100,4,2,1,5,0,0
58495,-100,4,2,1,50,0,0
60124,-100,4,2,1,5,0,0
60180,-100,4,2,1,50,0,0
60461,-100,4,2,1,5,0,0
60517,-100,4,2,1,50,0,0
60798,-100,4,2,1,5,0,0
60855,-100,4,2,1,50,0,0
61135,-100,4,2,1,5,0,0
61192,-100,4,2,1,50,0,0
65237,-100,4,2,3,50,0,0
65349,-100,4,2,1,50,0,0
65461,-100,4,2,4,50,0,0
66585,-100,4,2,1,50,0,0
66697,-100,4,2,4,50,0,0
67933,-100,4,1,1,50,0,0
70630,-100,4,2,3,50,0,0
70742,-100,4,2,4,50,0,0
71978,-100,4,2,4,50,0,0
72428,-100,4,2,4,50,0,0
72652,-100,4,2,4,50,0,0
72765,-100,4,2,4,50,0,0
72989,-100,4,2,1,50,0,0
73326,-100,4,1,1,50,0,0
76023,-100,4,2,3,50,0,0
76135,-100,4,2,4,50,0,0
77371,-100,4,2,1,50,0,0
77484,-100,4,2,4,50,0,0
77821,-100,4,2,4,50,0,0
78046,-100,4,2,4,50,0,0
78158,-100,4,2,4,50,0,0
78383,-100,4,2,4,50,0,0
78720,-100,4,2,1,50,0,0
81416,-100,4,2,3,50,0,0
81529,-100,4,2,4,50,0,0
83776,-100,4,2,1,50,0,0
84113,-100,4,2,3,50,0,0
84225,-100,4,2,4,50,0,0
85405,-100,4,2,1,50,0,0
86810,-100,4,2,3,50,0,0
86922,-100,4,2,4,50,0,0
88158,-100,4,2,1,50,0,0
88270,-100,4,2,4,50,0,0
89506,-100,4,2,1,50,0,0
89619,-100,4,2,4,50,0,0
90855,-100,4,1,1,50,0,0
92203,-100,4,2,3,50,0,0
92652,-100,4,2,1,5,0,0
92709,-100,4,2,1,50,0,0
95349,-100,4,2,1,5,0,0
95405,-100,4,2,1,50,0,0
97596,-100,4,2,2,70,0,1
99113,-100,4,2,4,70,0,1
100293,-100,4,2,2,70,0,1
102610,-100,4,2,2,5,0,1
102652,-100,4,2,2,70,0,1
108383,-100,4,2,1,50,0,0
108664,-100,4,2,1,5,0,0
108720,-100,4,2,1,50,0,0
109001,-100,4,2,1,5,0,0
109057,-100,4,2,1,50,0,0
111360,-100,4,2,1,5,0,0
111416,-100,4,2,1,50,0,0
111697,-100,4,2,1,5,0,0
111753,-100,4,2,1,50,0,0
112034,-100,4,2,1,5,0,0
112091,-100,4,2,1,50,0,0
112371,-100,4,2,1,5,0,0
112428,-100,4,2,1,50,0,0
112709,-100,4,2,1,5,0,0
112765,-100,4,2,1,50,0,0
113383,-100,4,2,1,5,0,0
113439,-100,4,2,1,50,0,0
113720,-100,4,2,1,5,0,0
113776,-100,4,2,1,50,0,0
114057,-100,4,2,1,5,0,0
114113,-100,4,2,1,50,0,0
114394,-100,4,2,1,5,0,0
114450,-100,4,2,1,50,0,0
114731,-100,4,2,1,5,0,0
114787,-100,4,2,1,50,0,0
115068,-100,4,2,1,5,0,0
115124,-100,4,2,1,50,0,0
116753,-100,4,2,1,5,0,0
116810,-100,4,2,1,50,0,0
117091,-100,4,2,1,5,0,0
117147,-100,4,2,1,50,0,0
117428,-100,4,2,1,5,0,0
117484,-100,4,2,1,50,0,0
117765,-100,4,2,1,5,0,0
117821,-100,4,2,1,50,0,0
119113,-100,4,2,1,5,0,0
119169,-100,4,2,1,50,0,0
119450,-100,4,2,1,5,0,0
119506,-100,4,2,1,50,0,0
119787,-100,4,2,1,5,0,0
119843,-100,4,2,1,50,0,0
120124,-100,4,2,1,5,0,0
120180,-100,4,2,1,50,0,0
120461,-100,4,2,1,5,0,0
120517,-100,4,2,1,50,0,0
120798,-100,4,2,1,5,0,0
120855,-100,4,2,1,50,0,0
121135,-100,4,2,1,5,0,0
121192,-100,4,2,1,50,0,0
121473,-100,4,2,1,5,0,0
121529,-100,4,2,1,50,0,0
122147,-100,4,2,1,5,0,0
122203,-100,4,2,1,50,0,0
122484,-100,4,2,1,5,0,0
122540,-100,4,2,1,50,0,0
122821,-100,4,2,1,5,0,0
122877,-100,4,2,1,50,0,0
123158,-100,4,2,1,5,0,0
123214,-100,4,2,1,50,0,0
123495,-100,4,2,1,5,0,0
123551,-100,4,2,1,50,0,0
123832,-100,4,2,1,5,0,0
123888,-100,4,2,1,50,0,0
124169,-100,4,2,1,5,0,0
124225,-100,4,2,1,50,0,0
124506,-100,4,2,1,5,0,0
124562,-100,4,2,1,50,0,0
124843,-100,4,2,1,5,0,0
124900,-100,4,2,1,50,0,0
125180,-100,4,2,1,5,0,0
125237,-100,4,2,1,50,0,0
125517,-100,4,2,1,5,0,0
125574,-100,4,2,1,50,0,0
125855,-100,4,2,1,5,0,0
125911,-100,4,2,1,50,0,0
127540,-100,4,2,1,5,0,0
127596,-100,4,2,1,50,0,0
127877,-100,4,2,1,5,0,0
127933,-100,4,2,1,50,0,0
128214,-100,4,2,1,5,0,0
128270,-100,4,2,1,50,0,0
128551,-100,4,2,1,5,0,0
128607,-100,4,2,1,50,0,0
129619,-100,4,2,1,15,0,0
129956,-100,4,2,1,50,0,0
130237,-100,4,2,1,5,0,0
130293,-100,4,2,1,50,0,0
130574,-100,4,2,1,5,0,0
130630,-100,4,2,1,50,0,0
130911,-100,4,2,1,5,0,0
130967,-100,4,2,1,50,0,0
131248,-100,4,2,1,5,0,0
131304,-100,4,2,1,50,0,0
132933,-100,4,2,1,5,0,0
132989,-100,4,2,1,50,0,0
133270,-100,4,2,1,5,0,0
133326,-100,4,2,1,50,0,0
133607,-100,4,2,1,5,0,0
133664,-100,4,2,1,50,0,0
133944,-100,4,2,1,5,0,0
134001,-100,4,2,1,50,0,0
135630,-100,4,2,1,5,0,0
135686,-100,4,2,1,50,0,0
135967,-100,4,2,1,5,0,0
136023,-100,4,2,1,50,0,0
136304,-100,4,2,1,5,0,0
136360,-100,4,2,1,50,0,0
136641,-100,4,2,1,5,0,0
136697,-100,4,2,1,50,0,0
136978,-100,4,2,1,5,0,0
137034,-100,4,2,1,50,0,0
137315,-100,4,2,1,5,0,0
137371,-100,4,2,1,50,0,0
137652,-100,4,2,1,5,0,0
137709,-100,4,2,1,50,0,0
138326,-100,4,2,1,5,0,0
138383,-100,4,2,1,50,0,0
138664,-100,4,2,1,5,0,0
138720,-100,4,2,1,50,0,0
139001,-100,4,2,1,5,0,0
139057,-100,4,2,1,50,0,0
139338,-100,4,2,1,5,0,0
139394,-100,4,2,1,50,0,0
140686,-100,4,2,1,5,0,0
140742,-100,4,2,1,50,0,0
141023,-100,4,2,1,5,0,0
141079,-100,4,2,1,50,0,0
141360,-100,4,2,1,5,0,0
141416,-100,4,2,1,50,0,0
141697,-100,4,2,1,5,0,0
141753,-100,4,2,1,50,0,0
142034,-100,4,2,1,5,0,0
142091,-100,4,2,1,50,0,0
143720,-100,4,2,1,5,0,0
143776,-100,4,2,1,50,0,0
144057,-100,4,2,1,5,0,0
144113,-100,4,2,1,50,0,0
144394,-100,4,2,1,5,0,0
144450,-100,4,2,1,50,0,0
144731,-100,4,2,1,5,0,0
144787,-100,4,2,1,50,0,0
145798,-100,4,2,1,50,0,0
146135,-100,4,2,4,50,0,0
150517,-100,4,2,1,50,0,0
150855,-100,4,2,3,50,0,0
151529,-100,4,2,3,50,0,0
152877,-100,4,2,1,50,0,0
156922,-100,4,2,3,50,0,0
158270,-100,4,2,1,50,0,0
162315,-100,4,2,3,50,0,0
163664,-100,4,2,1,50,0,0
167709,-100,4,2,3,50,0,0
169057,-100,4,2,1,50,0,0
170405,-100,4,2,3,50,0,0
171669,-100,4,2,1,50,0,0
173102,-100,4,2,3,50,0,0
174450,-100,4,2,1,50,0,0
178495,-100,4,2,3,50,0,0
178944,-100,4,2,1,50,0,0
183888,-100,4,2,2,80,0,1
188551,-100,4,2,2,5,0,1
188607,-100,4,2,2,80,0,1
199310,-100,4,2,2,5,0,1
199338,-100,4,2,2,5,0,1
199394,-100,4,2,2,80,0,1
205461,-100,4,2,2,5,0,0

[Colours]
Combo1 : 174,86,233
Combo2 : 176,83,179
Combo3 : 138,90,177
Combo4 : 100,102,189

[HitObjects]
64,324,518,6,0,P|117:308|165:308,1,93.3333333333333,2|0,3:2|0:0,0:0:0:0:
221,263,855,2,0,P|274:279|322:279,1,93.3333333333333,2|0,0:0|0:0,0:0:0:0:
375,328,1192,2,0,L|343:170,1,140,2|2,0:0|0:0,0:0:0:0:
310,32,1866,2,0,P|376:38|400:58,1,93.3333333333333,10|0,0:1|0:0,0:0:0:0:
377,131,2203,2,0,P|311:125|287:105,1,93.3333333333333,2|0,0:1|0:0,0:0:0:0:
235,52,2540,1,2,0:1:0:0:
452,111,2877,1,2,0:1:0:0:
340,321,3214,6,0,P|287:305|239:305,1,93.3333333333333,2|0,3:2|0:0,0:0:0:0:
181,345,3551,2,0,P|128:361|80:361,1,93.3333333333333,2|0,0:0|0:0,0:0:0:0:
48,293,3888,2,0,L|206:261,1,140,2|2,0:0|0:0,0:0:0:0:
420,226,4562,2,0,L|425:137,1,70,10|0,0:1|0:0,0:0:0:0:
426,63,4900,2,0,L|337:58,1,70,2|0,0:1|0:0,0:0:0:0:
263,57,5237,2,0,L|258:146,1,70,2|0,2:1|0:0,0:0:0:0:
257,220,5574,1,2,0:1:0:0:
106,94,5911,6,0,P|53:78|5:78,1,93.3333333333333,2|0,3:2|0:0,0:0:0:0:
2,155,6248,2,0,P|55:171|103:171,1,93.3333333333333,2|0,0:0|0:0,0:0:0:0:
169,149,6585,2,0,L|137:307,1,140,2|2,0:0|0:0,0:0:0:0:
323,182,7259,2,0,P|389:188|413:208,1,93.3333333333333,10|0,0:1|0:0,0:0:0:0:
349,256,7596,2,0,P|415:262|439:282,1,93.3333333333333,2|0,2:1|0:0,0:0:0:0:
480,342,7933,1,2,0:1:0:0:
261,247,8270,1,2,0:1:0:0:
99,351,8607,6,0,P|46:367|-2:367,1,93.3333333333333,2|0,3:2|0:0,0:0:0:0:
66,277,8944,2,0,P|44:327|13:364,1,93.3333333333333,2|0,0:0|0:0,0:0:0:0:
3,211,9282,2,0,P|70:186|133:217,1,140,2|2,0:0|0:0,0:0:0:0:
301,362,9956,6,0,L|435:346,1,93.3333333333333,10|0,0:1|0:0,0:0:0:0:
438,284,10293,2,0,L|503:291,2,46.6666666666667,2|0|0,1:0|1:0|1:0,0:0:0:0:
370,241,10630,2,0,P|357:186|397:99,1,140,2|0,1:0|0:0,0:0:0:0:
205,39,11304,6,0,P|158:41|114:56,1,93.3333333333333,2|0,3:2|0:0,0:0:0:0:
49,102,11641,2,0,P|102:118|150:118,1,93.3333333333333,2|0,2:0|0:0,0:0:0:0:
216,118,11978,2,0,L|188:255,1,140,2|2,0:0|0:0,0:0:0:0:
345,384,12652,1,10,0:1:0:0:
188,255,12989,1,2,0:1:0:0:
345,384,13326,1,2,0:1:0:0:
188,255,13664,2,0,L|146:261,1,23.3333333333333,2|0,0:1|0:0,0:0:0:0:
68,102,14001,6,0,L|214:124,3,140,2|2|2|2,3:2|0:0|0:0|0:0,0:0:0:0:
439,170,15349,2,0,L|426:90,1,70,10|0,0:0|1:0,0:0:0:0:
328,34,15686,2,0,L|341:114,1,70,0|0,1:0|1:0,0:0:0:0:
266,199,16023,2,0,L|253:118,1,70,0|0,1:0|1:0,0:0:0:0:
155,63,16360,1,0,1:0:0:0:
62,282,16697,6,0,B|95:300|95:300|176:295,1,93.3333333333333,2|0,3:2|0:0,0:0:0:0:
204,237,17034,2,0,B|171:219|171:219|90:224,1,93.3333333333333,2|0,0:0|0:0,0:0:0:0:
39,246,17371,2,0,P|89:183|84:112,1,140,2|2,0:0|0:0,0:0:0:0:
272,10,18046,2,0,L|262:170,2,140,10|0|0,0:1|0:0|0:0,0:0:0:0:
272,10,19057,1,0,0:0:0:0:
257,247,19394,6,0,P|301:217|370:211,1,93.3333333333333,2|0,3:2|0:0,0:0:0:0:
260,201,19731,2,0,P|269:148|314:95,1,93.3333333333333,2|0,0:0|0:0,0:0:0:0:
229,166,20068,2,0,P|199:122|192:53,1,93.3333333333333,2|0,0:0|0:0,0:0:0:0:
182,163,20405,2,0,P|129:153|76:108,1,93.3333333333333,2|0,0:0|0:0,0:0:0:0:
146,194,20742,1,10,0:0:0:0:
376,133,21079,1,0,0:0:0:0:
376,133,21753,2,0,L|372:98,1,23.3333333333333,0|0,3:0|0:0,0:0:0:0:
493,286,22091,6,0,L|505:188,1,93.3333333333333,6|0,3:2|0:0,0:0:0:0:
470,121,22428,2,0,L|458:219,1,93.3333333333333,0|0,0:0|0:0,0:0:0:0:
392,257,22765,1,2,1:0:0:0:
392,257,22933,1,2,1:0:0:0:
302,193,23102,1,2,1:0:0:0:
302,193,23270,1,2,1:0:0:0:
209,268,23439,6,0,P|147:278|64:228,2,140,10|2|2,0:0|1:0|2:0,0:0:0:0:
209,268,24450,1,2,2:0:0:0:
167,101,24787,6,0,L|272:110,1,93.3333333333333,0|0,3:2|0:0,0:0:0:0:
316,165,25124,2,0,L|421:156,1,93.3333333333333,2|0,0:0|0:0,0:0:0:0:
475,113,25461,1,2,0:0:0:0:
506,303,25798,6,0,P|454:333|384:321,1,93.3333333333333,2|0,1:0|0:0,0:0:0:0:
340,272,26135,2,0,P|391:315|470:278,2,140,10|2|0,1:0|1:0|0:0,0:0:0:0:
340,272,27147,1,2,0:1:0:0:
431,115,27484,6,0,L|339:100,1,93.3333333333333,2|0,3:2|0:0,0:0:0:0:
285,42,27821,2,0,L|269:140,1,93.3333333333333,2|0,0:0|0:0,0:0:0:0:
211,189,28158,1,2,0:0:0:0:
339,100,28495,1,2,0:0:0:0:
386,274,28832,6,0,P|442:260|461:206,1,93.3333333333333,10|0,0:0|0:0,0:0:0:0:
421,161,29169,2,0,P|365:175|346:229,1,93.3333333333333,0|0,0:0|0:0,0:0:0:0:
308,272,29506,2,0,L|145:257,1,140,0|0,0:0|0:0,0:0:0:0:
8,366,30180,6,0,P|36:319|36:262,1,93.3333333333333,2|0,3:2|0:0,0:0:0:0:
30,202,30517,2,0,P|2:249|2:306,1,93.3333333333333,2|0,0:0|0:0,0:0:0:0:
77,270,30855,2,0,P|102:308|108:354,1,93.3333333333333,2|0,0:0|0:0,0:0:0:0:
182,383,31192,2,0,P|207:344|213:298,1,93.3333333333333,2|0,0:0|0:0,0:0:0:0:
196,220,31529,5,10,1:0:0:0:
373,334,31866,1,2,1:0:0:0:
447,169,32203,2,0,L|281:194,1,140,2|0,2:1|0:0,0:0:0:0:
138,279,32877,6,0,P|114:224|134:165,1,93.3333333333333,2|0,3:2|0:0,0:0:0:0:
143,116,33214,2,0,P|167:171|147:230,1,93.3333333333333,2|0,0:0|0:0,0:0:0:0:
233,237,33551,2,0,P|263:202|308:189,1,93.3333333333333,2|0,0:0|0:0,0:0:0:0:
349,257,33888,2,0,P|318:291|273:304,1,93.3333333333333,2|0,0:0|0:0,0:0:0:0:
233,237,34225,5,10,2:1:0:0:
435,362,34562,1,2,0:1:0:0:
233,237,34900,1,2,0:1:0:0:
410,352,35237,1,2,0:1:0:0:
494,210,35574,6,0,L|333:223,3,140,0|2|2|2,3:2|0:0|0:0|0:0,0:0:0:0:
187,129,36922,2,0,P|243:117|321:180,1,140,10|2,1:0|0:1,0:0:0:0:
265,340,37596,2,0,P|209:352|131:289,1,140,2|2,0:1|0:1,0:0:0:0:
376,275,38270,6,0,L|362:174,1,93.3333333333333,2|0,3:2|0:0,0:0:0:0:
411,118,38607,2,0,L|425:17,1,93.3333333333333,2|0,0:0|0:0,0:0:0:0:
444,102,38944,2,0,P|378:101|342:73,1,93.3333333333333,2|0,0:0|0:0,0:0:0:0:
286,46,39282,2,0,P|220:47|184:75,1,93.3333333333333,2|0,0:0|0:0,0:0:0:0:
148,122,39619,1,10,0:0:0:0:
14,0,39956,6,0,P|80:1|132:65,2,140,2|2|2,0:1|0:1|0:1,0:0:0:0:
2,210,40967,6,0,L|97:199,1,93.3333333333333,2|0,3:2|0:0,0:0:0:0:
135,130,41304,2,0,L|230:141,1,93.3333333333333,2|0,0:0|0:0,0:0:0:0:
268,210,41641,2,0,L|363:199,1,93.3333333333333,2|0,0:0|0:0,0:0:0:0:
401,130,41978,2,0,L|496:141,1,93.3333333333333,2|0,0:0|0:0,0:0:0:0:
441,216,42315,1,10,0:0:0:0:
412,1,42652,1,0,0:0:0:0:
412,1,43326,2,0,L|416:35,1,23.3333333333333,0|0,3:0|0:0,0:0:0:0:
280,131,43664,6,0,B|245:125|245:125|218:154|218:154|112:171,2,140,6|2|2,3:0|0:0|0:0,0:0:0:0:
280,131,44675,1,2,0:0:0:0:
464,200,45012,2,0,L|444:78,1,93.3333333333333,10|0,0:0|0:0,0:0:0:0:
427,31,45349,2,0,L|407:153,1,93.3333333333333,0|0,0:0|0:0,0:0:0:0:
357,181,45686,1,0,0:0:0:0:
479,292,46023,1,2,0:1:0:0:
292,246,46360,6,0,B|224:218|218:283|141:276,1,140,2|0,3:1|0:0,0:0:0:0:
44,243,46866,1,2,2:1:0:0:
97,137,47034,2,0,P|155:168|172:249,1,140,2|0,0:1|0:0,0:0:0:0:
135,348,47540,1,2,2:1:0:0:
250,379,47709,2,0,P|307:375|375:308,1,140,10|0,1:0|0:0,0:0:0:0:
388,206,48214,1,2,2:1:0:0:
497,253,48383,2,0,P|445:188|364:174,1,140,2|0,0:1|0:0,0:0:0:0:
275,189,48888,1,2,2:1:0:0:
225,297,49057,6,0,L|240:176,1,93.3333333333333,6|0,3:0|0:0,0:0:0:0:
199,133,49394,2,0,L|184:12,1,93.3333333333333,2|0,0:0|0:0,0:0:0:0:
258,3,49731,2,0,P|304:20|349:75,1,93.3333333333333,2|0,0:0|0:0,0:0:0:0:
414,62,50068,2,0,P|452:36|498:29,1,93.3333333333333,2|0,0:0|0:0,0:0:0:0:
482,107,50405,1,10,0:0:0:0:
257,27,50742,1,0,2:0:0:0:
95,201,51079,1,0,0:0:0:0:
240,47,51416,1,2,0:1:0:0:
385,196,51753,6,0,P|438:225|522:250,1,140,2|0,3:1|0:0,0:0:0:0:
409,306,52259,1,2,2:1:0:0:
305,246,52428,2,0,P|252:275|168:300,1,140,2|0,0:1|0:0,0:0:0:0:
58,312,52933,1,2,2:1:0:0:
13,201,53102,2,0,P|70:216|167:203,1,140,10|0,0:1|0:0,0:0:0:0:
254,152,53607,1,2,2:1:0:0:
320,251,53776,2,0,L|300:93,1,140,2|0,0:1|0:0,0:0:0:0:
341,0,54282,1,2,2:1:0:0:
222,9,54450,6,0,P|174:41|139:103,1,93.3333333333333,6|0,3:0|0:0,0:0:0:0:
65,51,54787,2,0,P|113:83|148:145,1,93.3333333333333,2|0,0:0|0:0,0:0:0:0:
103,184,55124,2,0,P|132:148|172:123,1,93.3333333333333,2|0,0:0|0:0,0:0:0:0:
251,112,55461,2,0,P|296:121|336:144,1,93.3333333333333,2|0,0:0|0:0,0:0:0:0:
391,202,55798,1,10,0:0:0:0:
471,32,56135,5,2,0:1:0:0:
449,110,56304,1,2,0:1:0:0:
496,214,56473,2,0,L|412:205,1,70,2|2,0:1|0:1,0:0:0:0:
336,144,56810,2,0,L|227:157,1,93.3333333333333,2|0,0:1|0:0,0:0:0:0:
184,162,57147,6,0,P|222:119|259:100,1,93.3333333333333,2|0,3:2|0:0,0:0:0:0:
326,84,57484,2,0,P|286:60|256:24,1,93.3333333333333,2|0,0:0|0:0,0:0:0:0:
179,4,57821,2,0,P|137:24|91:29,1,93.3333333333333,2|0,0:0|0:0,0:0:0:0:
11,28,58158,2,0,L|40:145,1,93.3333333333333,2|0,0:0|0:0,0:0:0:0:
15,196,58495,1,10,0:0:0:0:
204,109,58832,5,2,0:1:0:0:
184,190,59001,1,2,0:1:0:0:
258,282,59169,2,0,L|267:186,1,70,2|2,0:1|0:1,0:0:0:0:
316,127,59506,2,0,L|307:223,1,70,2|2,0:1|0:1,0:0:0:0:
300,302,59843,6,0,P|359:295|410:237,2,140,4|2|2,3:0|0:0|0:0,0:0:0:0:
300,302,60855,1,2,0:0:0:0:
121,193,61192,1,10,0:0:0:0:
10,381,61529,1,2,1:0:0:0:
10,381,61697,1,2,1:0:0:0:
10,381,62540,6,0,L|107:369,1,93.3333333333333,0|0,3:0|0:0,0:0:0:0:
142,300,62877,2,0,L|239:312,1,93.3333333333333,0|0,0:0|0:0,0:0:0:0:
297,360,63214,2,0,P|269:303|282:242,1,93.3333333333333,0|0,0:0|0:0,0:0:0:0:
303,201,63551,2,0,P|331:258|318:319,1,93.3333333333333,0|0,0:0|0:0,0:0:0:0:
297,360,63888,1,8,0:0:0:0:
508,377,64225,2,0,L|487:250,1,93.3333333333333,0|0,0:0|0:0,0:0:0:0:
497,205,64562,6,0,B|481:250|481:250|364:271,1,140,2|2,1:0|1:0,0:0:0:0:
390,266,65237,6,0,L|396:201,1,46.6666666666667,6|0,3:0|0:0,0:0:0:0:
405,141,65461,1,0,0:0:0:0:
325,146,65574,2,0,L|331:81,1,46.6666666666667,0|0,0:0|0:0,0:0:0:0:
340,21,65798,1,0,0:0:0:0:
264,45,65911,2,0,L|199:51,2,46.6666666666667,0|0|0,0:0|0:0|0:0,0:0:0:0:
381,95,66248,2,0,L|446:101,2,46.6666666666667,0|0|0,0:0|0:0|0:0,0:0:0:0:
302,177,66585,6,0,P|250:204|174:202,1,93.3333333333333,8|0,0:0|0:0,0:0:0:0:
136,201,66922,1,0,0:0:0:0:
222,68,67147,1,0,0:0:0:0:
298,46,67259,2,0,L|289:-34,2,46.6666666666667,0|0|0,0:0|0:0|0:0,0:0:0:0:
354,101,67596,1,0,0:0:0:0:
387,121,67709,1,0,0:0:0:0:
445,95,67821,1,0,0:0:0:0:
496,155,67933,6,0,P|465:203|360:200,1,140,2|0,3:1|0:0,0:0:0:0:
273,180,68439,1,2,0:0:0:0:
236,292,68607,2,0,L|256:68,1,210,2|2,0:0|0:0,0:0:0:0:
165,2,69282,2,0,P|105:17|40:98,1,140,10|0,0:1|0:0,0:0:0:0:
11,182,69787,1,2,0:0:0:0:
120,134,69956,2,0,B|191:105|202:172|265:173,1,140,2|0,1:0|0:0,0:0:0:0:
362,142,70461,1,2,0:0:0:0:
322,29,70630,6,0,L|336:191,2,140,12|0|0,3:0|0:0|0:0,0:0:0:0:
294,265,71641,1,0,0:0:0:0:
474,191,71978,2,0,P|418:155|335:155,1,140,8|0,0:0|0:0,0:0:0:0:
154,240,72652,2,0,P|210:276|293:276,1,140,0|0,0:0|0:0,0:0:0:0:
237,45,73326,6,0,P|130:85|26:98,1,210,2|2,3:1|0:0,0:0:0:0:
154,112,74001,2,0,P|257:127|355:164,1,210,2|2,0:0|0:0,0:0:0:0:
453,233,74675,2,0,P|424:184|437:78,1,140,10|0,0:0|0:0,0:0:0:0:
485,1,75180,1,2,0:0:0:0:
506,118,75349,2,0,L|269:104,1,210,2|2,0:0|0:0,0:0:0:0:
177,100,76023,6,0,P|223:67|327:173,1,233.333333333333,6|0,3:0|0:0,0:0:0:0:
315,246,76697,2,0,L|389:237,2,46.6666666666667,0|0|0,0:0|0:0|0:0,0:0:0:0:
237,302,77034,2,0,L|163:293,2,46.6666666666667,0|0|0,0:0|0:0|0:0,0:0:0:0:
318,373,77371,5,8,0:0:0:0:
348,351,77484,1,0,0:0:0:0:
407,374,77596,1,0,0:0:0:0:
452,308,77709,2,0,L|460:189,1,93.3333333333333,0|0,0:0|0:0,0:0:0:0:
499,146,78046,2,0,L|494:62,1,46.6666666666667,0|0,0:0|0:0,0:0:0:0:
489,20,78270,1,0,0:0:0:0:
407,55,78383,2,0,B|362:59|362:59|297:35,1,93.3333333333333,2|0,2:0|0:0,0:0:0:0:
246,5,78720,6,0,P|298:19|305:122,1,140,2|0,3:1|1:0,0:0:0:0:
284,207,79225,1,2,1:1:0:0:
335,314,79394,2,0,L|178:296,1,140,2|0,1:1|1:0,0:0:0:0:
77,281,79900,1,2,1:1:0:0:
116,169,80068,2,0,B|131:140|131:140|165:168|144:245,1,140,10|0,0:1|0:0,1:0:0:0:
123,358,80574,1,0,0:1:0:0:
123,358,80658,1,0,0:0:0:0:
123,358,80742,2,0,P|184:337|291:334,1,140,2|0,1:1|1:0,1:0:0:0:
286,351,81416,6,0,P|328:300|324:207,2,140,12|0|0,3:0|0:0|0:0,0:0:0:0:
286,351,82428,1,0,0:0:0:0:
210,168,82765,6,0,L|146:162,2,46.6666666666667,8|0|0,0:0|0:0|0:0,0:0:0:0:
281,123,83102,2,0,L|345:117,2,46.6666666666667
203,53,83439,1,0,0:0:0:0:
226,30,83551,1,0,0:0:0:0:
284,31,83664,1,0,0:0:0:0:
348,76,83776,2,0,P|408:72|463:27,1,93.3333333333333,0|0,1:0|0:0,0:0:0:0:
496,4,84113,6,0,P|462:76|456:178,2,140,8|0|0,3:0|0:0|0:0,0:0:0:0:
496,4,85124,1,0,0:0:0:0:
466,240,85461,2,0,L|490:234,14,17.5,10|0|0|0|0|0|0|0|0|0|0|0|0|0|0,0:0|0:0|0:0|0:0|0:0|0:0|0:0|0:0|0:0|0:0|0:0|0:0|0:0|0:0|0:0,0:0:0:0:
409,293,86135,2,0,L|385:287,12,17.5,2|0|0|0|0|0|0|0|0|0|0|0|0,0:0|0:0|0:0|0:0|0:0|0:0|0:0|0:0|0:0|0:0|0:0|0:0|0:0,0:0:0:0:
290,272,86810,6,0,L|226:291,2,46.6666666666667,6|0|0,3:0|0:0|0:0,0:0:0:0:
246,204,87147,2,0,L|182:185,2,46.6666666666667,0|0|0,0:0|0:0|0:0,0:0:0:0:
186,286,87484,2,0,L|122:305,2,46.6666666666667,0|0|0,0:0|0:0|0:0,0:0:0:0:
98,214,87821,2,0,L|34:195,2,46.6666666666667,0|0|0,0:0|0:0|0:0,0:0:0:0:
31,315,88158,5,8,0:0:0:0:
9,293,88270,1,0,0:0:0:0:
20,240,88383,1,0,0:0:0:0:
3,162,88495,2,0,P|55:151|99:93,1,93.3333333333333,0|0,0:0|0:0,0:0:0:0:
110,49,88832,1,0,0:0:0:0:
145,68,88944,1,0,0:0:0:0:
204,56,89057,1,0,0:0:0:0:
266,104,89169,2,0,P|307:54|353:36,1,93.3333333333333,0|0,0:0|0:0,0:0:0:0:
410,27,89506,6,0,L|396:90,2,46.6666666666667,0|0|0,3:0|0:0|0:0,0:0:0:0:
475,72,89843,2,0,L|489:135,2,46.6666666666667,0|0|0,0:0|0:0|0:0,0:0:0:0:
414,148,90180,2,0,L|400:211,2,46.6666666666667,0|0|0,0:0|0:0|0:0,0:0:0:0:
479,193,90517,2,0,L|493:256,2,46.6666666666667,0|0|0,0:0|0:0|0:0,0:0:0:0:
412,304,90855,6,0,L|241:288,1,140,10|0,0:0|0:0,0:0:0:0:
135,348,91529,2,0,P|150:261|282:269,1,233.333333333333,2|0,0:0|0:0,0:0:0:0:
349,321,92203,6,0,L|323:165,2,140,12|0|0,3:0|0:0|0:0,0:0:0:0:
349,321,93214,1,0,0:0:0:0:
407,119,93551,6,0,P|336:127|273:178,1,140,10|2,0:0|0:0,0:0:0:0:
232,274,94057,1,2,0:0:0:0:
136,203,94225,2,0,L|156:352,1,140,2|2,0:0|0:0,0:0:0:0:
77,115,94900,6,0,P|133:155|202:162,2,140,2|0|0,3:2|0:0|0:0,0:0:0:0:
77,115,95911,1,0,0:0:0:0:
248,18,96248,2,0,B|390:-22|330:85|531:85,1,280,10|2,0:1|0:1,0:0:0:0:
509,84,97596,6,0,B|369:90|369:90|279:197|279:197|-4:258,1,560,4|8,3:0|0:0,0:0:0:0:
178,367,99169,1,0,0:0:0:0:
256,383,99282,2,0,P|215:340|250:241,1,140,0|0,0:0|0:0,0:0:0:0:
286,215,99731,1,0,0:0:0:0:
317,230,99843,1,0,0:0:0:0:
363,214,99956,2,0,L|357:145,2,46.6666666666667
434,291,100293,6,0,B|487:226|487:226|462:112|462:112|510:54|510:54|475:-18|374:2,1,420,4|0,3:0|3:0,0:0:0:0:
388,0,101641,1,8,0:0:0:0:
388,0,102315,2,0,P|331:45|173:32,1,233.333333333333,2|0,0:0|0:0,0:0:0:0:
99,3,102989,6,0,B|156:111|156:111|80:148|72:272,2,280,4|0|8,3:0|3:0|0:0,0:0:0:0:
99,3,105012,2,0,L|217:226,1,233.333333333333,0|0,0:0|0:0,0:0:0:0:
262,296,105686,6,0,P|245:219|382:344,1,560,4|8,3:0|0:0,0:0:0:0:
388,342,107933,2,2,L|249:314,1,140
177,346,108383,6,0,B|155:303|155:303|159:245,1,93.3333333333333,2|0,3:2|0:0,0:0:0:0:
170,179,108720,2,0,B|192:222|192:222|188:280,1,93.3333333333333,2|0,0:0|0:0,0:0:0:0:
85,257,109057,1,2,0:1:0:0:
85,257,109225,1,2,0:1:0:0:
141,151,109394,1,2,0:1:0:0:
141,151,109562,1,2,0:1:0:0:
250,197,109731,6,0,P|312:207|395:157,2,140,10|0|0,0:0|0:0|0:0,0:0:0:0:
250,197,110742,1,0,0:0:0:0:
66,45,111079,6,0,L|171:54,1,93.3333333333333,2|0,3:2|0:0,0:0:0:0:
212,112,111416,2,0,L|107:121,1,93.3333333333333,2|0,0:0|0:0,0:0:0:0:
63,177,111753,1,2,0:0:0:0:
229,330,112091,6,0,P|281:300|351:312,1,93.3333333333333,2|0,0:1|0:0,0:0:0:0:
401,327,112428,2,0,P|350:370|271:333,2,140,10|2|0,1:0|0:1|0:0,0:0:0:0:
401,327,113439,1,2,0:1:0:0:
370,136,113776,6,0,L|278:121,1,93.3333333333333,2|0,3:2|0:0,0:0:0:0:
201,99,114113,2,0,L|293:84,1,93.3333333333333,2|0,0:0|0:0,0:0:0:0:
330,13,114450,1,2,0:0:0:0:
505,173,114787,1,2,2:0:0:0:
377,374,115124,6,0,P|321:360|302:306,1,93.3333333333333,10|0,0:0|0:0,0:0:0:0:
306,252,115461,2,0,P|250:266|231:320,1,93.3333333333333,0|0,0:0|0:0,0:0:0:0:
172,346,115798,2,0,L|9:331,1,140,0|0,0:0|0:0,0:0:0:0:
8,96,116473,6,0,P|55:124|112:124,1,93.3333333333333,2|0,3:2|0:0,0:0:0:0:
157,80,116810,2,0,P|129:127|129:184,1,93.3333333333333,2|0,0:0|0:0,0:0:0:0:
160,237,117147,2,0,P|185:275|191:321,1,93.3333333333333,2|0,0:0|0:0,0:0:0:0:
268,342,117484,2,0,P|292:302|331:278,1,93.3333333333333,2|0,0:0|0:0,0:0:0:0:
411,267,117821,5,10,1:1:0:0:
176,229,118158,1,2,1:0:0:0:
354,71,118495,2,0,L|520:96,1,140,2|2,1:0|1:0,0:0:0:0:
267,144,119169,6,0,P|242:79|250:30,1,93.3333333333333,2|0,3:2|0:0,0:0:0:0:
198,122,119506,2,0,P|133:147|84:139,1,93.3333333333333,2|0,0:0|0:0,0:0:0:0:
176,191,119843,2,0,P|201:256|193:305,1,93.3333333333333,2|0,0:0|0:0,0:0:0:0:
245,213,120180,2,0,P|310:188|359:196,1,93.3333333333333,2|0,0:0|0:0,0:0:0:0:
267,144,120517,5,10,0:0:0:0:
237,380,120855,1,0,0:0:0:0:
267,144,121192,1,0,0:0:0:0:
237,380,121529,1,0,0:0:0:0:
143,161,121866,6,0,L|-18:174,2,140,2|2|2,3:2|0:0|0:0,0:0:0:0:
307,284,122877,1,2,0:0:0:0:
354,50,123214,2,0,P|410:38|488:101,1,140,10|2,2:1|2:1,0:0:0:0:
430,313,123888,2,0,P|374:325|296:262,1,140,2|2,2:1|2:1,0:0:0:0:
112,145,124562,6,0,L|122:240,1,93.3333333333333,2|0,3:2|0:0,0:0:0:0:
200,255,124900,2,0,L|190:160,1,93.3333333333333,2|0,0:0|0:0,0:0:0:0:
185,83,125237,2,0,P|251:82|287:54,1,93.3333333333333,2|0,0:0|0:0,0:0:0:0:
324,3,125574,2,0,P|258:4|222:32,1,93.3333333333333,2|0,0:0|0:0,0:0:0:0:
185,83,125911,2,0,P|119:82|66:12,2,140,10|0|0,0:0|1:0|1:0,0:0:0:0:
185,83,126922,1,0,1:0:0:0:
275,302,127259,6,0,L|431:281,1,140,2|2,3:2|0:0,0:0:0:0:
176,272,127933,2,0,L|20:251,1,140,2|2,0:0|0:0,0:0:0:0:
250,147,128607,1,8,0:0:0:0:
431,301,128944,1,0,1:0:0:0:
431,301,129619,1,0,3:0:0:0:
285,112,129956,6,0,L|270:-9,1,93.3333333333333,2|0,3:2|0:0,0:0:0:0:
350,40,130293,2,0,L|365:161,1,93.3333333333333,2|0,0:0|0:0,0:0:0:0:
279,186,130630,2,0,L|264:65,1,93.3333333333333,2|0,0:0|0:0,0:0:0:0:
368,179,130967,1,2,0:0:0:0:
213,360,131304,6,0,P|149:367|70:305,1,140,10|0,2:1|0:0,0:0:0:0:
47,216,131810,1,2,2:1:0:0:
164,229,131978,2,0,L|135:13,1,186.666666666667,2|2,2:1|2:1,0:0:0:0:
276,75,132652,6,0,B|354:85|325:2|425:34,1,140,2|2,3:2|0:0,0:0:0:0:
508,77,133158,1,0,0:0:0:0:
508,77,133326,2,0,P|476:105|423:207,1,140,2|2,0:0|0:0,0:0:0:0:
437,307,133832,1,0,0:0:0:0:
322,272,134001,2,0,L|155:295,1,140,10|2,1:0|1:0,1:0:0:0:
42,98,134675,2,0,L|209:121,1,140,2|2,1:0|1:0,1:0:0:0:
335,297,135349,5,0,3:0:0:0:
354,179,135517,2,0,P|342:124|285:29,1,140,0|0,0:0|0:0,0:0:0:0:
220,136,136023,2,0,P|268:140|332:109,1,93.3333333333333,2|0,0:0|0:0,0:0:0:0:
377,83,136360,2,0,P|415:57|461:50,1,93.3333333333333,2|0,0:0|0:0,0:0:0:0:
442,127,136697,5,8,0:0:0:0:
204,121,137034,1,0,0:0:0:0:
440,147,137371,2,0,L|524:140,1,70,2|0,0:0|0:0,0:0:0:0:
449,244,137709,2,0,L|365:237,1,70,2|0,0:0|0:0,0:0:0:0:
260,228,138046,6,0,P|231:278|230:342,1,93.3333333333333,2|0,3:2|0:0,0:0:0:0:
149,334,138383,2,0,P|110:307|65:298,1,93.3333333333333,2|0,0:0|0:0,0:0:0:0:
134,258,138720,1,2,0:0:0:0:
347,362,139057,1,2,0:0:0:0:
327,124,139394,1,8,0:0:0:0:
503,243,139731,5,2,2:1:0:0:
503,243,139900,1,2,2:1:0:0:
391,203,140068,1,2,2:1:0:0:
391,203,140237,1,2,2:1:0:0:
298,289,140405,2,0,P|247:301|197:277,1,93.3333333333333,2|0,2:1|2:1,2:1:0:0:
153,259,140742,6,0,P|173:211|170:144,1,93.3333333333333,2|0,3:2|0:0,0:0:0:0:
116,116,141079,2,0,P|96:68|99:1,1,93.3333333333333,2|0,0:0|0:0,0:0:0:0:
48,92,141416,2,0,L|66:203,1,93.3333333333333,2|0,0:0|0:0,0:0:0:0:
123,235,141753,2,0,L|105:346,1,93.3333333333333,2|0,0:0|0:0,0:0:0:0:
41,371,142091,5,8,0:0:0:0:
241,242,142428,1,2,2:1:0:0:
241,242,142596,1,2,2:1:0:0:
337,312,142765,1,2,2:1:0:0:
337,312,142933,1,2,2:1:0:0:
415,215,143102,2,0,P|432:160|417:107,1,93.3333333333333,2|0,2:1|2:1,2:1:0:0:
387,76,143439,6,0,L|284:68,1,93.3333333333333,2|0,3:2|0:0,0:0:0:0:
229,22,143776,1,2,0:0:0:0:
229,22,143944,1,0,0:0:0:0:
160,119,144113,1,2,0:0:0:0:
160,119,144282,1,0,0:0:0:0:
51,80,144450,2,0,L|63:189,1,93.3333333333333,2|0,0:0|0:0,0:0:0:0:
69,236,144787,6,0,L|0:215,1,70,10|0,0:0|1:0,0:0:0:0:
62,318,145124,2,0,L|131:297,1,70,2|2,2:1|2:1,2:1:0:0:
184,191,145461,2,0,L|318:232,1,140,2|2,2:1|2:1,2:1:0:0:
508,294,146135,6,0,P|511:229|493:179,1,93.3333333333333,2|2,3:0|0:0,0:0:0:0:
457,136,146473,1,2,0:0:0:0:
435,151,146585,1,2,0:0:0:0:
388,129,146697,1,0,0:0:0:0:
322,174,146810,2,0,L|255:167,2,46.6666666666667,0|2|0,0:0|0:0|0:0,0:0:0:0:
377,254,147147,2,0,L|444:247,2,46.6666666666667,2|2|2,0:0|0:0|0:0,0:0:0:0:
304,321,147484,6,0,L|190:307,1,93.3333333333333,8|2,0:0|0:0,0:0:0:0:
142,349,147821,1,0,0:0:0:0:
142,349,147989,1,0,0:0:0:0:
56,266,148158,2,0,L|49:203,2,46.6666666666667,2|2|2,0:0|0:0|0:0,0:0:0:0:
8,330,148495,1,2,0:0:0:0:
12,333,150517,5,2,0:1:0:0:
12,333,150686,1,2,0:1:0:0:
12,333,151529,6,0,P|72:349|208:191,1,280,6|0,3:0|0:0,0:0:0:0:
210,212,152540,1,0,0:0:0:0:
70,67,152877,2,0,B|151:45|151:45|241:96|241:96|367:104,1,280,8|0,0:0|0:0,0:0:0:0:
499,15,153888,1,0,0:0:0:0:
507,258,154225,6,0,B|472:284|472:284|356:263,1,140,2|0,3:2|0:0,0:0:0:0:
260,241,154731,1,2,0:0:0:0:
325,141,154900,2,0,L|90:165,1,210,2|2,0:0|0:0,0:0:0:0:
41,81,155574,2,0,P|94:75|123:213,1,210,10|2,0:0|0:0,0:0:0:0:
84,311,156248,2,0,P|133:274|242:356,1,210,2|2,0:0|0:0,0:0:0:0:
358,364,156922,6,0,L|333:203,2,140,12|0|0,3:0|0:0|0:0,0:0:0:0:
358,364,157933,1,0,0:0:0:0:
495,169,158270,2,0,P|438:132|340:114,1,140,8|0,0:0|0:0,0:0:0:0:
164,158,158944,2,0,P|109:201|72:260,1,140,0|0,0:0|0:0,0:0:0:0:
19,28,159619,6,0,P|81:58|150:66,1,140,2|0,3:2|0:0,0:0:0:0:
267,44,160124,1,2,0:0:0:0:
369,105,160293,2,0,P|312:74|228:112,1,140,2|0,0:0|0:0,0:0:0:0:
156,175,160798,1,2,0:0:0:0:
50,118,160967,2,0,P|100:170|143:325,1,210,10|2,0:0|0:0,0:0:0:0:
230,216,161641,2,0,B|342:183|322:271|444:262,1,210,2|2,0:0|0:0,0:0:0:0:
493,164,162315,6,0,L|331:185,2,140,6|0|0,3:0|0:0|0:0,0:0:0:0:
493,164,163326,1,0,0:0:0:0:
337,39,163664,2,0,P|267:21|66:77,1,280,8|0,0:0|0:0,0:0:0:0:
71,73,164675,2,0,P|107:105|167:118,1,93.3333333333333
213,115,165012,6,0,P|148:110|112:177,1,140,2|0,3:2|0:0,0:0:0:0:
89,277,165517,1,2,0:0:0:0:
163,363,165686,2,0,B|232:339|232:339|379:358,1,210,2|2,0:0|0:0,0:0:0:0:
484,374,166360,2,0,P|413:259|472:139,1,280,10|2,0:0|0:0,0:0:0:0:
472,139,167371,1,0,0:0:0:0:
258,32,167709,6,0,L|427:41,2,140,12|0|0,3:0|0:0|0:0,0:0:0:0:
113,168,168720,1,0,0:0:0:0:
4,0,169057,2,0,P|37:61|94:290,1,280,8|0,0:0|1:0,0:0:0:0:
189,99,170068,2,0,L|300:94,1,93.3333333333333,2|0,2:0|0:0,0:0:0:0:
336,129,170405,6,0,B|305:42|305:42|337:-21,2,140,12|0|0,3:0|0:0|0:0,0:0:0:0:
336,129,171416,1,0,0:0:0:0:
401,312,171753,2,0,B|248:240|236:371|118:364,1,280,10|2,0:0|0:0,0:0:0:0:
52,152,172765,2,0,P|82:193|138:201,1,93.3333333333333
183,190,173102,6,0,P|57:235|33:367,1,280,6|0,3:0|0:0,0:0:0:0:
33,367,174113,1,0,0:0:0:0:
257,287,174450,2,0,B|337:279|337:279|375:353|375:353|507:371,1,280,8|0,0:0|1:0,0:0:0:0:
512,180,175461,1,0,1:0:0:0:
342,13,175798,6,0,P|280:77|154:89,1,210,0|0,3:0|0:0,0:0:0:0:
51,52,176473,2,0,L|70:208,1,140,0|0,0:0|0:0,0:0:0:0:
94,379,177147,6,0,P|121:303|315:259,1,280,10|2,0:0|0:0,0:0:0:0:
479,379,178158,1,0,0:0:0:0:
505,142,178495,6,0,P|438:163|342:145,1,140,12|0,3:0|0:0,0:0:0:0:
262,103,179001,2,0,P|329:82|506:183,1,280,0|0,0:0|0:0,0:0:0:0:
431,270,179843,6,0,L|274:251,2,140,10|0|2,0:0|0:0|0:0,0:0:0:0:
431,270,180855,1,2,0:0:0:0:
217,375,181192,6,0,P|140:368|81:313,1,140,2|0,3:2|0:0,0:0:0:0:
0,298,181697,2,0,P|77:291|147:173,1,210,2|0,0:0|0:0,0:0:0:0:
259,362,182540,2,0,B|392:382|367:224|540:283,1,280,10|2,0:0|0:0,0:0:0:0:
510,274,183888,6,0,B|400:260|400:260|340:154|340:154|161:107|26:194,1,560,4|8,3:0|0:0,0:0:0:0:
25,194,185574,1,0,0:0:0:0:
100,382,185911,1,0,0:0:0:0:
150,149,186248,1,0,0:0:0:0:
232,354,186585,6,0,B|355:394|474:347|474:347|416:303|416:303|523:208|479:88,1,560,4|10,3:0|0:0,0:0:0:0:
479,88,188270,1,0,0:0:0:0:
271,204,188607,2,0,P|222:195|132:126,1,140,2|0,0:0|0:0,0:0:0:0:
342,1,189282,6,0,B|349:64|349:64|284:100|284:100|293:171|293:171|404:198|404:198|394:274|394:274|324:297|324:297|293:398,1,560,4|8,3:0|0:0,0:0:0:0:
298,379,190967,1,0,0:0:0:0:
117,224,191304,2,0,L|21:236,1,70,0|0,0:0|0:0,0:0:0:0:
10,119,191641,2,0,L|106:131,1,70,0|0,0:0|0:0,0:0:0:0:
197,147,191978,6,0,B|258:113|258:113|402:145|402:145|493:117,1,280,4|0,3:0|0:0,0:0:0:0:
410,341,192989,1,0,0:0:0:0:
399,66,193326,2,0,P|344:46|105:43,1,280,10|2,0:0|0:0,0:0:0:0:
125,38,194338,2,0,P|197:61|222:82,1,93.3333333333333
258,113,194675,6,0,L|162:123,1,70,4|0,3:0|0:0,0:0:0:0:
111,211,195012,2,0,L|15:221,1,70,4|0,3:0|0:0,0:0:0:0:
59,340,195349,2,0,L|155:330,1,70,4|0,3:0|0:0,0:0:0:0:
206,242,195686,2,0,L|302:232,1,70,4|0,3:0|0:0,0:0:0:0:
395,281,196023,5,8,0:0:0:0:
395,281,197034,2,0,P|461:246|471:216,1,93.3333333333333
478,170,197371,6,0,B|447:151|420:156|420:156|353:234|353:234|290:223|270:161|270:161|167:98|142:242|-11:138,1,560,4|10,3:0|0:0,0:0:0:0:
5,148,199057,1,0,0:0:0:0:
216,63,199394,2,0,P|275:74|427:188,1,233.333333333333,2|0,0:0|0:0,0:0:0:0:
458,218,200068,6,0,L|471:119,1,70,4|0,3:0|0:0,0:0:0:0:
353,185,200405,2,0,L|340:86,1,70,4|0,3:0|0:0,0:0:0:0:
232,220,200742,2,0,L|242:151,1,70,4|0,3:0|0:0,0:0:0:0:
127,253,201079,2,0,L|118:184,1,70,4|0,3:0|0:0,0:0:0:0:
2,220,201416,5,8,0:0:0:0:
2,220,202428,1,0,0:0:0:0:
0,44,202765,6,0,B|287:-22|172:182|526:207,1,560,4|8,3:0|0:0,0:0:0:0:
512,206,204787,2,0,P|385:258|305:396,1,280,2|0,0:0|0:0,0:0:0:0:
