osu file format v14

[General]
AudioFilename: audio.mp3
AudioLeadIn: 0
PreviewTime: 40849
Countdown: 0
SampleSet: Soft
StackLeniency: 0.7
Mode: 3
LetterboxInBreaks: 0
SpecialStyle: 0
WidescreenStoryboard: 1

[Editor]
DistanceSpacing: 0.2
BeatDivisor: 8
GridSize: 8
TimelineZoom: 2.7

[Metadata]
Title:Run
TitleUnicode:Run
Artist:Joji
ArtistUnicode:Joji
Creator:Logan636
Version:Normality
Source:
Tags:Nectar Pop English R&B Soul Alternative Rock Alt Rock Indie Ballad Power Ballad Daniel Wilson Pink Guy Justin Parker Casey Cuayo Chris Athens Rob Kinelski
BeatmapID:4459382
BeatmapSetID:1653160

[Difficulty]
HPDrainRate:6.5
CircleSize:4
OverallDifficulty:6.5
ApproachRate:5
SliderMultiplier:1.4
SliderTickRate:1

[Events]
//Background and Video events
0,0,"joj.jpg",0,0
//Break Periods
//Storyboard Layer 0 (Background)
//Storyboard Layer 1 (Fail)
//Storyboard Layer 2 (Pass)
//Storyboard Layer 3 (Foreground)
//Storyboard Layer 4 (Overlay)
//Storyboard Sound Samples

[TimingPoints]
217,379.746835443038,3,2,1,40,1,0

[HitObjects]
320,192,217,128,0,596:0:0:0:0:
64,192,596,1,0,0:0:0:0:
320,192,976,1,0,0:0:0:0:
448,192,1356,1,0,0:0:0:0:
320,192,1735,1,0,0:0:0:0:
64,192,2115,1,0,0:0:0:0:
448,192,2495,128,0,2875:0:0:0:0:
320,192,2875,1,0,0:0:0:0:
64,192,3254,1,0,0:0:0:0:
448,192,3634,1,0,0:0:0:0:
192,192,4014,1,0,0:0:0:0:
64,192,4394,1,0,0:0:0:0:
192,192,4773,128,0,5153:0:0:0:0:
448,192,5153,1,0,0:0:0:0:
320,192,5533,1,0,0:0:0:0:
64,192,5913,1,0,0:0:0:0:
320,192,6292,1,0,0:0:0:0:
192,192,6672,1,0,0:0:0:0:
448,192,7052,1,0,0:0:0:0:
192,192,7242,1,0,0:0:0:0:
320,192,7622,1,0,0:0:0:0:
64,192,8001,1,0,0:0:0:0:
320,192,8191,1,0,0:0:0:0:
64,192,8571,1,0,0:0:0:0:
192,192,8951,128,0,9330:0:0:0:0:
448,192,9330,128,0,9710:0:0:0:0:
320,192,9710,128,0,10090:0:0:0:0:
64,192,10090,128,0,10470:0:0:0:0:
448,192,10470,128,0,10849:0:0:0:0:
320,192,10849,128,0,11609:0:0:0:0:
64,192,11229,1,0,0:0:0:0:
448,192,11609,1,0,0:0:0:0:
192,192,11799,1,0,0:0:0:0:
320,192,12179,1,0,0:0:0:0:
64,192,12558,1,0,0:0:0:0:
320,192,12748,1,0,0:0:0:0:
64,192,13128,1,0,0:0:0:0:
192,192,13508,128,0,13887:0:0:0:0:
448,192,13887,128,0,14267:0:0:0:0:
320,192,14267,128,0,14647:0:0:0:0:
64,192,14647,128,0,15027:0:0:0:0:
448,192,15027,128,0,15406:0:0:0:0:
320,192,15406,1,0,0:0:0:0:
192,192,15596,1,0,0:0:0:0:
64,192,15786,1,0,0:0:0:0:
320,192,15976,1,0,0:0:0:0:
192,192,16166,128,0,16546:0:0:0:0:
320,192,16546,1,0,0:0:0:0:
64,192,16925,1,0,0:0:0:0:
320,192,17305,5,0,0:0:0:0:
64,192,17685,1,0,0:0:0:0:
192,192,18065,128,0,18444:0:0:0:0:
448,192,18444,128,0,18824:0:0:0:0:
320,192,18824,128,0,19204:0:0:0:0:
64,192,19204,128,0,19584:0:0:0:0:
448,192,19584,128,0,19963:0:0:0:0:
320,192,19963,128,0,20343:0:0:0:0:
64,192,20343,1,0,0:0:0:0:
448,192,20723,1,0,0:0:0:0:
192,192,21103,128,0,21482:0:0:0:0:
64,192,21482,128,0,21862:0:0:0:0:
448,192,21862,128,0,22242:0:0:0:0:
192,192,22242,128,0,22622:0:0:0:0:
320,192,22622,128,0,23001:0:0:0:0:
64,192,23001,128,0,23381:0:0:0:0:
320,192,23381,1,0,0:0:0:0:
192,192,23761,1,0,0:0:0:0:
448,192,24141,1,0,0:0:0:0:
192,192,24330,1,0,0:0:0:0:
320,192,24710,1,0,0:0:0:0:
64,192,25090,1,0,0:0:0:0:
320,192,25280,1,0,0:0:0:0:
64,192,25660,1,0,0:0:0:0:
192,192,26039,128,0,26419:0:0:0:0:
448,192,26419,128,0,26799:0:0:0:0:
320,192,26799,128,0,27179:0:0:0:0:
64,192,27179,128,0,27558:0:0:0:0:
448,192,27558,128,0,27938:0:0:0:0:
320,192,27938,128,0,28698:0:0:0:0:
64,192,28318,1,0,0:0:0:0:
448,192,28698,1,0,0:0:0:0:
192,192,28887,1,0,0:0:0:0:
320,192,29267,1,0,0:0:0:0:
64,192,29647,1,0,0:0:0:0:
320,192,29837,1,0,0:0:0:0:
64,192,30217,128,0,30596:0:0:0:0:
192,192,30596,128,0,30976:0:0:0:0:
448,192,30976,128,0,31356:0:0:0:0:
320,192,31356,128,0,31735:0:0:0:0:
64,192,31735,128,0,32115:0:0:0:0:
448,192,32115,128,0,32495:0:0:0:0:
320,192,32495,1,0,0:0:0:0:
192,192,32685,1,0,0:0:0:0:
64,192,32875,1,0,0:0:0:0:
320,192,33065,1,0,0:0:0:0:
448,192,33254,128,0,33634:0:0:0:0:
320,192,33634,128,0,34014:0:0:0:0:
64,192,34014,1,0,0:0:0:0:
320,192,34394,5,0,0:0:0:0:
448,192,34584,1,0,0:0:0:0:
64,192,34773,128,0,35153:0:0:0:0:
192,192,35153,128,0,35533:0:0:0:0:
448,192,35533,128,0,35913:0:0:0:0:
320,192,35913,128,0,36292:0:0:0:0:
64,192,36292,128,0,36672:0:0:0:0:
448,192,36672,128,0,37432:0:0:0:0:
320,192,37052,128,0,37432:0:0:0:0:
64,192,37432,1,0,0:0:0:0:
448,192,37811,1,0,0:0:0:0:
192,192,38191,128,0,38571:0:0:0:0:
64,192,38571,128,0,38951:0:0:0:0:
448,192,38951,128,0,39330:0:0:0:0:
192,192,39330,128,0,39710:0:0:0:0:
320,192,39710,128,0,40090:0:0:0:0:
64,192,40090,1,0,0:0:0:0:
320,192,40470,1,0,0:0:0:0:
192,192,40849,1,0,0:0:0:0:
64,192,41039,1,0,0:0:0:0:
320,192,41229,1,0,0:0:0:0:
448,192,41229,128,0,41419:0:0:0:0:
64,192,41419,1,0,0:0:0:0:
192,192,41419,128,0,41799:0:0:0:0:
448,192,41799,1,0,0:0:0:0:
320,192,41799,128,0,42179:0:0:0:0:
192,192,42179,1,0,0:0:0:0:
64,192,42179,128,0,42368:0:0:0:0:
320,192,42368,1,0,0:0:0:0:
448,192,42368,128,0,42748:0:0:0:0:
64,192,42748,1,0,0:0:0:0:
192,192,43128,1,0,0:0:0:0:
448,192,43508,1,0,0:0:0:0:
64,192,43508,1,0,0:0:0:0:
320,192,43887,128,0,44647:0:0:0:0:
64,192,44267,128,0,44647:0:0:0:0:
448,192,44647,128,0,45406:0:0:0:0:
192,192,44647,1,0,0:0:0:0:
320,192,45027,128,0,45406:0:0:0:0:
64,192,45406,128,0,45786:0:0:0:0:
448,192,45786,1,0,0:0:0:0:
320,192,45786,128,0,45976:0:0:0:0:
192,192,45976,1,0,0:0:0:0:
64,192,45976,128,0,46356:0:0:0:0:
320,192,46356,1,0,0:0:0:0:
448,192,46356,128,0,46735:0:0:0:0:
64,192,46735,1,0,0:0:0:0:
192,192,46735,128,0,46925:0:0:0:0:
448,192,46925,1,0,0:0:0:0:
320,192,46925,128,0,47305:0:0:0:0:
64,192,47305,1,0,0:0:0:0:
192,192,47685,1,0,0:0:0:0:
448,192,48065,1,0,0:0:0:0:
64,192,48065,1,0,0:0:0:0:
320,192,48444,128,0,49204:0:0:0:0:
64,192,48824,128,0,49204:0:0:0:0:
448,192,49204,128,0,49963:0:0:0:0:
192,192,49204,1,0,0:0:0:0:
320,192,49584,128,0,49963:0:0:0:0:
64,192,49963,128,0,50343:0:0:0:0:
320,192,50343,5,0,0:0:0:0:
448,192,50343,128,0,50723:0:0:0:0:
320,192,50723,128,0,51103:0:0:0:0:
192,192,51103,128,0,51482:0:0:0:0:
64,192,51482,128,0,52242:0:0:0:0:
320,192,51482,128,0,52242:0:0:0:0:
192,192,52242,1,0,0:0:0:0:
320,192,52432,1,0,0:0:0:0:
448,192,52622,128,0,53381:0:0:0:0:
64,192,52622,128,0,53381:0:0:0:0:
192,192,53381,1,0,0:0:0:0:
320,192,53571,1,0,0:0:0:0:
192,192,53761,128,0,54520:0:0:0:0:
448,192,53761,128,0,54520:0:0:0:0:
64,192,54520,1,0,0:0:0:0:
192,192,54710,1,0,0:0:0:0:
320,192,54900,128,0,55660:0:0:0:0:
448,192,54900,128,0,55660:0:0:0:0:
192,192,55660,128,0,55849:0:0:0:0:
320,192,55849,128,0,56039:0:0:0:0:
192,192,56039,1,0,0:0:0:0:
64,192,56039,128,0,56229:0:0:0:0:
448,192,56229,128,0,56419:0:0:0:0:
192,192,56419,128,0,56609:0:0:0:0:
320,192,56609,128,0,56799:0:0:0:0:
192,192,56799,128,0,57179:0:0:0:0:
320,192,57179,1,0,0:0:0:0:
448,192,57179,1,0,0:0:0:0:
64,192,57558,1,0,0:0:0:0:
448,192,57938,1,0,0:0:0:0:
448,192,58318,128,0,58508:0:0:0:0:
320,192,58318,1,0,0:0:0:0:
192,192,58508,128,0,58887:0:0:0:0:
64,192,58508,1,0,0:0:0:0:
320,192,58887,128,0,59267:0:0:0:0:
448,192,58887,1,0,0:0:0:0:
64,192,59267,128,0,59457:0:0:0:0:
192,192,59267,1,0,0:0:0:0:
448,192,59457,128,0,59837:0:0:0:0:
320,192,59457,1,0,0:0:0:0:
64,192,59837,1,0,0:0:0:0:
192,192,60217,1,0,0:0:0:0:
64,192,60596,1,0,0:0:0:0:
448,192,60596,1,0,0:0:0:0:
320,192,60976,128,0,61735:0:0:0:0:
64,192,61356,128,0,61735:0:0:0:0:
448,192,61735,128,0,62495:0:0:0:0:
192,192,61735,1,0,0:0:0:0:
320,192,62115,128,0,62495:0:0:0:0:
64,192,62495,128,0,62875:0:0:0:0:
320,192,62875,128,0,63065:0:0:0:0:
448,192,62875,1,0,0:0:0:0:
64,192,63065,128,0,63444:0:0:0:0:
192,192,63065,1,0,0:0:0:0:
448,192,63444,128,0,63824:0:0:0:0:
320,192,63444,1,0,0:0:0:0:
192,192,63824,128,0,64014:0:0:0:0:
64,192,63824,1,0,0:0:0:0:
448,192,64014,128,0,64394:0:0:0:0:
320,192,64014,1,0,0:0:0:0:
64,192,64394,1,0,0:0:0:0:
192,192,64773,1,0,0:0:0:0:
64,192,65153,1,0,0:0:0:0:
448,192,65153,1,0,0:0:0:0:
320,192,65533,128,0,66292:0:0:0:0:
64,192,65913,128,0,66292:0:0:0:0:
448,192,66292,128,0,67052:0:0:0:0:
192,192,66292,1,0,0:0:0:0:
320,192,66672,128,0,67052:0:0:0:0:
64,192,67052,128,0,67432:0:0:0:0:
320,192,67432,5,0,0:0:0:0:
448,192,67432,128,0,67811:0:0:0:0:
320,192,67811,128,0,68191:0:0:0:0:
192,192,68191,128,0,68571:0:0:0:0:
320,192,68571,128,0,69710:0:0:0:0:
448,192,68571,128,0,70470:0:0:0:0:
192,192,69710,1,0,0:0:0:0:
64,192,69710,1,0,0:0:0:0:
192,192,70470,1,0,0:0:0:0:
320,192,70660,1,0,0:0:0:0:
192,192,70849,128,0,71989:0:0:0:0:
64,192,70849,128,0,72748:0:0:0:0:
320,192,71989,1,0,0:0:0:0:
448,192,71989,1,0,0:0:0:0:
320,192,72748,1,0,0:0:0:0:
192,192,72938,1,0,0:0:0:0:
320,192,73128,128,0,75027:0:0:0:0:
448,192,73128,128,0,74267:0:0:0:0:
192,192,74267,1,0,0:0:0:0:
64,192,74267,1,0,0:0:0:0:
448,192,75406,1,0,0:0:0:0:
320,192,75406,1,0,0:0:0:0:
192,192,75596,1,0,0:0:0:0:
64,192,75596,1,0,0:0:0:0:
320,192,75976,1,0,0:0:0:0:
448,192,75976,1,0,0:0:0:0:
192,192,76356,1,0,0:0:0:0:
64,192,76356,1,0,0:0:0:0:
320,192,76546,1,0,0:0:0:0:
448,192,76546,1,0,0:0:0:0:
64,192,76925,1,0,0:0:0:0:
192,192,77305,128,0,77685:0:0:0:0:
448,192,77685,128,0,78065:0:0:0:0:
64,192,77685,1,0,0:0:0:0:
320,192,78065,128,0,78444:0:0:0:0:
64,192,78444,128,0,78824:0:0:0:0:
448,192,78824,128,0,79204:0:0:0:0:
320,192,78824,1,0,0:0:0:0:
320,192,79204,128,0,79963:0:0:0:0:
192,192,79584,1,0,0:0:0:0:
448,192,79963,1,0,0:0:0:0:
64,192,79963,1,0,0:0:0:0:
192,192,80153,1,0,0:0:0:0:
320,192,80153,1,0,0:0:0:0:
320,192,80533,1,0,0:0:0:0:
448,192,80533,1,0,0:0:0:0:
64,192,80913,1,0,0:0:0:0:
192,192,80913,1,0,0:0:0:0:
320,192,81103,1,0,0:0:0:0:
448,192,81103,1,0,0:0:0:0:
64,192,81482,128,0,81862:0:0:0:0:
192,192,81862,128,0,82242:0:0:0:0:
448,192,82242,128,0,82622:0:0:0:0:
64,192,82242,1,0,0:0:0:0:
320,192,82622,128,0,83001:0:0:0:0:
64,192,83001,128,0,83381:0:0:0:0:
320,192,83381,1,0,0:0:0:0:
448,192,83381,1,0,0:0:0:0:
192,192,83761,1,0,0:0:0:0:
448,192,83951,1,0,0:0:0:0:
64,192,84141,1,0,0:0:0:0:
320,192,84330,1,0,0:0:0:0:
192,192,84520,128,0,84900:0:0:0:0:
448,192,84520,1,0,0:0:0:0:
320,192,84900,1,0,0:0:0:0:
64,192,85280,1,0,0:0:0:0:
320,192,85660,5,0,0:0:0:0:
192,192,85660,1,0,0:0:0:0:
448,192,85849,1,0,0:0:0:0:
64,192,86039,1,0,0:0:0:0:
192,192,86419,128,0,86799:0:0:0:0:
448,192,86799,128,0,87179:0:0:0:0:
64,192,86799,1,0,0:0:0:0:
320,192,87179,128,0,87558:0:0:0:0:
64,192,87558,128,0,87938:0:0:0:0:
320,192,87938,128,0,88318:0:0:0:0:
192,192,87938,1,0,0:0:0:0:
448,192,88318,128,0,88698:0:0:0:0:
64,192,88698,1,0,0:0:0:0:
448,192,89077,1,0,0:0:0:0:
192,192,89077,1,0,0:0:0:0:
192,192,89457,128,0,89837:0:0:0:0:
64,192,89837,128,0,90217:0:0:0:0:
448,192,90217,128,0,90596:0:0:0:0:
320,192,90217,1,0,0:0:0:0:
192,192,90596,128,0,90976:0:0:0:0:
64,192,90976,128,0,92495:0:0:0:0:
448,192,91356,1,0,0:0:0:0:
192,192,91356,1,0,0:0:0:0:
320,192,91735,1,0,0:0:0:0:
192,192,92115,1,0,0:0:0:0:
448,192,92495,1,0,0:0:0:0:
320,192,92495,1,0,0:0:0:0:
192,192,92685,1,0,0:0:0:0:
64,192,92685,1,0,0:0:0:0:
320,192,93065,1,0,0:0:0:0:
448,192,93065,1,0,0:0:0:0:
64,192,93444,1,0,0:0:0:0:
192,192,93444,1,0,0:0:0:0:
320,192,93634,1,0,0:0:0:0:
448,192,93634,1,0,0:0:0:0:
64,192,94014,1,0,0:0:0:0:
192,192,94394,128,0,94773:0:0:0:0:
448,192,94773,128,0,95153:0:0:0:0:
320,192,94773,1,0,0:0:0:0:
320,192,95153,128,0,95533:0:0:0:0:
64,192,95533,128,0,95913:0:0:0:0:
448,192,95913,128,0,96672:0:0:0:0:
192,192,95913,1,0,0:0:0:0:
64,192,96292,1,0,0:0:0:0:
192,192,96672,1,0,0:0:0:0:
320,192,96862,1,0,0:0:0:0:
448,192,97052,1,0,0:0:0:0:
64,192,97052,1,0,0:0:0:0:
192,192,97242,1,0,0:0:0:0:
320,192,97242,1,0,0:0:0:0:
320,192,97622,1,0,0:0:0:0:
448,192,97622,1,0,0:0:0:0:
64,192,98001,1,0,0:0:0:0:
192,192,98001,1,0,0:0:0:0:
320,192,98191,1,0,0:0:0:0:
448,192,98191,1,0,0:0:0:0:
64,192,98571,128,0,98951:0:0:0:0:
192,192,98951,128,0,99330:0:0:0:0:
448,192,99330,128,0,99710:0:0:0:0:
64,192,99330,1,0,0:0:0:0:
320,192,99710,128,0,100090:0:0:0:0:
64,192,100090,128,0,100849:0:0:0:0:
448,192,100470,1,0,0:0:0:0:
320,192,100470,1,0,0:0:0:0:
320,192,100849,1,0,0:0:0:0:
192,192,101039,1,0,0:0:0:0:
64,192,101229,1,0,0:0:0:0:
320,192,101419,1,0,0:0:0:0:
448,192,101609,128,0,101989:0:0:0:0:
192,192,101609,1,0,0:0:0:0:
320,192,101989,128,0,102368:0:0:0:0:
64,192,102368,1,0,0:0:0:0:
320,192,102748,5,0,0:0:0:0:
448,192,102748,1,0,0:0:0:0:
64,192,103128,128,0,103508:0:0:0:0:
192,192,103508,128,0,103887:0:0:0:0:
448,192,103887,128,0,104267:0:0:0:0:
64,192,103887,1,0,0:0:0:0:
320,192,104267,128,0,104647:0:0:0:0:
64,192,104647,128,0,105027:0:0:0:0:
448,192,105027,128,0,105691:0:0:0:0:
320,192,105027,1,0,0:0:0:0:
192,192,105406,1,0,0:0:0:0:
320,192,105691,128,0,105976:0:0:0:0:
448,192,106166,1,0,0:0:0:0:
64,192,106166,1,0,0:0:0:0:
192,192,106546,128,0,106925:0:0:0:0:
64,192,106925,128,0,107305:0:0:0:0:
448,192,107305,128,0,107685:0:0:0:0:
320,192,107305,1,0,0:0:0:0:
192,192,107685,128,0,108065:0:0:0:0:
320,192,108065,128,0,108444:0:0:0:0:
64,192,108444,1,0,0:0:0:0:
64,192,109394,1,0,0:0:0:0:
320,192,109584,1,0,0:0:0:0:
448,192,109584,128,0,109773:0:0:0:0:
64,192,109773,1,0,0:0:0:0:
192,192,109773,128,0,110153:0:0:0:0:
448,192,110153,1,0,0:0:0:0:
320,192,110153,128,0,110533:0:0:0:0:
192,192,110533,1,0,0:0:0:0:
64,192,110533,128,0,110723:0:0:0:0:
320,192,110723,1,0,0:0:0:0:
448,192,110723,128,0,111103:0:0:0:0:
64,192,111103,1,0,0:0:0:0:
192,192,111482,1,0,0:0:0:0:
448,192,111862,1,0,0:0:0:0:
64,192,111862,1,0,0:0:0:0:
320,192,112242,128,0,113001:0:0:0:0:
64,192,112622,128,0,113001:0:0:0:0:
448,192,113001,128,0,113761:0:0:0:0:
192,192,113001,1,0,0:0:0:0:
320,192,113381,128,0,113761:0:0:0:0:
64,192,113761,128,0,114141:0:0:0:0:
448,192,114141,1,0,0:0:0:0:
320,192,114141,128,0,114330:0:0:0:0:
192,192,114330,1,0,0:0:0:0:
64,192,114330,128,0,114710:0:0:0:0:
320,192,114710,1,0,0:0:0:0:
448,192,114710,128,0,115090:0:0:0:0:
64,192,115090,1,0,0:0:0:0:
192,192,115090,128,0,115280:0:0:0:0:
448,192,115280,1,0,0:0:0:0:
320,192,115280,128,0,115660:0:0:0:0:
64,192,115660,1,0,0:0:0:0:
192,192,116039,1,0,0:0:0:0:
448,192,116419,1,0,0:0:0:0:
64,192,116419,1,0,0:0:0:0:
320,192,116799,128,0,117558:0:0:0:0:
64,192,117179,128,0,117558:0:0:0:0:
448,192,117558,128,0,118318:0:0:0:0:
192,192,117558,1,0,0:0:0:0:
320,192,117938,128,0,118318:0:0:0:0:
64,192,118318,128,0,118698:0:0:0:0:
320,192,118698,5,0,0:0:0:0:
448,192,118698,128,0,119077:0:0:0:0:
320,192,119077,128,0,119457:0:0:0:0:
192,192,119457,128,0,119837:0:0:0:0:
64,192,119837,128,0,120596:0:0:0:0:
320,192,119837,128,0,120596:0:0:0:0:
192,192,120596,1,0,0:0:0:0:
320,192,120786,1,0,0:0:0:0:
448,192,120976,128,0,121735:0:0:0:0:
64,192,120976,128,0,121735:0:0:0:0:
192,192,121735,1,0,0:0:0:0:
320,192,121925,1,0,0:0:0:0:
192,192,122115,128,0,122875:0:0:0:0:
448,192,122115,128,0,122875:0:0:0:0:
64,192,122875,1,0,0:0:0:0:
192,192,123065,1,0,0:0:0:0:
320,192,123254,128,0,124014:0:0:0:0:
448,192,123254,128,0,124014:0:0:0:0:
192,192,124014,128,0,124204:0:0:0:0:
320,192,124204,128,0,124394:0:0:0:0:
192,192,124394,1,0,0:0:0:0:
64,192,124394,128,0,124584:0:0:0:0:
448,192,124584,128,0,124773:0:0:0:0:
192,192,124773,128,0,124963:0:0:0:0:
320,192,124963,128,0,125153:0:0:0:0:
192,192,125153,128,0,125533:0:0:0:0:
320,192,125533,1,0,0:0:0:0:
448,192,125533,1,0,0:0:0:0:
64,192,125913,1,0,0:0:0:0:
448,192,126292,1,0,0:0:0:0:
448,192,126672,128,0,126862:0:0:0:0:
320,192,126672,1,0,0:0:0:0:
192,192,126862,128,0,127242:0:0:0:0:
64,192,126862,1,0,0:0:0:0:
320,192,127242,128,0,127622:0:0:0:0:
448,192,127242,1,0,0:0:0:0:
64,192,127622,128,0,127811:0:0:0:0:
192,192,127622,1,0,0:0:0:0:
448,192,127811,128,0,128191:0:0:0:0:
320,192,127811,1,0,0:0:0:0:
64,192,128191,1,0,0:0:0:0:
192,192,128571,1,0,0:0:0:0:
64,192,128951,1,0,0:0:0:0:
448,192,128951,1,0,0:0:0:0:
320,192,129330,128,0,130090:0:0:0:0:
64,192,129710,128,0,130090:0:0:0:0:
448,192,130090,128,0,130849:0:0:0:0:
192,192,130090,1,0,0:0:0:0:
320,192,130470,128,0,130849:0:0:0:0:
64,192,130849,128,0,131229:0:0:0:0:
320,192,131229,128,0,131419:0:0:0:0:
448,192,131229,1,0,0:0:0:0:
64,192,131419,128,0,131799:0:0:0:0:
192,192,131419,1,0,0:0:0:0:
448,192,131799,128,0,132179:0:0:0:0:
320,192,131799,1,0,0:0:0:0:
192,192,132179,128,0,132368:0:0:0:0:
64,192,132179,1,0,0:0:0:0:
448,192,132368,128,0,132748:0:0:0:0:
320,192,132368,1,0,0:0:0:0:
64,192,132748,1,0,0:0:0:0:
192,192,133128,1,0,0:0:0:0:
64,192,133508,1,0,0:0:0:0:
448,192,133508,1,0,0:0:0:0:
320,192,133887,128,0,134647:0:0:0:0:
64,192,134267,128,0,134647:0:0:0:0:
448,192,134647,128,0,135406:0:0:0:0:
192,192,134647,1,0,0:0:0:0:
320,192,135027,128,0,135406:0:0:0:0:
64,192,135406,128,0,135786:0:0:0:0:
320,192,135786,5,0,0:0:0:0:
448,192,135786,128,0,136166:0:0:0:0:
320,192,136166,128,0,136546:0:0:0:0:
192,192,136546,128,0,136925:0:0:0:0:
320,192,136925,128,0,138065:0:0:0:0:
448,192,136925,128,0,138824:0:0:0:0:
192,192,138065,1,0,0:0:0:0:
64,192,138065,1,0,0:0:0:0:
192,192,138824,1,0,0:0:0:0:
320,192,139014,1,0,0:0:0:0:
192,192,139204,128,0,140343:0:0:0:0:
64,192,139204,128,0,141103:0:0:0:0:
320,192,140343,1,0,0:0:0:0:
448,192,140343,1,0,0:0:0:0:
320,192,141103,1,0,0:0:0:0:
192,192,141292,1,0,0:0:0:0:
320,192,141482,128,0,143381:0:0:0:0:
448,192,141482,128,0,142622:0:0:0:0:
192,192,142622,5,0,0:0:0:0:
64,192,142622,1,0,0:0:0:0:
448,192,143761,1,0,0:0:0:0:
320,192,143761,128,0,143951:0:0:0:0:
64,192,143951,1,0,0:0:0:0:
192,192,143951,128,0,144330:0:0:0:0:
320,192,144330,1,0,0:0:0:0:
448,192,144330,128,0,144710:0:0:0:0:
320,192,144710,1,0,0:0:0:0:
192,192,144710,1,0,0:0:0:0:
64,192,144900,128,0,145090:0:0:0:0:
448,192,144900,1,0,0:0:0:0:
192,192,145090,1,0,0:0:0:0:
320,192,145090,128,0,145470:0:0:0:0:
64,192,145470,1,0,0:0:0:0:
448,192,145470,1,0,0:0:0:0:
192,192,145470,128,0,145849:0:0:0:0:
64,192,145849,128,0,146039:0:0:0:0:
448,192,146039,128,0,146419:0:0:0:0:
320,192,146039,1,0,0:0:0:0:
320,192,146419,128,0,146989:0:0:0:0:
64,192,146989,128,0,147179:0:0:0:0:
192,192,147179,128,0,147938:0:0:0:0:
320,192,147179,1,0,0:0:0:0:
320,192,147938,1,0,0:0:0:0:
448,192,148065,1,0,0:0:0:0:
64,192,148191,1,0,0:0:0:0:
320,192,148318,128,0,149077:0:0:0:0:
192,192,148318,1,0,0:0:0:0:
64,192,149457,1,0,0:0:0:0:
192,192,149457,1,0,0:0:0:0:
448,192,149837,128,0,150027:0:0:0:0:
320,192,150027,128,0,150217:0:0:0:0:
64,192,150217,128,0,150406:0:0:0:0:
192,192,150596,128,0,151546:0:0:0:0:
320,192,150596,1,0,0:0:0:0:
320,192,151546,128,0,151735:0:0:0:0:
448,192,151735,128,0,152495:0:0:0:0:
64,192,151735,1,0,0:0:0:0:
192,192,152495,128,0,152685:0:0:0:0:
320,192,152685,128,0,152875:0:0:0:0:
64,192,152875,128,0,153634:0:0:0:0:
192,192,152875,1,0,0:0:0:0:
448,192,154014,1,0,0:0:0:0:
320,192,154014,1,0,0:0:0:0:
192,192,154204,1,0,0:0:0:0:
448,192,154394,128,0,154773:0:0:0:0:
192,192,154773,128,0,155153:0:0:0:0:
64,192,155153,128,0,155723:0:0:0:0:
320,192,155153,128,0,155723:0:0:0:0:
448,192,155723,128,0,157052:0:0:0:0:
192,192,155723,128,0,157052:0:0:0:0:
64,192,156292,1,0,0:0:0:0:
320,192,156292,1,0,0:0:0:0:
320,192,157052,1,0,0:0:0:0:
192,192,157179,1,0,0:0:0:0:
64,192,157305,1,0,0:0:0:0:
448,192,157432,1,0,0:0:0:0:
320,192,157432,1,0,0:0:0:0:
192,192,157558,1,0,0:0:0:0:
64,192,157685,1,0,0:0:0:0:
448,192,157811,1,0,0:0:0:0:
320,192,157938,1,0,0:0:0:0:
64,192,158065,1,0,0:0:0:0:
448,192,158191,1,0,0:0:0:0:
320,192,158318,1,0,0:0:0:0:
192,192,158444,1,0,0:0:0:0:
64,192,158571,1,0,0:0:0:0:
448,192,158571,128,0,158951:0:0:0:0:
320,192,158951,128,0,159330:0:0:0:0:
64,192,159330,1,0,0:0:0:0:
448,192,159710,128,0,160660:0:0:0:0:
192,192,159710,128,0,160660:0:0:0:0:
320,192,160660,128,0,160849:0:0:0:0:
192,192,160849,128,0,161989:0:0:0:0:
64,192,160849,128,0,161989:0:0:0:0:
320,192,161989,128,0,162653:0:0:0:0:
448,192,161989,1,0,0:0:0:0:
64,192,162653,128,0,163128:0:0:0:0:
448,192,163128,1,0,0:0:0:0:
192,192,163128,128,0,163508:0:0:0:0:
448,192,163508,128,0,163887:0:0:0:0:
320,192,163887,128,0,164267:0:0:0:0:
192,192,164267,1,0,0:0:0:0:
64,192,164267,128,0,164742:0:0:0:0:
448,192,164742,128,0,164932:0:0:0:0:
320,192,164932,128,0,165122:0:0:0:0:
192,192,165122,128,0,165406:0:0:0:0:
320,192,165406,1,0,0:0:0:0:
448,192,165406,128,0,165786:0:0:0:0:
64,192,165786,128,0,166166:0:0:0:0:
320,192,166166,128,0,166546:0:0:0:0:
192,192,166546,128,0,167052:0:0:0:0:
64,192,166546,1,0,0:0:0:0:
448,192,167052,1,0,0:0:0:0:
320,192,167210,1,0,0:0:0:0:
448,192,167368,128,0,167685:0:0:0:0:
192,192,167685,1,0,0:0:0:0:
64,192,167685,1,0,0:0:0:0:
320,192,168065,128,0,168444:0:0:0:0:
192,192,168444,128,0,168634:0:0:0:0:
320,192,168824,128,0,169204:0:0:0:0:
448,192,168824,1,0,0:0:0:0:
64,192,169204,128,0,169394:0:0:0:0:
448,192,169394,128,0,169584:0:0:0:0:
192,192,169584,128,0,169773:0:0:0:0:
320,192,169773,128,0,169963:0:0:0:0:
192,192,169963,1,0,0:0:0:0:
64,192,169963,128,0,170343:0:0:0:0:
448,192,170343,128,0,170533:0:0:0:0:
64,192,170533,128,0,170723:0:0:0:0:
320,192,170723,128,0,170913:0:0:0:0:
192,192,170913,128,0,171103:0:0:0:0:
64,192,171103,128,0,171957:0:0:0:0:
448,192,171103,128,0,171957:0:0:0:0:
192,192,171957,128,0,172242:0:0:0:0:
320,192,172242,128,0,173001:0:0:0:0:
448,192,172242,128,0,173001:0:0:0:0:
64,192,173001,1,0,0:0:0:0:
192,192,173191,1,0,0:0:0:0:
448,192,173381,128,0,174330:0:0:0:0:
64,192,173381,128,0,174330:0:0:0:0:
64,192,174520,1,0,0:0:0:0:
320,192,174520,1,0,0:0:0:0:
192,192,174900,1,0,0:0:0:0:
320,192,175153,1,0,0:0:0:0:
192,192,175406,1,0,0:0:0:0:
320,192,175660,1,0,0:0:0:0:
448,192,175660,1,0,0:0:0:0:
64,192,175754,128,0,177179:0:0:0:0:
192,192,176324,1,0,0:0:0:0:
320,192,176799,1,0,0:0:0:0:
448,192,176799,1,0,0:0:0:0:
320,192,177179,128,0,177653:0:0:0:0:
64,192,177653,128,0,177843:0:0:0:0:
448,192,177843,128,0,178128:0:0:0:0:
192,192,178128,128,0,178318:0:0:0:0:
320,192,178318,128,0,178603:0:0:0:0:
64,192,178603,128,0,178792:0:0:0:0:
192,192,178792,1,0,0:0:0:0:
448,192,178887,128,0,179837:0:0:0:0:
192,192,179077,1,0,0:0:0:0:
64,192,179077,1,0,0:0:0:0:
192,192,179837,1,0,0:0:0:0:
320,192,180027,1,0,0:0:0:0:
192,192,180217,1,0,0:0:0:0:
64,192,180217,128,0,180596:0:0:0:0:
448,192,180596,128,0,181925:0:0:0:0:
320,192,181166,1,0,0:0:0:0:
64,192,181356,1,0,0:0:0:0:
192,192,181356,1,0,0:0:0:0:
320,192,181546,1,0,0:0:0:0:
192,192,181925,1,0,0:0:0:0:
448,192,182305,1,0,0:0:0:0:
320,192,182495,128,0,183065:0:0:0:0:
64,192,182495,1,0,0:0:0:0:
64,192,183065,128,0,184773:0:0:0:0:
448,192,183634,128,0,184773:0:0:0:0:
320,192,183634,1,0,0:0:0:0:
320,192,184773,128,0,185438:0:0:0:0:
192,192,184773,128,0,185438:0:0:0:0:
448,192,185438,128,0,185628:0:0:0:0:
64,192,185628,128,0,185913:0:0:0:0:
192,192,185913,128,0,186292:0:0:0:0:
320,192,185913,128,0,186292:0:0:0:0:
64,192,186103,1,0,0:0:0:0:
448,192,186292,128,0,186482:0:0:0:0:
192,192,186482,128,0,186862:0:0:0:0:
320,192,186862,1,0,0:0:0:0:
64,192,187052,128,0,187432:0:0:0:0:
192,192,187052,128,0,187432:0:0:0:0:
320,192,187432,128,0,187622:0:0:0:0:
448,192,187622,128,0,188001:0:0:0:0:
320,192,188001,128,0,188191:0:0:0:0:
192,192,188191,128,0,188571:0:0:0:0:
64,192,188191,128,0,188571:0:0:0:0:
448,192,188571,128,0,188761:0:0:0:0:
320,192,188761,128,0,189141:0:0:0:0:
192,192,189141,1,0,0:0:0:0:
64,192,189330,128,0,190470:0:0:0:0:
448,192,189330,128,0,190280:0:0:0:0:
320,192,190280,1,0,0:0:0:0:
448,192,190470,1,0,0:0:0:0:
192,192,190660,1,0,0:0:0:0:
320,192,191039,1,0,0:0:0:0:
64,192,191419,1,0,0:0:0:0:
320,192,191609,1,0,0:0:0:0:
